osu file format v5

[General]
AudioFilename: Alice Sweet - IOSYS.mp3
AudioLeadIn: 0
PreviewTime: -1
Countdown: 1
SampleSet: Normal
StackLeniency: 0.7
Mode: 0
LetterboxInBreaks: 1

[Metadata]
Title:Alice > Dere
Artist:IOSYS
Creator:Nya
Version:Insane
Source:
Tags:alice dere sweet iosys

[Difficulty]
HPDrainRate:5
CircleSize:6
OverallDifficulty:8
SliderMultiplier:1.1
SliderTickRate:2

[Events]
//Background and Video events
0,0,"Konachan_com%20-%2037125%20alice_margatroid%20capura_lin%20fairy%20touhou.jpg"
//Break Periods
2,30500,45319
2,96095,104990
2,120500,135436
2,191720,217490
//Storyboard Layer 0 (Background)
//Storyboard Layer 1 (Failing)
//Storyboard Layer 2 (Passing)
//Storyboard Layer 3 (Foreground)
//Storyboard Sound Samples
//Background Colour Transformations
3,100,0,0,0

[TimingPoints]
15740,468.75,4,1,0,100,1

[Colours]
Combo1 : 128,0,0
Combo2 : 0,128,255
Combo3 : 255,0,128
Combo4 : 255,217,0

[HitObjects]
96,64,15740,1,0
96,64,15857,1,0
96,128,16091,1,0
96,128,16208,1,0
192,64,16677,2,0,B|211:40|252:15|330:65|352:96,1,165
352,128,17615,1,4
352,128,17732,1,4
352,192,17966,1,4
352,192,18083,1,4
256,192,18552,5,0
256,192,18669,1,0
192,192,18904,1,8
192,192,19021,1,8
64,64,19490,5,8
64,64,19607,1,8
64,128,19841,1,0
64,128,19958,1,0
192,32,20427,2,0,B|320:32,1,110
256,128,21365,1,0
256,128,21482,1,0
256,192,21716,1,8
256,192,21833,1,8
128,64,22302,5,0
184,64,22419,1,0
184,64,22654,1,8
128,64,22771,1,8
64,128,23240,5,0
64,128,23357,1,0
64,192,23591,1,0
64,192,23708,1,0
160,160,24177,2,0,B|320:160|256:64|256:192,1,165
256,224,25115,1,8
256,224,25232,1,8
256,288,25466,1,8
256,288,25583,1,8
160,128,26052,5,0
160,128,26169,1,4
160,192,26404,1,12
160,192,26521,1,12
256,64,26990,5,0
256,96,27107,1,0
256,160,27341,1,0
256,192,27458,1,0
224,320,27927,2,0,B|169:295|160:160,1,165
160,112,28865,1,0
160,112,28982,1,0
224,112,29216,1,8
224,112,29333,1,8
336,112,29802,5,0
336,112,29919,1,0
400,112,30154,1,8
400,112,30271,1,8
96,64,45740,5,0
96,96,45974,1,0
96,128,46208,1,0
96,160,46443,1,0
96,192,46677,1,0
96,224,46911,1,0
96,256,47146,1,0
96,288,47380,1,0
128,288,47615,1,0
160,288,47849,1,0
192,288,48083,1,0
224,288,48318,1,0
256,288,48552,1,0
256,160,49021,5,2
448,64,49490,5,0
448,96,49724,1,0
448,128,49958,1,0
448,160,50193,1,0
448,192,50427,1,0
448,224,50661,1,0
448,256,50896,1,0
448,288,51130,1,0
416,288,51365,1,0
384,288,51599,1,0
352,288,51833,1,0
320,288,52068,1,0
288,288,52302,1,0
288,288,52536,5,2
288,288,52771,1,2
256,64,53240,5,0
224,64,53474,1,0
192,64,53708,1,0
160,64,53943,1,0
128,64,54177,1,0
96,64,54411,1,0
96,96,54646,1,0
96,128,54880,1,0
96,160,55115,1,0
96,192,55349,1,0
96,224,55583,1,0
96,256,55818,1,0
96,288,56052,1,0
448,64,56521,5,10
416,96,56755,1,0
384,128,56990,1,0
352,160,57224,1,0
320,192,57458,1,0
288,224,57693,1,0
256,256,57927,1,0
224,224,58161,1,0
192,192,58396,1,0
160,160,58630,5,0
128,128,58865,1,0
96,96,59099,1,0
64,64,59333,1,0
96,64,59568,1,0
128,64,59802,1,0
160,64,60036,1,0
192,64,60271,1,0
224,64,60505,1,0
256,64,60740,1,0
288,64,60974,5,0
320,64,61208,1,6
352,64,61443,1,6
384,64,61677,1,6
416,64,61911,1,6
416,96,62146,1,6
416,128,62380,1,6
128,96,63083,5,0
128,224,63435,1,0
128,256,63552,1,0
256,192,64021,1,4
256,32,64490,5,0
256,64,64724,1,0
256,96,64958,1,0
256,128,65193,1,0
256,160,65427,1,0
256,192,65661,1,0
256,224,65896,5,8
256,256,66130,1,8
256,288,66365,1,8
160,256,66833,5,2
160,152,67302,1,2
256,192,67536,5,8
256,192,67771,1,8
240,320,68005,6,0,B|120:256|88:160|120:32|248:32|280:96|280:96|312:64|376:32|440:96|440:160|376:288|248:336,1,825
96,64,71990,5,0
96,96,72224,1,0
96,128,72458,1,0
96,160,72693,1,0
96,192,72927,1,0
96,224,73161,1,0
128,256,73396,5,0
160,256,73630,1,0
192,256,73865,1,0
224,160,74333,5,12
288,160,74802,1,12
257,299,75505,6,0,B|161:235|97:139|129:43|193:11|257:75|257:107,1,385
280,88,77380,6,0,B|346:34|378:34|410:98|410:162|346:258|288:320,1,385
96,64,79490,5,12
160,96,79724,1,12
64,128,79958,1,12
128,160,80193,1,12
32,192,80427,1,12
96,224,80661,1,12
174,215,80896,1,12
183,286,81130,1,12
236,241,81365,1,12
259,97,81833,5,2
259,97,82302,1,2
256,96,83005,6,0,B|192:258|192:258|341:144|341:144|171:161|171:161|330:248|330:248|272:128,1,825
128,64,86990,5,0
128,96,87224,1,0
128,128,87458,1,0
128,160,87693,1,0
128,192,87927,1,0
128,224,88161,1,0
128,256,88396,1,0
128,288,88630,1,0
160,288,88865,1,0
224,288,89333,1,2
288,288,89802,1,2
256,192,90271,12,4,95779
128,64,105740,5,4
160,96,105857,1,4
120,128,106091,1,4
88,96,106208,1,4
368,64,106677,5,0
400,104,106794,1,0
328,96,107029,1,0
360,128,107146,1,0
360,128,107380,5,0
320,160,107497,1,0
288,120,107615,1,0
240,144,107849,1,0
272,184,107966,1,0
96,64,108552,1,2
96,112,108669,1,2
152,64,108904,1,2
152,112,109021,1,2
192,192,109490,5,4
232,192,109607,1,4
232,240,109841,1,4
280,240,109958,1,4
224,96,110427,6,0,B|352:96,1,110
306,96,111130,5,0
224,160,111365,5,0
280,168,111482,1,0
256,128,111716,1,0
248,200,111833,1,0
109,128,112302,6,0,B|106:187,2,55
412,64,113240,5,0
412,64,113357,1,0
412,139,113591,1,0
412,139,113708,1,0
413,199,114177,6,0,B|302:124|255:113|246:126,1,165
239,118,115115,1,0
239,118,115232,1,8
159,120,115466,1,0
159,120,115583,1,8
157,197,116052,5,8
158,196,116169,1,8
236,199,116404,5,8
236,199,116521,1,0
223,55,116990,2,0,B|292:58,1,55
281,114,117458,2,0,B|200:114,1,55
165,109,117927,1,0
165,109,118044,1,0
111,106,118279,1,0
111,106,118396,1,0
109,172,118630,1,0
109,227,118865,1,0
109,227,118982,1,0
106,283,119216,1,0
106,283,119333,1,0
264,59,119802,5,0
264,59,119919,1,8
262,140,120154,1,0
262,140,120271,1,8
192,64,135740,5,0
224,96,135974,5,0
256,128,136208,5,0
224,160,136443,5,0
192,192,136677,5,0
160,224,136911,5,0
128,192,137146,5,0
96,160,137380,5,0
64,128,137615,5,0
128,128,137849,5,0
192,128,138083,5,0
256,128,138318,5,0
320,128,138552,5,0
256,192,139021,5,2
248,103,139490,5,0
206,59,139724,5,0
157,37,139958,5,0
109,72,140193,5,0
118,132,140427,5,0
147,184,140661,5,0
187,230,140896,5,0
235,271,141130,5,0
277,237,141365,5,0
309,193,141599,5,0
325,138,141833,5,0
329,80,142068,5,0
285,54,142302,5,2
229,85,142536,5,2
189,45,142771,1,2
96,64,143240,5,0
96,96,143474,1,0
96,128,143708,1,0
96,160,143943,1,0
96,192,144177,1,0
96,224,144411,1,0
96,256,144646,1,0
128,256,144880,1,0
160,256,145115,1,0
192,256,145349,1,0
224,256,145583,1,0
256,256,145818,1,0
256,224,146052,1,0
152,88,146521,5,2
112,56,146755,1,0
64,56,146990,1,0
64,96,147224,1,0
64,128,147458,1,0
64,160,147693,1,0
64,192,147927,1,0
64,224,148161,1,0
64,256,148396,1,0
64,288,148630,5,0
96,288,148865,1,0
128,256,149099,1,0
160,224,149333,1,0
192,192,149568,1,0
224,160,149802,1,0
256,128,150036,1,0
288,96,150271,1,0
256,96,150505,1,0
224,96,150740,1,0
192,96,150974,5,0
160,96,151208,1,0
128,96,151443,1,0
128,128,151677,1,0
160,64,153083,5,0
160,192,153435,1,0
160,224,153552,1,0
256,192,154021,5,4
64,64,154490,6,8,B|64:128,1,55
64,119,154958,6,8,B|146:119,1,55
119,119,155427,6,8,B|121:192,1,55
120,173,155896,6,8,B|189:174,1,55
174,173,156365,1,0
244,177,156833,1,0
304,177,157302,1,0
234,50,158005,2,0,B|181:29|132:30|37:93|63:166|246:336|249:343|267:314|267:314|314:264|473:97|354:42|331:41|331:41|315:33|296:41|262:49|251:56,1,825
96,64,161990,5,0
128,96,162224,1,0
96,128,162458,1,0
128,160,162693,1,0
96,192,162927,1,0
128,224,163161,1,0
96,256,163396,1,0
128,288,163630,1,0
96,320,163865,1,0
256,64,164333,5,2
256,128,164802,1,2
152,128,165505,2,0,B|330:136|330:136|191:242|191:242|243:83|243:83|294:239|294:239|168:136,1,825
96,64,169490,5,0
128,96,169724,1,0
96,128,169958,1,0
128,160,170193,1,0
96,192,170427,1,0
128,224,170661,1,0
96,256,170896,1,0
128,288,171130,1,0
160,256,171365,1,0
288,256,171833,1,2
352,256,172302,1,0
96,32,173005,2,0,B|96:320|96:320|384:320|384:320|384:56,1,825
128,64,176990,5,0
160,96,177224,1,0
128,128,177458,1,0
160,160,177693,1,0
128,192,177927,1,0
160,224,178161,1,0
128,256,178396,1,0
160,288,178630,1,0
192,256,178865,1,0
256,96,179333,1,0
256,160,179802,1,8
256,192,180505,12,8,184021
128,64,184490,6,0,B|128:96,4,27.5
192,72,185193,1,6
256,64,185427,6,0,B|256:96,4,27.5
320,80,186130,5,10
312,144,186365,6,0,B|359:140,12,27.5
328,200,188005,5,6
264,208,188240,2,0,B|264:176,12,27.5
192,192,189880,1,14
213,256,190115,2,0,B|245:256,1,27.5
240,256,190349,2,0,B|277:256,1,27.5
267,256,190583,2,0,B|309:256,1,27.5
294,256,190818,2,0,B|341:256,1,27.5
321,256,191052,2,0,B|373:256,1,27.5
348,256,191286,2,0,B|405:256,1,55
128,64,218240,5,0
160,96,218474,1,0
128,128,218708,1,0
160,160,218943,1,0
128,192,219177,1,0
160,224,219411,1,0
128,256,219646,1,0
160,288,219880,1,0
224,288,220115,1,0
256,256,220349,1,0
224,224,220583,1,0
256,192,220818,1,0
224,160,221052,1,0
256,64,221521,5,2
256,192,221990,12,6,225271
64,64,225740,5,0
96,96,225974,1,0
64,128,226208,1,0
96,160,226443,1,0
64,192,226677,1,0
96,224,226911,1,0
64,256,227146,5,0
96,288,227380,5,0
160,288,227615,5,0
128,256,227849,5,0
160,224,228083,5,0
128,192,228318,5,2
96,160,228552,1,0
128,128,228786,1,0
160,96,229021,1,0
192,96,229255,1,0
224,96,229490,1,0
256,96,229724,1,0
288,96,229958,1,0
320,96,230193,5,0
320,128,230427,5,0
320,160,230661,5,0
320,192,230896,5,0
288,192,231130,5,0
256,192,231365,5,0
256,224,231599,5,0
256,256,231833,5,0
256,288,232068,5,0
224,288,232302,5,0
192,288,232536,5,0
160,288,232654,5,0
128,288,232771,5,0
96,288,232888,5,0
96,256,233005,5,0
96,224,233122,5,0
96,192,233240,5,0
96,160,233357,5,0
96,128,233474,5,0
96,96,233591,5,4
96,64,233708,5,4
128,64,233825,5,4
160,64,233943,5,4
192,64,234060,5,4
224,64,234177,5,4
256,64,234294,5,4
320,96,235583,5,0
320,192,235935,1,0
320,224,236052,1,0
192,64,236990,5,0
160,96,237224,1,0
192,128,237458,1,0
160,160,237693,1,0
224,160,237927,1,0
256,128,238161,1,0
288,160,238396,1,0
320,128,238630,1,0
352,160,238865,1,0
320,256,239333,1,0
200,256,239802,1,0
256,192,240505,12,0,244021
64,64,244490,5,0
96,96,244724,1,0
64,128,244958,1,0
96,160,245193,1,0
64,192,245427,1,0
96,224,245661,1,0
64,256,245896,1,0
120,256,246130,1,0
152,224,246365,1,0
160,112,246833,1,0
272,112,247302,1,0
256,192,248005,12,0,251638
96,64,251990,5,0
128,96,252224,1,0
96,128,252458,1,0
128,128,252693,1,0
160,128,252927,1,0
192,128,253161,1,0
224,128,253396,1,0
256,160,253630,1,0
288,192,253865,1,0
224,256,254333,5,0
96,256,254802,1,6
128,64,255505,6,0,B|320:64,1,165
316,64,256443,5,0
316,64,256677,1,0
316,64,256911,1,0
316,64,257146,1,0
316,64,257380,1,0
320,128,257615,1,0
320,192,257849,1,0
320,256,258083,1,0
256,256,258318,1,0
192,256,258552,1,0
128,256,258786,1,0
64,256,259021,1,0
96,64,259490,5,0
160,64,259724,1,0
224,64,259958,1,0
288,64,260193,1,0
352,64,260427,1,0
416,64,260661,1,0
416,128,260896,1,0
416,192,261130,1,0
416,256,261365,1,0
304,256,261833,1,0
184,256,262302,1,0
256,192,263005,12,0,268161
