osu file format v5

[General]
AudioFilename: Alice Sweet - IOSYS.mp3
AudioLeadIn: 0
PreviewTime: -1
Countdown: 1
SampleSet: Normal
StackLeniency: 0.7
Mode: 0
LetterboxInBreaks: 1

[Metadata]
Title:Alice > Dere
Artist:IOSYS
Creator:Nya
Version:Hard
Source:
Tags:alice dere sweet iosys

[Difficulty]
HPDrainRate:7
CircleSize:5
OverallDifficulty:7
SliderMultiplier:1.1
SliderTickRate:2

[Events]
//Background and Video events
0,0,"Konachan_com%20-%2037125%20alice_margatroid%20capura_lin%20fairy%20touhou.jpg"
//Break Periods
2,30500,44869
2,96086,104830
2,120500,134869
2,190080,217340
//Storyboard Layer 0 (Background)
//Storyboard Layer 1 (Failing)
//Storyboard Layer 2 (Passing)
//Storyboard Layer 3 (Foreground)
//Storyboard Sound Samples
//Background Colour Transformations
3,100,0,0,0

[TimingPoints]
15740,468.75,4,1,0,100,1

[Colours]
Combo1 : 128,0,0
Combo2 : 0,128,255
Combo3 : 255,0,128
Combo4 : 255,217,0

[HitObjects]
96,64,15740,1,0
160,64,16208,1,0
224,64,16677,1,0
272,64,17029,1,0
336,64,17380,1,0
336,128,17615,1,0
336,128,17732,1,0
336,192,17966,1,0
336,192,18083,1,0
160,192,18552,5,8
160,192,19021,5,8
352,64,19490,6,0,B|384:160|384:256|288:224,1,220
248,224,20779,1,0
200,224,21130,1,0
200,168,21365,1,0
200,168,21482,1,0
200,104,21716,1,0
200,104,21833,1,0
320,96,22302,5,8
320,96,22771,1,8
96,96,23240,6,0,B|96:256|96:288|192:256,1,220
216,256,24529,5,0
264,232,24880,1,0
264,184,25115,1,0
264,184,25232,1,0
264,120,25466,1,0
264,120,25583,1,0
264,8,26052,1,8
264,8,26521,1,8
192,16,26990,6,0,B|64:16|32:48|0:112|32:112,1,220
48,200,28279,5,0
104,200,28630,1,0
160,200,28865,5,0
160,200,28982,1,0
224,200,29216,1,0
224,200,29333,1,0
416,200,29802,1,8
416,200,30271,1,8
96,64,45740,5,0
96,128,45974,1,0
96,192,46208,1,0
96,256,46443,1,0
160,256,46677,1,0
160,192,46911,1,0
160,128,47146,1,0
160,64,47380,1,0
224,64,47615,1,0
224,160,48083,1,0
224,160,48552,1,0
224,160,49021,1,2
448,64,49490,5,0
448,128,49724,1,0
448,192,49958,1,0
448,256,50193,1,0
384,256,50427,1,0
384,192,50661,1,0
384,128,50896,1,0
384,64,51130,1,0
320,64,51365,1,0
320,160,51833,1,0
320,160,52302,1,0
320,160,52771,1,2
64,64,53240,5,0
64,128,53474,1,0
64,192,53708,1,0
64,256,53943,1,0
128,256,54177,1,0
128,192,54411,1,0
128,128,54646,1,0
128,64,54880,1,0
192,64,55115,1,0
192,160,55583,1,0
192,160,56052,1,0
192,160,56521,1,2
256,192,56990,12,0,62615
96,32,63083,6,0,B|96:128,1,82.5
96,128,63552,1,0
384,96,64490,5,0
384,160,64724,1,0
384,224,64958,1,0
384,288,65193,1,0
320,288,65427,1,0
320,224,65661,1,0
320,160,65896,1,0
320,96,66130,1,0
256,96,66365,1,0
256,192,66833,1,0
256,192,67302,1,0
200,144,68005,6,0,B|349:192|349:192|212:274|212:274|282:109|282:109|315:274|315:274|176:176,1,825
64,64,71990,5,0
64,128,72224,1,0
64,192,72458,1,0
64,256,72693,1,0
128,256,72927,1,0
128,192,73161,1,0
128,128,73396,1,0
128,64,73630,1,0
192,64,73865,1,0
288,64,74333,1,0
384,64,74802,1,0
256,192,75505,12,0,79021
96,64,79490,6,0,B|96:192,1,110
96,174,80193,2,0,B|160:64,1,110
192,64,80896,2,0,B|198:186,1,110
191,179,81833,1,2
192,224,82302,1,2
256,288,83005,2,0,B|128:192|96:128|96:64|160:32|192:32|224:64|256:128|256:128|256:96|288:32|320:32|384:64|384:96|384:160|320:224|256:336,1,825
64,64,86990,5,0
64,128,87224,1,0
64,192,87458,1,0
64,256,87693,1,0
128,256,87927,1,0
128,192,88161,1,0
128,128,88396,1,0
128,64,88630,1,0
192,64,88865,1,0
288,64,89333,1,0
384,64,89802,1,0
256,192,90505,12,0,95896
96,96,105740,5,0
96,96,105857,1,0
128,96,106091,1,0
128,96,106208,1,0
168,96,106443,2,0,B|296:96|291:75|317:129|344:192,1,220
352,232,107615,1,0
352,232,107732,1,0
352,296,107966,1,0
352,296,108083,1,0
256,256,108552,5,8
256,256,109021,1,8
384,96,109490,5,0
384,96,109607,1,0
320,96,109841,1,0
320,96,109958,1,0
256,96,110193,2,0,B|162:89|121:112|160:168,1,165
192,256,111365,5,0
192,256,111482,1,0
160,312,111716,1,0
160,312,111833,1,0
312,256,112302,5,8
312,256,112771,1,8
384,64,113240,5,0
384,64,113357,1,0
384,128,113591,1,0
384,128,113708,1,0
296,128,114177,2,0,B|200:128|104:128,1,165
56,128,115115,1,0
56,128,115232,1,0
56,192,115466,1,0
56,192,115583,1,0
256,160,116052,5,8
256,160,116521,1,0
96,64,116990,6,0,B|96:160,2,82.5
160,64,117927,1,0
160,64,118161,1,0
160,64,118396,1,0
160,64,118630,1,0
224,64,118865,1,0
224,64,118982,1,0
224,128,119216,1,0
224,128,119333,1,0
224,224,119802,1,8
224,224,120271,1,8
96,64,135740,5,0
96,128,135974,1,0
96,192,136208,1,0
96,256,136443,1,0
160,256,136677,1,0
160,192,136911,1,0
160,128,137146,1,0
160,64,137380,1,0
224,64,137615,1,0
224,160,138083,1,0
224,160,138552,1,0
224,160,139021,1,2
448,64,139490,5,0
448,128,139724,1,0
448,192,139958,1,0
448,256,140193,1,0
384,256,140427,1,0
384,192,140661,1,0
384,128,140896,1,0
384,64,141130,1,0
320,64,141365,1,0
320,160,141833,1,0
320,160,142302,1,0
320,160,142771,1,2
96,64,143240,5,0
96,128,143474,1,0
96,192,143708,1,0
96,256,143943,1,0
160,256,144177,1,0
160,192,144411,1,0
160,128,144646,1,0
160,64,144880,1,0
224,64,145115,1,0
224,160,145583,1,0
224,160,146052,1,0
224,160,146521,1,2
256,192,146990,12,0,152615
96,32,153083,6,0,B|96:128,1,82.5
96,119,153552,1,0
32,160,154490,5,0
32,224,154724,1,0
32,288,154958,1,0
32,352,155193,1,0
96,352,155427,1,0
96,288,155661,1,0
96,224,155896,1,0
96,160,156130,1,0
192,256,156365,1,0
192,256,156833,1,0
192,256,157302,1,0
64,64,158005,6,0,B|96:160|192:128|224:64|288:32|352:128,1,330
352,160,159880,1,0
352,160,160349,1,0
352,160,160818,1,0
352,160,161286,1,8
352,160,161521,1,8
64,64,161990,5,2
64,128,162224,1,0
64,192,162458,1,2
64,256,162693,1,0
128,256,162927,1,2
128,192,163161,1,0
128,128,163396,1,2
128,64,163630,1,0
192,64,163865,1,2
288,64,164333,1,2
384,64,164802,1,6
256,192,165505,12,0,169020
64,64,169490,5,2
64,128,169724,1,2
64,192,169958,1,0
64,256,170193,1,2
128,256,170427,1,0
128,192,170661,1,2
128,128,170896,1,0
128,64,171130,1,2
192,64,171365,1,2
288,64,171833,1,2
384,64,172302,1,6
224,328,173005,6,0,B|100:204|72:96|129:0|265:93|265:93|296:64|371:37|407:58|392:128|391:212|296:288|256:344,1,825
64,64,176990,5,0
128,64,177224,1,2
128,128,177458,1,0
64,128,177693,1,2
64,192,177927,1,0
128,192,178161,1,2
128,256,178396,1,0
64,256,178630,1,2
64,320,178865,1,0
160,320,179333,1,2
256,320,179802,1,4
256,192,180505,12,0,183552
80,160,184490,6,0,B|80:224,3,55
144,160,185427,2,0,B|144:224,3,55
200,160,186365,2,0,B|200:224,6,55
256,160,188005,2,0,B|256:224,4,55
312,160,189177,2,0,B|311:197|312:224,3,55
96,64,218240,5,0
96,128,218474,1,0
96,192,218708,1,0
96,256,218943,1,0
160,256,219177,1,0
160,192,219411,1,0
160,128,219646,1,0
160,64,219880,1,0
256,160,220115,1,0
256,160,220583,1,0
256,160,221052,1,0
256,160,221521,1,2
416,64,221990,5,0
416,128,222224,1,0
416,192,222458,1,0
416,256,222693,1,0
352,256,222927,1,0
352,192,223161,1,0
352,128,223396,1,0
352,64,223630,1,0
224,160,223865,1,0
224,160,224333,1,0
224,160,224802,1,0
224,160,225271,1,2
64,64,225740,5,0
64,128,225974,1,0
64,192,226208,1,0
64,256,226443,1,0
128,256,226677,1,0
128,192,226911,1,0
128,128,227146,1,0
128,64,227380,1,0
224,160,227615,1,0
224,160,228083,1,0
224,160,228552,1,0
224,160,229021,1,2
256,192,229490,12,0,234411
64,64,235583,6,0,B|64:160,1,82.5
64,160,236052,1,0
32,288,236990,5,0
32,224,237224,1,0
32,160,237458,1,8
32,96,237693,1,0
96,96,237927,1,0
96,160,238161,1,0
96,224,238396,1,8
96,288,238630,1,0
160,288,238865,1,8
256,288,239333,1,0
352,288,239802,5,8
64,128,240505,2,0,B|192:64|288:96|352:128,2,275
64,128,243552,1,0
64,128,243786,1,0
64,128,244021,1,0
192,64,244490,5,0
192,128,244724,1,8
192,192,244958,1,0
192,256,245193,1,8
256,256,245427,1,0
256,192,245661,1,8
256,128,245896,1,0
256,64,246130,1,8
256,64,246365,1,0
256,64,246833,1,8
256,64,247302,1,4
256,192,248005,12,0,251052
64,64,251990,5,0
64,128,252224,1,0
64,192,252458,1,8
64,256,252693,1,0
128,256,252927,1,0
128,192,253161,1,0
128,128,253396,1,8
128,64,253630,1,0
192,64,253865,1,0
256,64,254333,1,8
256,64,254802,1,0
256,320,255505,6,0,B|49:186|114:78|136:-8|264:88|264:88|306:37|379:32|454:158|385:182|296:328,1,825
96,64,259490,5,0
96,128,259724,1,8
96,192,259958,1,0
96,256,260193,1,8
160,256,260427,1,0
160,192,260661,1,8
160,128,260896,1,0
160,64,261130,1,8
224,64,261365,1,0
224,160,261833,1,8
224,160,262302,1,2
256,192,263005,12,0,268396
