osu file format v5

[General]
AudioFilename: Alice Sweet - IOSYS.mp3
AudioLeadIn: 0
PreviewTime: -1
Countdown: 1
SampleSet: Normal
StackLeniency: 0.7
Mode: 0
LetterboxInBreaks: 1

[Metadata]
Title:Alice > Dere
Artist:IOSYS
Creator:Nya
Version:Easy
Source:
Tags:alice dere sweet iosys

[Difficulty]
HPDrainRate:0
CircleSize:1
OverallDifficulty:0
SliderMultiplier:0.8
SliderTickRate:0.5

[Events]
//Background and Video events
0,0,"Konachan_com%20-%2037125%20alice_margatroid%20capura_lin%20fairy%20touhou.jpg"
//Break Periods
2,29094,43969
2,98000,103969
2,120031,133969
2,184690,216440
//Storyboard Layer 0 (Background)
//Storyboard Layer 1 (Failing)
//Storyboard Layer 2 (Passing)
//Storyboard Layer 3 (Foreground)
//Storyboard Sound Samples
//Background Colour Transformations
3,100,0,0,0

[TimingPoints]
15740,468.75,4,1,0,100,1

[Colours]
Combo1 : 128,0,0
Combo2 : 0,128,255
Combo3 : 255,0,128
Combo4 : 255,217,0

[HitObjects]
96,64,15740,1,0
352,64,17615,1,0
352,256,19021,1,8
352,240,19490,2,0,B|360:-8,1,240
96,96,22771,1,8
96,64,23240,5,0
288,64,24177,1,0
288,288,26052,1,8
64,192,26990,6,0,B|320:192,1,240
352,192,28865,1,0
96,64,45740,5,0
448,320,49021,1,2
416,256,49490,1,0
96,288,52771,1,2
96,224,53240,6,0,B|192:96|352:96|416:256,1,400
416,128,56521,5,6
256,192,57693,12,0,64021
96,64,64490,6,0,B|416:64|416:64|416:320,1,560
160,288,69177,5,0
160,160,70115,1,0
288,128,71052,1,0
416,64,71990,6,0,B|416:304|416:304|160:304,1,480
256,192,75505,12,0,79021
128,64,79490,5,0
128,192,80427,1,0
128,320,81365,1,0
224,256,82302,1,0
256,64,83005,6,0,C|96:64|32:160|64:256|96:320|192:320|256:320,1,480
224,320,86521,1,0
288,288,86990,5,0
384,192,87927,1,0
256,128,88865,1,0
160,224,89802,1,0
256,192,90505,12,0,97771
96,64,105740,5,0
96,216,106677,1,0
288,256,107615,1,0
288,64,108552,1,8
288,64,109490,5,0
288,256,110427,1,0
96,256,111365,1,0
96,64,112302,1,8
96,64,113240,5,0
320,64,114177,1,0
320,288,115115,1,0
96,288,116052,1,8
96,288,116990,5,0
96,64,117927,1,0
320,64,118865,1,0
320,288,119802,1,0
128,96,135740,5,0
384,96,139021,1,8
352,192,139490,6,0,B|64:192,2,280
416,96,143240,5,0
96,96,144880,1,0
256,96,146521,1,0
256,192,146990,12,2,154021
96,64,154490,5,0
320,64,155427,1,0
320,256,156365,1,0
96,256,157302,1,0
160,160,157771,6,0,B|416:160,2,250
256,192,165505,12,0,169021
128,64,169490,5,0
384,64,171365,1,0
384,320,173005,1,0
96,320,175115,1,2
96,64,176990,5,0
384,64,178865,1,0
256,192,180505,12,0,184490
64,64,218240,5,0
352,64,219880,1,0
352,288,221521,1,8
96,288,223865,1,0
96,64,225036,1,8
384,64,225740,2,0,B|384:352,2,280
256,192,229490,12,0,236521
96,32,236990,5,0
96,288,237927,1,0
352,288,239802,1,0
256,192,240505,12,0,244021
96,64,244490,6,0,B|96:256|96:288|96:288|384:64|384:64|384:288|384:288|128:80,1,1120
96,64,251990,1,0
256,64,252927,1,0
416,64,253865,1,0
416,224,254802,1,8
240,280,255505,2,0,B|212:272|166:213|132:160|120:92|185:48|266:120|266:120|315:79|363:91|383:137|364:203|264:288,1,600
256,192,263005,12,0,268865
