osu file format v14

[General]
AudioFilename: GO MY WAY!!.mp3
AudioLeadIn: 1500
PreviewTime: 67496
Countdown: 0
SampleSet: Soft
StackLeniency: 0.5
Mode: 0
LetterboxInBreaks: 0
WidescreenStoryboard: 0

[Editor]
DistanceSpacing: 0.9
BeatDivisor: 4
GridSize: 4
TimelineZoom: 2

[Metadata]
Title:GO MY WAY!!
TitleUnicode:GO MY WAY!!
Artist:IM@S ALLSTARS
ArtistUnicode:IM@S ALLSTARS
Creator:Rukaru
Version:Regular
Source:THE IDOLM@STER
Tags:765pro idolmaster amami haruka hoshii miki kisaragi chihaya takatsuki yayoi hagiwara yukiho kikuchi makoto futami ami mami minase iori miura azusa shijou takane ganaha hibiki akizuki ritsuko otonashi kotori kousaki satoru best album cd1 raheta_adi xbox360 NBGI namco bandai
BeatmapID:501953
BeatmapSetID:212382

[Difficulty]
HPDrainRate:3
CircleSize:3
OverallDifficulty:3.5
ApproachRate:4
SliderMultiplier:1
SliderTickRate:2

[Events]
//Background and Video events
0,0,"gomyway-background.jpg",0,0
//Break Periods
//Storyboard Layer 0 (Background)
//Storyboard Layer 1 (Fail)
//Storyboard Layer 2 (Pass)
//Storyboard Layer 3 (Foreground)
//Storyboard Sound Samples

[TimingPoints]
1330,333.333333333333,4,2,1,50,1,0
11996,-100,4,2,1,60,0,0
43996,-100,4,2,1,50,0,0
54663,-100,4,2,1,60,0,0
67996,-100,4,2,1,70,0,1
68329,-100,4,1,1,70,0,1
68663,-100,4,2,1,70,0,1
71329,-100,4,1,1,70,0,1
71663,-100,4,2,1,70,0,1
71996,-100,4,1,1,70,0,1
72996,-100,4,2,1,70,0,1
73329,-100,4,1,1,70,0,1
73663,-100,4,2,1,70,0,1
74663,-100,4,1,1,70,0,1
75663,-100,4,2,1,70,0,1
75996,-100,4,1,1,70,0,1
76329,-100,4,2,1,70,0,1
77329,-100,4,1,1,70,0,1
78329,-100,4,2,1,70,0,1
78996,-100,4,1,1,70,0,1
79329,-100,4,2,1,70,0,1
81996,-100,4,1,1,70,0,1
82329,-100,4,2,1,70,0,1
82663,-100,4,1,1,70,0,1
83663,-100,4,2,1,70,0,1
83996,-100,4,1,1,70,0,1
84329,-100,4,2,1,70,0,1
85329,-100,4,1,1,70,0,1
86329,-100,4,2,1,70,0,1
86663,-100,4,1,1,70,0,1
86996,-100,4,2,1,70,0,1
87996,-100,4,1,1,70,0,1
88329,-100,4,2,1,70,0,1
88663,-100,4,1,1,70,0,1
88996,-100,4,2,1,70,0,1
89329,-100,4,2,1,60,0,0
91163,-100,4,1,1,60,0,0
91996,-100,4,2,1,60,0,0
94663,-100,4,2,1,70,0,1
94996,-100,4,1,1,70,0,1
95329,-100,4,2,1,70,0,1
97996,-100,4,1,1,70,0,1
98329,-100,4,2,1,70,0,1
98663,-100,4,1,1,70,0,1
99663,-100,4,2,1,70,0,1
99996,-100,4,1,1,70,0,1
100329,-100,4,2,1,70,0,1
101329,-100,4,1,1,70,0,1
102329,-100,4,2,1,70,0,1
102663,-100,4,1,1,70,0,1
102996,-100,4,2,1,70,0,1
103996,-100,4,1,1,70,0,1
104996,-100,4,2,1,70,0,1
105663,-100,4,1,1,70,0,1
105996,-100,4,2,1,70,0,1
106996,-100,4,1,1,70,0,1
107329,-100,4,2,1,70,0,1
108663,-100,4,1,1,70,0,1
108996,-100,4,2,1,70,0,1
109329,-100,4,1,1,70,0,1
109663,-100,4,2,1,70,0,1
109996,-100,4,1,1,70,0,1
110329,-100,4,2,1,70,0,1
110663,-100,4,1,1,70,0,1
110996,-100,4,2,1,70,0,1
111996,-100,4,1,1,70,0,1
112996,-100,4,2,1,70,0,1
113329,-100,4,1,1,70,0,1
113663,-100,4,2,1,70,0,1
114663,-100,4,1,1,70,0,1
114996,-100,4,2,1,70,0,1
115996,-100,4,2,1,60,0,0
117329,-100,4,2,1,20,0,0

[Colours]
Combo1 : 255,130,196
Combo2 : 255,255,106
Combo3 : 53,255,200
Combo4 : 255,150,34

[HitObjects]
51,87,1330,6,0,P|120:116|194:109,1,150,2|0,0:0|0:0,0:0:0:0:
324,72,2329,1,0,0:0:0:0:
395,127,2663,2,0,P|423:196|404:268,1,150,2|0,0:0|0:0,0:0:0:0:
304,360,3663,1,0,0:0:0:0:
228,316,3996,6,0,L|116:336,1,100,2|0,0:0|0:0,0:0:0:0:
48,292,4663,2,0,P|27:243|43:194,1,100,0|0,0:0|0:0,0:0:0:0:
104,140,5329,2,0,B|176:112|176:160|250:141,1,150,2|0,0:0|0:0,0:0:0:0:
372,80,6329,1,0,0:0:0:0:
444,136,6663,6,0,L|450:235,1,100,2|0,0:0|0:0,0:0:0:0:
364,220,7329,2,0,L|368:324,1,100,0|0,0:0|0:0,0:0:0:0:
284,291,7996,2,0,P|234:345|161:345,2,150,2|0|0,0:0|0:0|0:0,0:0:0:0:
200,264,9329,5,6,0:0:0:0:
184,176,9663,1,0,0:0:0:0:
256,124,9996,1,0,0:0:0:0:
328,176,10329,1,0,0:0:0:0:
312,264,10663,2,0,P|406:280|468:207,1,200,6|0,0:0|0:0,0:0:0:0:
448,27,11996,6,0,P|432:74|438:124,1,100,4|8,0:0|0:0,0:0:0:0:
468,208,12663,2,0,L|460:316,1,100,2|8,0:0|0:0,0:0:0:0:
372,331,13329,2,0,P|300:348|232:318,1,150,0|2,0:0|0:0,0:0:0:0:
140,212,14329,1,8,0:0:0:0:
76,276,14663,6,0,P|76:325|103:366,2,100,2|8|2,0:0|0:0|0:0,0:0:0:0:
140,212,15663,1,8,0:0:0:0:
52,188,15996,2,0,L|3:201,2,50,0|0|8,0:0|0:0|0:0,0:0:0:0:
56,96,16663,2,0,L|7:109,2,50,2|0|8,0:0|0:0|0:0,0:0:0:0:
140,123,17329,6,0,P|188:111|236:122,1,100,4|8,0:0|0:0,0:0:0:0:
296,192,17996,2,0,L|300:300,1,100,2|8,0:0|0:0,0:0:0:0:
367,351,18663,2,0,P|440:353|489:299,1,150,0|2,0:0|0:0,0:0:0:0:
492,164,19663,1,8,0:0:0:0:
408,131,19996,6,0,P|376:197|401:265,2,150,4|4|4,0:0|0:0|0:0,0:0:0:0:
356,60,21329,2,0,L|256:68,1,100,2|0,0:0|0:0,0:0:0:0:
172,40,21996,1,2,0:0:0:0:
96,88,22329,1,0,0:0:0:0:
140,168,22663,6,0,L|132:280,1,100,6|8,0:0|0:0,0:0:0:0:
288,356,23663,1,8,0:0:0:0:
371,319,23996,2,0,P|340:280|292:267,1,100,2|8,0:0|0:0,0:0:0:0:
128,356,24996,1,8,0:0:0:0:
44,324,25329,6,0,L|51:224,1,100,2|8,0:0|0:0,0:0:0:0:
164,84,26329,1,8,0:0:0:0:
78,51,26663,2,0,P|74:101|96:145,1,100,2|8,0:0|0:0,0:0:0:0:
180,171,27329,2,0,P|224:151|251:109,1,100,2|8,0:0|0:0,0:0:0:0:
272,24,27996,5,2,0:0:0:0:
336,88,28329,2,0,P|423:125|500:64,1,200,8|8,0:0|0:0,0:0:0:0:
412,32,29329,1,2,0:0:0:0:
412,32,29663,2,0,L|435:230,1,200,8|8,0:0|0:0,0:0:0:0:
356,276,30663,6,0,L|344:176,1,100,2|8,0:0|0:0,0:0:0:0:
264,216,31329,2,0,L|276:316,1,100,2|8,0:0|0:0,0:0:0:0:
192,344,31996,1,2,0:0:0:0:
108,312,32329,2,0,L|85:356,2,50,2|0|2,0:0|0:0|0:0,0:0:0:0:
76,228,32996,1,8,0:0:0:0:
76,228,33329,6,0,L|59:129,1,100,4|8,0:0|0:0,0:0:0:0:
36,44,33996,1,0,0:0:0:0:
124,36,34329,1,8,0:0:0:0:
143,123,34663,2,0,P|191:132|238:116,1,100,2|8,0:0|0:0,0:0:0:0:
328,92,35329,1,0,0:0:0:0:
308,180,35663,1,8,0:0:0:0:
396,160,35996,6,0,L|495:163,1,100,2|8,0:0|0:0,0:0:0:0:
488,72,36663,1,0,0:0:0:0:
404,44,36996,1,8,0:0:0:0:
328,91,37329,2,0,P|276:100|228:88,1,100,2|8,0:0|0:0,0:0:0:0:
156,36,37996,2,0,P|107:25|58:33,1,100,0|8,0:0|0:0,0:0:0:0:
8,108,38663,6,0,L|16:208,1,100,2|8,0:0|0:0,0:0:0:0:
92,256,39329,1,0,0:0:0:0:
12,300,39663,1,8,0:0:0:0:
92,344,39996,2,0,L|196:356,1,100,2|8,0:0|0:0,0:0:0:0:
236,280,40663,1,0,0:0:0:0:
280,360,40996,1,8,0:0:0:0:
328,283,41329,6,0,P|374:267|406:230,1,100,2|8,0:0|0:0,0:0:0:0:
324,192,41996,2,0,P|333:143|316:96,1,100,2|8,0:0|0:0,0:0:0:0:
243,147,42663,2,0,P|158:100|66:130,1,200,0|2,0:0|0:0,0:0:0:0:
48,220,43663,1,8,0:0:0:0:
48,220,43996,6,0,P|143:247|242:240,1,200,4|2,0:0|0:0,0:0:0:0:
328,212,44996,1,0,0:0:0:0:
408,248,45329,2,0,P|416:297|410:346,2,100,0|2|2,0:0|0:0|0:0,0:0:0:0:
472,188,46329,1,2,0:0:0:0:
468,96,46663,6,0,P|377:63|301:121,1,200,2|2,0:0|0:0,0:0:0:0:
284,208,47663,1,0,0:0:0:0:
200,172,47996,2,0,L|101:184,1,100,2|0,0:0|0:0,0:0:0:0:
28,239,48663,2,0,P|24:289|40:336,1,100,2|0,0:0|0:0,0:0:0:0:
128,316,49329,6,0,B|180:304|180:304|228:376|307:345,1,200,4|0,0:0|0:0,0:0:0:0:
264,260,50329,1,2,0:0:0:0:
320,188,50663,2,0,L|340:88,2,100,2|0|2,0:0|0:0|0:0,0:0:0:0:
364,268,51663,1,2,0:0:0:0:
364,356,51996,6,0,P|443:304|430:210,1,200,2|2,0:0|0:0,0:0:0:0:
380,136,52996,1,2,0:0:0:0:
440,72,53329,2,0,P|396:48|344:56,1,100,2|0,0:0|0:0,0:0:0:0:
288,120,53996,2,0,B|260:136|260:136|180:136,1,100,0|2,0:0|0:0,0:0:0:0:
132,72,54663,6,0,P|101:138|134:203,1,150,4|8,0:0|0:0,0:0:0:0:
244,292,55663,1,8,0:0:0:0:
172,348,55996,2,0,L|20:356,2,150,0|8|8,0:0|0:0|0:0,0:0:0:0:
243,292,57329,6,0,P|267:222|244:152,1,150,0|8,0:0|0:0,0:0:0:0:
144,64,58329,1,8,0:0:0:0:
228,28,58663,2,0,L|377:35,1,150,0|8,0:0|0:0,0:0:0:0:
480,124,59663,1,8,0:0:0:0:
432,200,59996,6,0,B|428:252|428:252|439:298,1,100,4|8,0:0|0:0,0:0:0:0:
364,348,60663,2,0,B|320:318|320:318|274:305,1,100,2|8,0:0|0:0,0:0:0:0:
268,216,61329,2,0,B|315:193|315:193|349:160,1,100,2|8,0:0|0:0,0:0:0:0:
316,76,61996,1,2,0:0:0:0:
232,48,62329,1,8,0:0:0:0:
156,95,62663,6,0,P|82:87|29:36,2,150,2|2|8,0:0|0:0|0:0,0:0:0:0:
184,180,63996,2,0,B|154:334,2,150,2|2|8,0:0|0:0|0:0,0:0:0:0:
256,192,65329,12,0,67329,0:0:0:0:
368,319,67996,6,0,P|383:273|375:224,1,100,4|2,0:0|0:0,0:0:0:0:
296,180,68663,2,0,L|256:216,2,50,2|0|8,0:0|0:0|0:0,0:0:0:0:
359,116,69329,2,0,P|430:93|503:106,2,150,2|2|8,0:0|0:0|0:0,0:0:0:0:
270,101,70663,5,2,0:0:0:0:
196,152,70996,1,8,0:0:0:0:
112,119,71329,2,0,P|107:169|129:213,1,100,2|8,0:0|0:0,0:0:0:0:
200,268,71996,2,0,P|272:284|348:268,1,150,2|2,0:0|0:0,0:0:0:0:
448,184,72996,1,8,0:0:0:0:
456,271,73329,6,0,P|464:320|490:362,2,100,2|8|0,0:0|0:0|0:0,0:0:0:0:
376,232,74329,1,8,0:0:0:0:
316,300,74663,2,0,L|156:292,2,150,2|2|8,0:0|0:0|0:0,0:0:0:0:
375,232,75996,6,0,P|376:184|352:136,1,100,2|8,0:0|0:0,0:0:0:0:
268,164,76663,1,0,0:0:0:0:
288,76,76996,1,8,0:0:0:0:
200,100,77329,2,0,P|127:90|76:37,2,150,2|2|8,0:0|0:0|0:0,0:0:0:0:
167,184,78663,6,0,P|163:233|175:281,1,100,4|2,0:0|0:0,0:0:0:0:
240,344,79329,2,0,L|292:352,2,50,0|0|8,0:0|0:0|0:0,0:0:0:0:
152,362,79996,2,0,P|80:360|36:296,2,150,2|2|8,0:0|0:0|0:0,0:0:0:0:
124,280,81329,6,0,L|134:180,1,100,2|8,0:0|0:0,0:0:0:0:
224,200,81996,2,0,L|232:100,1,100,2|8,0:0|0:0,0:0:0:0:
163,43,82663,2,0,P|235:63|308:49,2,150,2|2|8,0:0|0:0|0:0,0:0:0:0:
76,68,83996,5,2,0:0:0:0:
76,68,84329,1,8,0:0:0:0:
52,156,84663,1,0,0:0:0:0:
52,156,84996,1,8,0:0:0:0:
131,199,85329,2,0,P|134:273|91:333,1,150,2|2,0:0|0:0,0:0:0:0:
4,232,86329,1,8,0:0:0:0:
51,156,86663,6,0,P|57:106|39:60,2,100,2|8|0,0:0|0:0|0:0,0:0:0:0:
132,200,87663,1,8,0:0:0:0:
208,152,87996,2,0,L|307:145,1,100,2|8,0:0|0:0,0:0:0:0:
336,232,88663,2,0,L|236:238,1,100,2|8,0:0|0:0,0:0:0:0:
204,324,89329,6,0,L|403:312,1,200,4|2,0:0|0:0,0:0:0:0:
464,248,90329,1,8,0:0:0:0:
428,168,90663,2,0,P|404:99|441:36,2,150,2|2|2,0:0|0:0|0:0,0:0:0:0:
256,192,91996,12,0,93996,0:0:0:0:
304,256,94663,6,0,L|204:264,1,100,4|2,0:0|0:0,0:0:0:0:
212,176,95329,2,0,L|312:168,1,100,2|8,0:0|0:0,0:0:0:0:
400,160,95996,2,0,P|364:92|296:80,2,150,2|2|8,0:0|0:0|0:0,0:0:0:0:
396,252,97329,6,0,L|398:351,1,100,2|8,0:0|0:0,0:0:0:0:
488,360,97996,1,2,0:0:0:0:
488,272,98329,1,8,0:0:0:0:
460,188,98663,2,0,P|392:160|327:191,1,150,2|2,0:0|0:0,0:0:0:0:
300,324,99663,1,8,0:0:0:0:
212,344,99996,6,0,P|164:357|117:344,1,100,2|8,0:0|0:0,0:0:0:0:
68,267,100663,2,0,P|115:253|162:267,1,100,0|8,0:0|0:0,0:0:0:0:
248,244,101329,2,0,P|288:182|286:108,1,150,2|2,0:0|0:0,0:0:0:0:
156,144,102329,1,8,0:0:0:0:
80,188,102663,6,0,P|67:140|83:93,1,100,2|8,0:0|0:0,0:0:0:0:
163,55,103329,2,0,P|209:74|238:114,1,100,0|8,0:0|0:0,0:0:0:0:
220,203,103996,2,0,P|199:275|219:346,1,150,2|2,0:0|0:0,0:0:0:0:
336,276,104996,1,8,0:0:0:0:
404,336,105329,6,0,P|450:352|504:340,1,100,4|2,0:0|0:0,0:0:0:0:
456,264,105996,1,8,0:0:0:0:
452,176,106329,1,8,0:0:0:0:
396,104,106663,6,0,L|296:100,1,100,8|2,0:0|0:0,0:0:0:0:
200,96,107329,1,8,0:0:0:0:
108,92,107663,1,8,0:0:0:0:
16,88,107996,6,0,L|4:188,1,100,8|8,0:0|0:0,0:0:0:0:
96,180,108663,2,0,L|127:275,1,100,2|8,0:0|0:0,0:0:0:0:
212,240,109329,6,0,L|267:324,1,100,2|8,0:0|0:0,0:0:0:0:
344,276,109996,2,0,L|429:329,1,100,2|8,0:0|0:0,0:0:0:0:
487,259,110663,6,0,P|466:215|425:188,1,100,2|8,0:0|0:0,0:0:0:0:
336,196,111329,2,0,P|284:204|232:196,1,100,0|8,0:0|0:0,0:0:0:0:
152,172,111996,2,0,P|123:240|138:312,2,150,2|2|8,0:0|0:0|0:0,0:0:0:0:
220,112,113329,6,0,P|179:83|130:83,1,100,2|8,0:0|0:0,0:0:0:0:
48,125,113996,1,2,0:0:0:0:
16,209,114329,1,8,0:0:0:0:
48,293,114663,2,0,P|97:301|146:293,1,100,2|8,0:0|0:0,0:0:0:0:
231,265,115329,2,0,P|279:253|328:261,1,100,2|8,0:0|0:0,0:0:0:0:
416,288,115996,5,4,0:0:0:0:
256,192,116163,12,4,118663,3:0:0:0:
