osu file format v14

[General]
AudioFilename: GO MY WAY!!.mp3
AudioLeadIn: 1500
PreviewTime: 67496
Countdown: 0
SampleSet: Soft
StackLeniency: 0.5
Mode: 0
LetterboxInBreaks: 0
WidescreenStoryboard: 0

[Editor]
Bookmarks: 106663
DistanceSpacing: 1
BeatDivisor: 4
GridSize: 4
TimelineZoom: 1.5

[Metadata]
Title:GO MY WAY!!
TitleUnicode:GO MY WAY!!
Artist:IM@S ALLSTARS
ArtistUnicode:IM@S ALLSTARS
Creator:Rukaru
Version:Intermediate
Source:THE IDOLM@STER
Tags:765pro idolmaster amami haruka hoshii miki kisaragi chihaya takatsuki yayoi hagiwara yukiho kikuchi makoto futami ami mami minase iori miura azusa shijou takane ganaha hibiki akizuki ritsuko otonashi kotori kousaki satoru best album cd1 raheta_adi xbox360 NBGI namco bandai
BeatmapID:630137
BeatmapSetID:212382

[Difficulty]
HPDrainRate:4
CircleSize:3.5
OverallDifficulty:5
ApproachRate:5
SliderMultiplier:1
SliderTickRate:2

[Events]
//Background and Video events
0,0,"gomyway-background.jpg",0,0
//Break Periods
//Storyboard Layer 0 (Background)
//Storyboard Layer 1 (Fail)
//Storyboard Layer 2 (Pass)
//Storyboard Layer 3 (Foreground)
//Storyboard Sound Samples

[TimingPoints]
1330,333.333333333333,4,2,1,50,1,0
11996,-100,4,2,1,60,0,0
43996,-100,4,2,1,50,0,0
54663,-100,4,2,1,60,0,0
67996,-100,4,2,1,70,0,1
68329,-100,4,1,1,70,0,1
68663,-100,4,2,1,70,0,1
69663,-100,4,1,1,70,0,1
69829,-100,4,2,1,70,0,1
71329,-100,4,1,1,70,0,1
71496,-100,4,2,1,70,0,1
71996,-100,4,1,1,70,0,1
72329,-100,4,2,1,70,0,1
72496,-100,4,1,1,70,0,1
72996,-100,4,2,1,70,0,1
73329,-100,4,1,1,70,0,1
73663,-100,4,2,1,70,0,1
74663,-100,4,1,1,70,0,1
74996,-100,4,2,1,70,0,1
75163,-100,4,1,1,70,0,1
75663,-100,4,2,1,70,0,1
75996,-100,4,1,1,70,0,1
76329,-100,4,2,1,70,0,1
77329,-100,4,1,1,70,0,1
77663,-100,4,2,1,70,0,1
77829,-100,4,1,1,70,0,1
78163,-100,4,2,1,70,0,1
78996,-100,4,1,1,70,0,1
79163,-100,4,2,1,70,0,1
80329,-100,4,1,1,70,0,1
80496,-100,4,2,1,70,0,1
81996,-100,4,1,1,70,0,1
82329,-100,4,2,1,70,0,1
82663,-100,4,1,1,70,0,1
82996,-100,4,2,1,70,0,1
83163,-100,4,1,1,70,0,1
83663,-100,4,2,1,70,0,1
83996,-100,4,1,1,70,0,1
84329,-100,4,2,1,70,0,1
85329,-100,4,1,1,70,0,1
85663,-100,4,2,1,70,0,1
85829,-100,4,1,1,70,0,1
86329,-100,4,2,1,70,0,1
86663,-100,4,1,1,70,0,1
86829,-100,4,2,1,70,0,1
87996,-100,4,1,1,70,0,1
88329,-100,4,2,1,70,0,1
88663,-100,4,1,1,70,0,1
88996,-100,4,2,1,70,0,1
89329,-100,4,2,1,60,0,0
89663,-100,4,1,1,60,0,0
89996,-100,4,2,1,60,0,0
90163,-100,4,1,1,60,0,0
90329,-100,4,2,1,60,0,0
90496,-100,4,1,1,60,0,0
90829,-100,4,2,1,60,0,0
91163,-100,4,1,1,60,0,0
91496,-100,4,2,1,60,0,0
91663,-100,4,1,1,60,0,0
91829,-100,4,2,1,60,0,0
94663,-100,4,2,1,70,0,1
94996,-100,4,1,1,70,0,1
95163,-100,4,2,1,70,0,1
96329,-100,4,1,1,70,0,1
96496,-100,4,2,1,70,0,1
97996,-100,4,1,1,70,0,1
98163,-100,4,2,1,70,0,1
98663,-100,4,1,1,70,0,1
98996,-100,4,2,1,70,0,1
99163,-100,4,1,1,70,0,1
99663,-100,4,2,1,70,0,1
99996,-100,4,1,1,70,0,1
100329,-100,4,2,1,70,0,1
101329,-100,4,1,1,70,0,1
101496,-100,4,2,1,70,0,1
101829,-100,4,1,1,70,0,1
102329,-100,4,2,1,70,0,1
102663,-100,4,1,1,70,0,1
102829,-100,4,2,1,70,0,1
103996,-100,4,1,1,70,0,1
104329,-100,4,2,1,70,0,1
104496,-100,4,1,1,70,0,1
104996,-100,4,2,1,70,0,1
105329,-100,4,2,1,70,0,1
105663,-100,4,1,1,70,0,1
105829,-100,4,2,1,70,0,1
106996,-100,4,1,1,70,0,1
107163,-100,4,2,1,70,0,1
108663,-100,4,1,1,70,0,1
108829,-100,4,2,1,70,0,1
109329,-100,4,1,1,70,0,1
109663,-100,4,2,1,70,0,1
109829,-100,4,1,1,70,0,1
110329,-100,4,2,1,70,0,1
110663,-100,4,1,1,70,0,1
110996,-100,4,2,1,70,0,1
111996,-100,4,1,1,70,0,1
112163,-100,4,2,1,70,0,1
112496,-100,4,1,1,70,0,1
112996,-100,4,2,1,70,0,1
113329,-100,4,1,1,70,0,1
113663,-100,4,2,1,70,0,1
114663,-100,4,1,1,70,0,1
114996,-100,4,2,1,70,0,1
115996,-100,4,2,1,60,0,0
116163,-100,4,2,1,40,0,0
117329,-100,4,2,1,20,0,0

[Colours]
Combo1 : 255,130,196
Combo2 : 255,255,106
Combo3 : 53,255,200
Combo4 : 255,150,34

[HitObjects]
20,320,1330,6,0,P|72:312|128:324,1,100,2|0,0:0|0:0,0:0:0:0:
156,352,1829,2,0,P|156:277|144:203,1,150,2|2,0:0|0:0,0:0:0:0:
68,140,2663,2,0,P|56:92|72:41,1,100,2|0,0:0|0:0,0:0:0:0:
120,39,3163,2,0,P|190:62|264:51,1,150,2|2,0:0|0:0,0:0:0:0:
360,28,3996,5,2,0:0:0:0:
360,28,4329,1,0,0:0:0:0:
444,80,4663,1,0,0:0:0:0:
444,80,4996,1,0,0:0:0:0:
416,176,5329,2,0,P|424:232|468:276,1,100,2|0,0:0|0:0,0:0:0:0:
484,304,5829,2,0,P|411:310|372:371,1,150,2|2,0:0|0:0,0:0:0:0:
280,336,6663,6,0,L|180:342,1,100,2|0,0:0|0:0,0:0:0:0:
96,292,7329,2,0,P|108:244|108:184,1,100,0|0,0:0|0:0,0:0:0:0:
208,168,7996,2,0,P|253:150|269:104,1,100,2|0,0:0|0:0,0:0:0:0:
240,64,8496,2,0,L|84:64,1,150,2|2,0:0|0:0,0:0:0:0:
24,140,9329,6,0,P|12:188|24:244,2,100,6|0|0,0:0|0:0|0:0,0:0:0:0:
112,192,10329,1,0,0:0:0:0:
144,288,10663,2,0,P|240:295|302:222,1,200,6|0,0:0|0:0,0:0:0:0:
228,36,11996,6,0,P|227:84|253:131,1,100,4|8,0:0|0:0,0:0:0:0:
344,96,12663,2,0,P|393:92|449:104,1,100,2|8,0:0|0:0,0:0:0:0:
484,192,13329,2,0,L|464:312,1,100,0|8,0:0|0:0,0:0:0:0:
488,336,13829,2,0,P|432:328|380:352,1,100,2|0,0:0|0:0,0:0:0:0:
348,364,14329,1,8,0:0:0:0:
252,336,14663,6,0,L|152:328,1,100,2|8,0:0|0:0,0:0:0:0:
56,356,15329,1,2,0:0:0:0:
8,266,15663,2,0,P|58:214|130:221,1,150,8|0,0:0|0:0,0:0:0:0:
175,239,16329,2,0,P|248:234|295:178,1,150,8|0,0:0|0:0,0:0:0:0:
304,128,16996,1,8,0:0:0:0:
220,76,17329,6,0,L|108:88,2,100,4|8|2,0:0|0:0|0:0,0:0:0:0:
308,32,18329,1,8,0:0:0:0:
400,68,18663,2,0,L|412:176,1,100,2|8,0:0|0:0,0:0:0:0:
440,208,19163,2,0,L|428:312,1,100,2|0,0:0|0:0,0:0:0:0:
392,340,19663,1,8,0:0:0:0:
304,292,19996,5,4,0:0:0:0:
304,292,20163,1,0,0:0:0:0:
212,328,20496,1,4,0:0:0:0:
212,328,20663,1,0,0:0:0:0:
136,260,20996,1,4,0:0:0:0:
148,160,21329,5,0,0:0:0:0:
252,168,21663,1,0,0:0:0:0:
300,80,21996,1,2,0:0:0:0:
220,20,22329,1,2,0:0:0:0:
128,60,22663,6,0,L|29:78,1,100,6|8,0:0|0:0,0:0:0:0:
4,224,23496,2,0,L|13:273,1,50,0|8,0:0|0:0,0:0:0:0:
112,252,23996,2,0,L|210:233,1,100,2|8,0:0|0:0,0:0:0:0:
356,200,24829,2,0,P|372:219|380:244,1,50,0|8,0:0|0:0,0:0:0:0:
356,340,25329,6,0,L|257:358,1,100,2|8,0:0|0:0,0:0:0:0:
148,256,26163,2,0,P|148:232|144:206,1,50,0|8,0:0|0:0,0:0:0:0:
232,160,26663,2,0,L|243:259,1,100,2|8,0:0|0:0,0:0:0:0:
336,220,27329,2,0,L|324:120,1,100,2|8,0:0|0:0,0:0:0:0:
272,36,27996,5,2,0:0:0:0:
176,68,28329,1,8,0:0:0:0:
229,210,28829,2,0,L|243:259,1,50,0|8,0:0|0:0,0:0:0:0:
144,244,29329,2,0,P|128:200|125:145,1,100,2|8,0:0|0:0,0:0:0:0:
52,280,30163,2,0,P|68:298|78:321,1,50,0|8,0:0|0:0,0:0:0:0:
172,356,30663,6,0,L|284:348,1,100,2|8,0:0|0:0,0:0:0:0:
356,296,31329,2,0,P|391:261|403:213,1,100,2|8,0:0|0:0,0:0:0:0:
432,116,31996,2,0,L|420:68,1,50
368,64,32329,2,0,L|356:12,2,50,2|0|2,0:0|0:0|0:0,0:0:0:0:
304,140,32996,1,8,0:0:0:0:
304,140,33329,6,0,P|257:124|209:135,1,100,4|8,0:0|0:0,0:0:0:0:
252,224,33996,2,0,L|261:273,2,50,0|0|8,0:0|0:0|0:0,0:0:0:0:
156,256,34663,2,0,L|56:263,1,100,0|8,0:0|0:0,0:0:0:0:
3,179,35329,2,0,P|0:155|3:130,2,50,0|0|8,0:0|0:0|0:0,0:0:0:0:
104,164,35996,5,0,0:0:0:0:
152,76,36329,1,8,0:0:0:0:
248,108,36663,2,0,P|280:104|316:92,2,50,0|0|8,0:0|0:0|0:0,0:0:0:0:
239,208,37329,2,0,P|285:227|335:228,1,100,0|8,0:0|0:0,0:0:0:0:
432,196,37996,2,0,P|452:152|454:98,1,100,0|8,0:0|0:0,0:0:0:0:
420,64,38496,1,0,0:0:0:0:
420,64,38663,6,0,L|312:36,1,100,0|8,0:0|0:0,0:0:0:0:
228,72,39329,2,0,L|178:75,1,50
132,55,39663,2,0,P|97:90|99:139,1,100,8|0,0:0|0:0,0:0:0:0:
188,184,40329,1,8,0:0:0:0:
120,256,40663,2,0,L|124:316,1,50
128,356,40996,1,8,0:0:0:0:
232,364,41329,6,0,L|330:349,1,100,2|8,0:0|0:0,0:0:0:0:
372,256,41996,2,0,L|356:204,2,50,2|0|8,0:0|0:0|0:0,0:0:0:0:
456,312,42663,2,0,L|440:364,2,50,0|0|2,0:0|0:0|0:0,0:0:0:0:
464,212,43329,1,2,0:0:0:0:
400,136,43663,1,8,0:0:0:0:
308,100,43996,6,0,L|204:132,1,100,4|0,0:0|0:0,0:0:0:0:
152,208,44663,2,0,P|140:264|164:308,1,100,2|0,0:0|0:0,0:0:0:0:
180,343,45163,2,0,P|107:356|43:320,1,150,2|2,0:0|0:0,0:0:0:0:
20,224,45996,1,2,0:0:0:0:
60,132,46329,1,2,0:0:0:0:
152,96,46663,6,0,P|200:104|241:132,1,100,2|0,0:0|0:0,0:0:0:0:
304,212,47329,2,0,L|292:316,1,100,2|0,0:0|0:0,0:0:0:0:
380,360,47996,1,2,0:0:0:0:
380,360,48163,2,0,P|432:344|460:292,1,100,2|2,0:0|0:0,0:0:0:0:
436,212,48829,1,2,0:0:0:0:
472,120,49163,1,2,0:0:0:0:
472,120,49329,6,0,L|372:113,1,100,4|0,0:0|0:0,0:0:0:0:
282,160,49996,2,0,P|249:196|244:245,1,100,0|2,0:0|0:0,0:0:0:0:
168,308,50663,2,0,L|68:301,1,100,2|0,0:0|0:0,0:0:0:0:
44,256,51163,2,0,P|28:209|34:159,1,100,2|0,0:0|0:0,0:0:0:0:
48,112,51663,1,2,0:0:0:0:
148,104,51996,6,0,L|245:83,1,100,2|0,0:0|0:0,0:0:0:0:
344,60,52663,1,2,0:0:0:0:
440,36,52996,1,2,0:0:0:0:
478,126,53329,2,0,P|475:176|453:221,1,100,2|0,0:0|0:0,0:0:0:0:
420,260,53829,2,0,L|320:249,1,100,2|0,0:0|0:0,0:0:0:0:
280,220,54329,1,2,0:0:0:0:
188,256,54663,6,0,P|136:248|88:264,1,100,4|8,0:0|0:0,0:0:0:0:
56,296,55163,2,0,P|52:220|40:146,1,150,8|8,0:0|0:0,0:0:0:0:
11,52,55996,2,0,P|61:50|108:76,1,100,0|8,0:0|0:0,0:0:0:0:
144,104,56496,2,0,P|220:116|290:85,1,150,8|8,0:0|0:0,0:0:0:0:
376,44,57329,6,0,P|388:96|392:152,1,100,0|8,0:0|0:0,0:0:0:0:
388,191,57829,2,0,P|415:258|485:278,1,150,8|8,0:0|0:0,0:0:0:0:
436,364,58663,2,0,L|336:352,1,100,0|8,0:0|0:0,0:0:0:0:
292,328,59163,2,0,P|224:356|143:351,1,150,8|8,0:0|0:0,0:0:0:0:
60,308,59996,5,4,0:0:0:0:
60,308,60329,1,8,0:0:0:0:
104,216,60663,1,2,0:0:0:0:
104,216,60996,1,8,0:0:0:0:
196,252,61329,1,2,0:0:0:0:
196,252,61663,1,8,0:0:0:0:
279,196,61996,6,0,P|284:146|271:98,1,100,2|8,0:0|0:0,0:0:0:0:
184,52,62663,2,0,P|134:57|86:45,1,100,2|8,0:0|0:0,0:0:0:0:
60,88,63163,2,0,P|72:140|66:187,1,100,2|2,0:0|0:0,0:0:0:0:
48,236,63663,1,8,0:0:0:0:
107,315,63996,2,0,P|152:336|201:327,1,100,2|8,0:0|0:0,0:0:0:0:
244,308,64496,2,0,P|292:296|341:303,1,100,2|2,0:0|0:0,0:0:0:0:
388,324,64996,1,8,0:0:0:0:
256,192,65329,12,0,67329,0:0:0:0:
372,248,67996,6,0,L|358:148,1,100,4|2,0:0|0:0,0:0:0:0:
268,196,68663,2,0,P|236:204|208:204,1,50,2|0,0:0|0:0,0:0:0:0:
172,191,68996,2,0,L|72:201,1,100,8|2,0:0|0:0,0:0:0:0:
16,120,69663,1,2,0:0:0:0:
16,120,69829,2,0,P|64:111|95:74,1,100,0|0,0:0|0:0,0:0:0:0:
132,35,70329,2,0,P|184:24|228:36,1,100,8|2,0:0|0:0,0:0:0:0:
320,84,70996,5,8,0:0:0:0:
248,152,71329,1,2,0:0:0:0:
276,248,71663,1,8,0:0:0:0:
371,279,71996,2,0,P|421:273|461:245,1,100,2|10,0:0|0:0,0:0:0:0:
483,199,72496,2,0,P|473:151|471:101,1,100,2|2,0:0|0:0,0:0:0:0:
480,52,72996,1,8,0:0:0:0:
380,56,73329,6,0,P|328:56|281:41,1,100,2|8,0:0|0:0,0:0:0:0:
256,140,73996,2,0,P|308:140|354:154,1,100,0|8,0:0|0:0,0:0:0:0:
408,236,74663,2,0,P|392:268|328:304,1,100,2|8,0:0|0:0,0:0:0:0:
292,316,75163,2,0,P|242:312|195:328,1,100,2|2,0:0|0:0,0:0:0:0:
160,364,75663,1,8,0:0:0:0:
60,356,75996,6,0,P|32:315|37:266,1,100,2|8,0:0|0:0,0:0:0:0:
136,284,76663,2,0,P|141:235|113:194,1,100,0|8,0:0|0:0,0:0:0:0:
32,136,77329,2,0,P|4:95|9:46,1,100,2|8,0:0|0:0,0:0:0:0:
55,27,77829,2,0,P|104:41|153:44,1,100,2|0,0:0|0:0,0:0:0:0:
204,40,78329,1,8,0:0:0:0:
292,84,78663,6,0,P|340:96|392:96,1,100,4|2,0:0|0:0,0:0:0:0:
480,140,79329,2,0,P|480:184|488:208,1,50,0|0,0:0|0:0,0:0:0:0:
472,240,79663,2,0,P|428:272|372:256,1,100,8|2,0:0|0:0,0:0:0:0:
292,232,80329,1,2,0:0:0:0:
292,232,80496,2,0,L|276:344,1,100,0|0,0:0|0:0,0:0:0:0:
243,368,80996,2,0,P|188:368|151:339,1,100,8|2,0:0|0:0,0:0:0:0:
88,268,81663,5,8,0:0:0:0:
168,208,81996,1,2,0:0:0:0:
244,144,82329,1,8,0:0:0:0:
176,68,82663,2,0,P|128:56|81:71,1,100,2|8,0:0|0:0,0:0:0:0:
44,104,83163,2,0,P|20:147|23:196,1,100,2|2,0:0|0:0,0:0:0:0:
56,236,83663,1,8,0:0:0:0:
32,332,83996,5,2,0:0:0:0:
32,332,84329,1,8,0:0:0:0:
124,368,84663,1,0,0:0:0:0:
124,368,84996,1,8,0:0:0:0:
216,332,85329,2,0,L|316:320,1,100,2|8,0:0|0:0,0:0:0:0:
356,348,85829,2,0,L|456:360,1,100,2|2,0:0|0:0,0:0:0:0:
500,340,86329,1,8,0:0:0:0:
460,248,86663,6,0,P|447:199|453:150,1,100,2|8,0:0|0:0,0:0:0:0:
484,56,87329,1,0,0:0:0:0:
388,24,87663,1,8,0:0:0:0:
316,96,87996,2,0,P|328:144|322:193,1,100,2|8,0:0|0:0,0:0:0:0:
232,240,88663,2,0,P|185:222|149:189,1,100,2|8,0:0|0:0,0:0:0:0:
168,88,89329,6,0,B|136:160|64:152|64:152|64:184|37:211,1,200,4|2,0:0|0:0,0:0:0:0:
56,312,90329,1,8,0:0:0:0:
140,363,90663,2,0,P|187:348|228:319,1,100,0|8,0:0|0:0,0:0:0:0:
276,332,91163,2,0,L|264:232,1,100,2|0,0:0|0:0,0:0:0:0:
292,192,91663,1,2,0:0:0:0:
256,192,91996,12,0,93996,0:0:0:0:
168,72,94663,6,0,L|69:87,1,100,4|2,0:0|0:0,0:0:0:0:
47,184,95329,2,0,P|40:207|42:232,1,50,2|0,0:0|0:0,0:0:0:0:
76,268,95663,2,0,L|174:252,1,100,8|2,0:0|0:0,0:0:0:0:
244,184,96329,1,2,0:0:0:0:
244,184,96496,2,0,P|292:172|343:180,1,100,0|0,0:0|0:0,0:0:0:0:
376,216,96996,2,0,P|372:268|382:314,1,100,8|2,0:0|0:0,0:0:0:0:
476,352,97662,5,8,0:0:0:0:
496,256,97995,1,2,0:0:0:0:
456,164,98329,1,8,0:0:0:0:
368,116,98663,2,0,B|328:132|328:132|264:136,1,100,2|8,0:0|0:0,0:0:0:0:
224,116,99163,2,0,L|116:128,1,100,2|2,0:0|0:0,0:0:0:0:
76,112,99663,1,8,0:0:0:0:
36,204,99996,5,2,0:0:0:0:
36,204,100329,1,8,0:0:0:0:
88,288,100663,1,0,0:0:0:0:
88,288,100996,1,8,0:0:0:0:
180,248,101329,2,0,L|280:256,1,100,2|8,0:0|0:0,0:0:0:0:
328,244,101829,2,0,P|376:246|406:284,1,100,2|2,0:0|0:0,0:0:0:0:
392,332,102329,1,8,0:0:0:0:
292,352,102663,6,0,L|192:344,1,100,2|8,0:0|0:0,0:0:0:0:
96,364,103329,1,0,0:0:0:0:
20,300,103663,1,8,0:0:0:0:
52,204,103996,2,0,P|56:160|52:96,1,100,2|8,0:0|0:0,0:0:0:0:
96,76,104496,2,0,P|144:63|192:88,1,100,2|0,0:0|0:0,0:0:0:0:
216,124,104996,1,8,0:0:0:0:
312,96,105329,6,0,L|411:88,1,100,4|2,0:0|0:0,0:0:0:0:
492,148,105996,1,8,0:0:0:0:
492,148,106329,1,8,0:0:0:0:
448,240,106663,2,0,L|348:247,1,100,8|2,0:0|0:0,0:0:0:0:
268,188,107330,1,8,0:0:0:0:
268,188,107663,1,8,0:0:0:0:
184,240,107996,6,0,P|195:288|196:338,1,100,8|8,0:0|0:0,0:0:0:0:
96,324,108663,2,0,P|84:275|83:225,1,100,2|8,0:0|0:0,0:0:0:0:
120,132,109329,1,2,0:0:0:0:
216,100,109663,1,8,0:0:0:0:
300,152,109996,1,2,0:0:0:0:
320,248,110329,1,8,0:0:0:0:
396,312,110663,6,0,P|448:316|495:321,2,100,2|8|0,0:0|0:0|0:0,0:0:0:0:
308,356,111663,1,8,0:0:0:0:
215,319,111996,2,0,P|166:316|118:330,1,100,2|8,0:0|0:0,0:0:0:0:
76,360,112496,2,0,L|64:248,1,100,2|2,0:0|0:0,0:0:0:0:
60,212,112996,1,8,0:0:0:0:
116,132,113329,6,0,P|165:127|205:99,1,100,2|8,0:0|0:0,0:0:0:0:
304,100,113996,2,0,P|344:128|393:132,1,100,2|8,0:0|0:0,0:0:0:0:
424,228,114663,1,2,0:0:0:0:
352,300,114996,1,8,0:0:0:0:
256,320,115329,1,2,0:0:0:0:
156,300,115663,1,8,0:0:0:0:
88,228,115996,1,4,0:0:0:0:
256,192,116163,12,4,118663,3:0:0:0:
