osu file format v14

[General]
AudioFilename: GO MY WAY!!.mp3
AudioLeadIn: 1500
PreviewTime: 67496
Countdown: 0
SampleSet: Soft
StackLeniency: 0.5
Mode: 0
LetterboxInBreaks: 0
WidescreenStoryboard: 0

[Editor]
DistanceSpacing: 0.7
BeatDivisor: 4
GridSize: 4
TimelineZoom: 2

[Metadata]
Title:GO MY WAY!!
TitleUnicode:GO MY WAY!!
Artist:IM@S ALLSTARS
ArtistUnicode:IM@S ALLSTARS
Creator:Rukaru
Version:Debut
Source:THE IDOLM@STER
Tags:765pro idolmaster amami haruka hoshii miki kisaragi chihaya takatsuki yayoi hagiwara yukiho kikuchi makoto futami ami mami minase iori miura azusa shijou takane ganaha hibiki akizuki ritsuko otonashi kotori kousaki satoru best album cd1 raheta_adi xbox360 NBGI namco bandai
BeatmapID:532278
BeatmapSetID:212382

[Difficulty]
HPDrainRate:2
CircleSize:3
OverallDifficulty:2
ApproachRate:2.5
SliderMultiplier:0.8
SliderTickRate:1

[Events]
//Background and Video events
0,0,"gomyway-background.jpg",0,0
//Break Periods
//Storyboard Layer 0 (Background)
//Storyboard Layer 1 (Fail)
//Storyboard Layer 2 (Pass)
//Storyboard Layer 3 (Foreground)
//Storyboard Sound Samples

[TimingPoints]
1330,333.333333333333,4,2,1,50,1,0
11996,-100,4,2,1,60,0,0
43996,-100,4,2,1,50,0,0
54663,-100,4,2,1,60,0,0
67996,-100,4,2,1,70,0,1
71329,-100,4,1,1,70,0,1
73663,-100,4,2,1,70,0,1
74663,-100,4,1,1,70,0,1
75996,-100,4,1,1,70,0,1
76329,-100,4,2,1,70,0,1
77329,-100,4,1,1,70,0,1
78663,-100,4,2,1,70,0,1
81996,-100,4,1,1,70,0,1
82329,-100,4,2,1,70,0,1
82663,-100,4,1,1,70,0,1
84329,-100,4,2,1,70,0,1
85329,-100,4,1,1,70,0,1
86996,-100,4,2,1,70,0,1
87996,-100,4,1,1,70,0,1
89329,-100,4,2,1,60,0,0
91163,-100,4,1,1,60,0,0
91996,-100,4,2,1,60,0,0
94663,-100,4,2,1,70,0,1
94996,-100,4,1,1,70,0,1
95329,-100,4,2,1,70,0,1
97996,-100,4,1,1,70,0,1
98996,-100,4,2,1,70,0,1
99329,-100,4,1,1,70,0,1
100663,-100,4,2,1,70,0,1
101329,-100,4,1,1,70,0,1
101663,-100,4,2,1,70,0,1
102663,-100,4,1,1,70,0,1
103329,-100,4,2,1,70,0,1
103996,-100,4,1,1,70,0,1
104329,-100,4,2,1,70,0,1
106996,-100,4,1,1,70,0,1
107329,-100,4,2,1,70,0,1
108663,-100,4,1,1,70,0,1
109663,-100,4,2,1,70,0,1
109996,-100,4,1,1,70,0,1
110996,-100,4,2,1,70,0,1
111996,-100,4,1,1,70,0,1
112329,-100,4,2,1,70,0,1
112663,-100,4,1,1,70,0,1
113996,-100,4,2,1,70,0,1
114663,-100,4,1,1,70,0,1
115329,-100,4,2,1,70,0,1
115996,-100,4,2,1,60,0,0
116163,-100,4,2,1,40,0,0
117329,-100,4,2,1,20,0,0

[Colours]
Combo1 : 255,130,196
Combo2 : 255,255,106
Combo3 : 53,255,200
Combo4 : 255,150,34

[HitObjects]
436,96,1330,6,0,B|404:172|464:172|433:251,1,160,2|0,0:0|0:0,0:0:0:0:
352,328,2663,2,0,P|280:361|201:354,1,160,2|0,0:0|0:0,0:0:0:0:
96,316,3996,1,2,0:0:0:0:
180,240,4663,1,0,0:0:0:0:
72,208,5329,2,0,P|52:176|48:132,2,80,2|0|0,0:0|0:0|0:0,0:0:0:0:
160,140,6663,6,0,B|240:112|240:168|316:139,1,160,2|0,0:0|0:0,0:0:0:0:
384,225,7996,2,0,P|423:157|407:78,1,160,2|0,0:0|0:0,0:0:0:0:
304,44,9329,1,6,0:0:0:0:
200,84,9996,1,0,0:0:0:0:
95,120,10663,2,0,P|56:185|91:253,1,160,6|2,0:0|0:0,0:0:0:0:
182,316,11996,6,0,P|118:360|40:352,2,160,4|2|0,0:0|0:0|0:0,0:0:0:0:
256,232,13996,1,2,0:0:0:0:
329,316,14663,2,0,P|393:360|471:352,1,160,0|2,0:0|0:0,0:0:0:0:
420,252,15996,2,0,L|440:172,1,80,0|8,0:0|0:0,0:0:0:0:
488,144,16663,2,0,L|468:64,1,80,0|8,0:0|0:0,0:0:0:0:
412,72,17329,6,0,B|360:72|360:72|304:48|304:48|252:48,1,160,4|2,0:0|0:0,0:0:0:0:
232,156,18663,2,0,B|180:156|180:156|124:132|124:132|72:132,1,160,0|2,0:0|0:0,0:0:0:0:
27,232,19996,2,0,P|8:287|23:344,2,120,4|4|4,0:0|0:0|0:0,0:0:0:0:
292,324,22663,6,0,P|399:358|471:271,1,240,6|8,0:0|0:0,0:0:0:0:
460,216,23996,2,0,B|444:148|380:128|380:128|340:172|277:171,1,240,2|8,0:0|0:0,0:0:0:0:
232,204,25329,2,0,B|180:272|104:264|104:264|100:216|63:184,1,240,2|8,0:0|0:0,0:0:0:0:
52,128,26663,2,0,P|91:63|168:62,1,160,2|2,0:0|0:0,0:0:0:0:
273,108,27996,6,0,B|344:120|412:76|412:76|404:137|438:160,1,240,2|8,0:0|0:0,0:0:0:0:
476,204,29329,2,0,B|504:280|456:328|456:328|408:312|353:342,1,240,2|8,0:0|0:0,0:0:0:0:
300,352,30663,2,0,B|233:333|233:333|193:357|147:338,1,160,2|2,0:0|0:0,0:0:0:0:
44,288,31996,2,0,L|33:370,2,80,0|2|2,0:0|0:0|0:0,0:0:0:0:
128,212,33329,6,0,B|92:164|8:176|8:176|38:72,1,240,4|8,0:0|0:0,0:0:0:0:
88,44,34663,2,0,B|152:112|238:75|238:75|260:152,1,240,2|8,0:0|0:0,0:0:0:0:
280,200,35996,2,0,P|395:202|469:112,1,240,2|8,0:0|0:0,0:0:0:0:
500,64,37329,2,0,L|492:223,1,160,2|0,0:0|0:0,0:0:0:0:
484,336,38663,6,0,B|404:348|404:348|324:336|324:336|248:352,1,240,2|8,0:0|0:0,0:0:0:0:
191,368,39996,2,0,P|105:298|159:202,1,240,2|8,0:0|0:0,0:0:0:0:
208,232,41329,2,0,B|248:252|248:252|364:236,2,160,2|2|0,0:0|0:0|0:0,0:0:0:0:
272,140,43329,2,0,L|352:128,1,80,2|8,0:0|0:0,0:0:0:0:
408,120,43996,5,4,0:0:0:0:
456,224,44663,1,2,0:0:0:0:
360,280,45329,2,0,L|372:368,2,80,0|2|2,0:0|0:0|0:0,0:0:0:0:
260,228,46663,2,0,B|232:188|232:188|248:128|248:128|224:84,1,160,2|2,0:0|0:0,0:0:0:0:
124,32,47996,2,0,B|88:24|48:40|36:88|36:88|24:136,1,160,2|2,0:0|0:0,0:0:0:0:
88,224,49329,5,4,0:0:0:0:
8,300,49996,1,2,0:0:0:0:
116,332,50663,2,0,P|160:332|195:321,2,80,0|2|2,0:0|0:0|0:0,0:0:0:0:
88,224,51996,2,0,P|160:197|228:237,1,160,2|2,0:0|0:0,0:0:0:0:
288,332,53329,2,0,P|363:343|447:333,1,160,2|2,0:0|0:0,0:0:0:0:
484,228,54663,6,0,L|464:96,2,120,4|8|8,0:0|0:0|0:0,0:0:0:0:
491,283,55996,2,0,P|429:236|351:243,1,160,2|2,0:0|0:0,0:0:0:0:
252,192,57329,2,0,B|216:192|216:192|172:208|172:208|128:208,2,120,0|8|8,0:0|0:0|0:0,0:0:0:0:
304,176,58663,2,0,P|351:113|344:35,1,160,2|2,0:0|0:0,0:0:0:0:
244,84,59996,6,0,L|164:80,1,80,4|8,0:0|0:0,0:0:0:0:
108,80,60663,1,2,0:0:0:0:
44,172,61329,2,0,P|51:211|48:250,1,80,2|8,0:0|0:0,0:0:0:0:
32,304,61996,1,2,0:0:0:0:
140,276,62663,2,0,P|197:292|255:281,2,120,2|2|0,0:0|0:0|0:0,0:0:0:0:
100,240,63996,1,2,0:0:0:0:
184,164,64663,1,0,0:0:0:0:
202,48,65329,6,0,B|144:72|144:72|100:32|16:52|8:124,2,240,4|4|4,0:0|0:0|0:0,0:0:0:0:
188,160,67996,6,0,P|251:204|326:183,1,160,4|0,0:0|0:0,0:0:0:0:
304,71,69329,2,0,P|378:50|442:94,1,160,2|0,0:0|0:0,0:0:0:0:
440,208,70663,2,0,P|441:247|447:287,1,80,2|8,0:0|0:0,0:0:0:0:
464,339,71329,1,2,0:0:0:0:
352,320,71996,2,0,L|192:331,1,160,2|2,0:0|0:0,0:0:0:0:
84,364,73329,6,0,P|92:324|93:284,1,80,2|8,0:0|0:0,0:0:0:0:
48,252,73996,2,0,P|40:212|38:172,1,80,0|8,0:0|0:0,0:0:0:0:
72,128,74663,2,0,P|132:172|212:152,1,160,2|2,0:0|0:0,0:0:0:0:
272,60,75996,2,0,P|240:44|192:44,2,80,2|8|0,0:0|0:0|0:0,0:0:0:0:
316,96,76996,1,8,0:0:0:0:
356,136,77329,2,0,P|370:213|336:283,1,160,2|2,0:0|0:0,0:0:0:0:
228,324,78663,6,0,B|180:324|180:324|124:348|124:348|72:348,1,160,4|0,0:0|0:0,0:0:0:0:
28,244,79996,2,0,P|15:185|26:126,2,120,2|0|8,0:0|0:0|0:0,0:0:0:0:
84,232,81329,2,0,P|124:228|163:235,1,80,2|8,0:0|0:0,0:0:0:0:
216,252,81996,2,0,P|256:260|295:255,1,80,2|8,0:0|0:0,0:0:0:0:
344,232,82663,2,0,P|380:163|353:89,1,160,2|2,0:0|0:0,0:0:0:0:
251,128,83996,6,0,L|172:118,1,80,2|8,0:0|0:0,0:0:0:0:
144,68,84663,2,0,L|64:77,1,80,0|8,0:0|0:0,0:0:0:0:
20,44,85329,2,0,B|48:88|48:88|36:144|36:144|57:189,1,160,2|2,0:0|0:0,0:0:0:0:
100,292,86663,2,0,P|105:331|96:370,2,80,2|8|0,0:0|0:0|0:0,0:0:0:0:
144,256,87663,1,8,0:0:0:0:
188,224,87996,2,0,B|268:204|268:248|345:224,1,160,2|2,0:0|0:0,0:0:0:0:
444,175,89329,6,0,P|437:99|371:60,1,160,4|2,0:0|0:0,0:0:0:0:
260,76,90663,2,0,L|141:93,2,120,0|2|2,0:0|0:0|0:0,0:0:0:0:
296,120,91996,5,0,0:0:0:0:
332,164,92329,2,0,L|340:252,1,80,8|2,0:0|0:0,0:0:0:0:
352,300,92996,2,0,P|313:363|232:360,1,160,4|0,0:0|0:0,0:0:0:0:
184,344,93996,1,2,0:0:0:0:
76,368,94663,6,0,L|60:289,1,80,4|2,0:0|0:0,0:0:0:0:
96,248,95329,2,0,L|111:169,1,80,2|8,0:0|0:0,0:0:0:0:
72,128,95996,2,0,P|144:160|221:145,1,160,2|2,0:0|0:0,0:0:0:0:
324,100,97329,2,0,P|363:92|403:100,1,80,2|8,0:0|0:0,0:0:0:0:
452,128,97996,1,2,0:0:0:0:
480,236,98663,2,0,L|492:324,1,80,2|8,0:0|0:0,0:0:0:0:
460,364,99329,1,2,0:0:0:0:
355,323,99996,6,0,P|280:304|213:344,1,160,2|2,0:0|0:0,0:0:0:0:
120,283,101329,2,0,P|127:244|126:204,1,80,2|8,0:0|0:0,0:0:0:0:
124,148,101996,1,2,0:0:0:0:
84,44,102663,2,0,P|162:44|220:97,1,160,2|2,0:0|0:0,0:0:0:0:
264,200,103996,2,0,B|268:244|268:244|260:288,1,80,2|8,0:0|0:0,0:0:0:0:
232,328,104663,1,2,0:0:0:0:
340,348,105329,6,0,P|416:348|476:292,1,160,4|8,0:0|0:0,0:0:0:0:
376,240,106663,2,0,L|396:160,1,80,8|2,0:0|0:0,0:0:0:0:
412,108,107329,1,8,0:0:0:0:
304,128,107996,2,0,B|264:136|264:136|224:127,1,80,8|8,0:0|0:0,0:0:0:0:
192,84,108663,2,0,P|196:161|144:220,1,160,2|2,0:0|0:0,0:0:0:0:
92,240,109663,1,8,0:0:0:0:
36,236,109996,1,2,0:0:0:0:
12,128,110663,5,2,0:0:0:0:
44,84,110996,1,8,0:0:0:0:
80,40,111329,2,0,B|136:40|136:40|168:76|240:68,1,160,0|2,0:0|0:0,0:0:0:0:
288,68,112329,1,8,0:0:0:0:
344,68,112663,1,2,0:0:0:0:
404,164,113329,2,0,B|420:212|387:242|387:242|333:294,1,160,2|2,0:0|0:0,0:0:0:0:
224,320,114663,2,0,B|208:272|240:241|240:241|294:189,1,160,2|2,0:0|0:0,0:0:0:0:
372,108,115996,5,6,0:0:0:0:
256,192,116163,12,4,118663,3:0:0:0:
