osu file format v12

[General]
AudioFilename: r.MP3
AudioLeadIn: 1620
PreviewTime: 39755
Countdown: 0
SampleSet: Soft
StackLeniency: 0.7
Mode: 0
LetterboxInBreaks: 0

[Editor]
DistanceSpacing: 1.1
BeatDivisor: 8
GridSize: 64

[Metadata]
Title:Rimless ~Fuchinashi no Sekai~ (TV Size)
TitleUnicode:Rimless 〜フチナシノセカイ〜 (TV Size)
Artist:IKU
ArtistUnicode:IKU
Creator:those
Version:Easy
Source:Toaru Majutsu no Index
Tags:to aru majutsu no index ending railgun LunarSakuya jonathanlfj
BeatmapID:266958
BeatmapSetID:99918

[Difficulty]
HPDrainRate:2
CircleSize:3
OverallDifficulty:2
ApproachRate:2
SliderMultiplier:1.4
SliderTickRate:1

[Events]
//Background and Video events
Video,0,"Index.avi"
0,0,"bg.png",0,0
//Break Periods
2,38080,39380
//Storyboard Layer 0 (Background)
//Storyboard Layer 1 (Fail)
//Storyboard Layer 2 (Pass)
//Storyboard Layer 3 (Foreground)
//Storyboard Sound Samples
//Background Colour Transformations
3,100,0,0,0

[TimingPoints]
380,750,4,2,1,75,1,0
11255,-100,4,2,1,45,0,0
11630,-100,4,2,1,75,0,0
12380,-100,4,2,1,35,0,0
24380,-100,4,2,1,45,0,0
30380,-100,4,2,1,55,0,0
39755,769.230769230769,4,2,1,65,1,8
40139,800,4,2,1,65,1,8
40539,833.333333333333,4,2,1,65,1,8
40955,750,4,2,1,75,1,1
52955,-100,4,2,1,55,0,0
67955,750,4,2,1,75,1,0
77705,800,4,2,1,65,1,8
78505,857.142857142857,4,2,1,65,1,8
78933,750,4,2,1,65,1,8
79308,1090.90909090909,4,2,1,55,1,8
79853,1000,4,2,1,45,1,8
80353,857.142857142857,4,2,1,35,1,0

[Colours]
Combo1 : 255,128,255
Combo2 : 128,255,255
Combo3 : 255,255,128

[HitObjects]
47,81,380,2,0,P|123:79|186:70,1,140,4|8,1:2|0:0,0:0:0:0:
307,104,1880,2,0,P|322:78|342:43,2,69.9999999999999,0|0|8,1:0|1:0|0:0,0:0:0:0:
432,118,3380,2,0,P|423:196|422:257,1,140,0|8,1:0|0:0,0:0:0:0:
342,355,4880,1,0,1:0:0:0:
253,264,5630,1,8,0:0:0:0:
325,161,6380,6,0,P|262:108|208:90,1,140,4|8,1:2|0:0,0:0:0:0:
101,157,7880,2,0,P|61:167|32:169,2,70,0|0|8,1:0|1:0|0:0,0:0:0:0:
132,279,9380,2,0,P|204:296|268:308,1,140,0|8,1:0|0:0,0:0:0:0:
393,316,10880,2,0,P|400:280|409:247,1,70,0|4,1:0|1:2,0:0:0:0:
447,197,11630,1,8,0:0:0:0:
385,86,12380,6,0,P|303:87|245:83,1,140,4|0,1:2|0:0,0:0:0:0:
122,55,13880,2,0,P|92:125|83:187,1,140,2|2,0:0|0:0,0:0:0:0:
102,312,15380,2,0,L|35:334,2,70,0|8|0,1:0|0:0|0:0,0:0:0:0:
227,327,16880,2,0,P|319:300|362:301,1,140,2|2,0:0|0:0,0:0:0:0:
457,218,18380,6,0,P|387:192|329:160,1,140,0|0,1:0|0:0,0:0:0:0:
244,254,19880,2,0,L|104:266,1,140,2|2,0:0|0:0,0:0:0:0:
44,155,21380,2,0,P|37:114|29:86,2,70,0|8|0,1:0|0:0|0:0,0:0:0:0:
169,168,22880,6,0,P|262:141|304:136,1,140,2|2,0:0|0:0,0:0:0:0:
367,128,24005,1,0,0:0:0:0:
429,124,24380,1,4,1:0:0:0:
268,318,25880,6,0,P|187:323|128:315,1,140,0|8,1:0|0:0,0:0:0:0:
34,231,27380,1,0,1:0:0:0:
151,185,28130,2,0,P|149:149|144:115,2,70,8|0|0,0:0|0:0|1:0,0:0:0:0:
261,244,29630,6,0,L|331:257,1,70,0|2,1:0|0:0,0:0:0:0:
391,267,30380,2,0,P|391:176|402:128,1,140,4|8,0:0|0:0,0:0:0:0:
302,51,31880,2,0,P|302:142|291:190,1,140,0|8,1:0|0:0,0:0:0:0:
178,246,33380,6,0,P|103:250|39:242,2,140,0|8|0,1:0|0:0|1:0,0:0:0:0:
255,345,35630,1,8,0:0:0:0:
354,267,36380,2,0,P|373:208|376:130,1,140,0|8,1:0|0:0,0:0:0:0:
256,93,37880,5,0,1:0:0:0:
256,291,40955,6,0,P|167:291|116:299,1,140,4|8,1:2|0:0,0:0:0:0:
94,174,42455,2,0,L|26:192,2,70,0|0|8,1:0|1:0|0:0,0:0:0:0:
213,214,43955,1,0,1:0:0:0:
311,135,44705,2,0,P|300:76|299:29,2,105,8|0|0,0:0|1:0|1:0,0:0:0:0:
372,150,46205,1,8,0:0:0:0:
436,258,46955,6,0,P|377:282|311:320,1,140,0|8,1:0|0:0,0:0:0:0:
200,260,48455,2,0,L|184:328,2,70,0|0|8,1:0|1:0|0:0,0:0:0:0:
77,291,49955,1,0,1:0:0:0:
107,168,50705,2,0,P|51:158|4:148,2,105,8|0|0,0:0|1:0|1:0,0:0:0:0:
169,170,52205,1,8,0:0:0:0:
255,261,52955,6,0,P|320:258|359:258,2,105,4|0|0,1:0|1:0|1:0,0:0:0:0:
255,104,55955,6,0,P|165:100|112:101,2,140,4|2|4,1:2|0:0|1:2,0:0:0:0:
376,137,58205,2,0,P|381:99|388:68,2,70,8|8|4,0:0|0:0|1:2,0:0:0:0:
441,244,59705,2,0,L|372:258,1,70,8|0,0:0|0:0,0:0:0:0:
323,297,60455,2,0,L|254:283,1,70,2|0,0:0|0:0,0:0:0:0:
204,244,61205,1,8,0:0:0:0:
97,311,61955,6,0,L|70:246,1,70,0|0,1:0|0:0,0:0:0:0:
22,205,62705,2,0,P|33:127|35:65,1,140,8|2,0:0|0:0,0:0:0:0:
135,141,64205,1,8,0:0:0:0:
212,41,64955,6,0,P|268:40|352:47,1,140,4|8,1:2|0:0,0:0:0:0:
456,111,66455,1,0,1:0:0:0:
379,211,67205,1,8,0:0:0:0:
465,303,67955,6,0,P|389:305|326:314,1,140,4|8,1:2|0:0,0:0:0:0:
205,280,69455,2,0,P|190:306|170:341,2,69.9999999999999,0|0|8,1:0|1:0|0:0,0:0:0:0:
80,266,70955,2,0,P|89:188|90:127,1,140,0|8,1:0|0:0,0:0:0:0:
170,29,72455,1,0,1:0:0:0:
259,120,73205,1,8,0:0:0:0:
187,223,73955,6,0,P|250:276|304:294,1,140,4|8,1:2|0:0,0:0:0:0:
411,227,75455,2,0,P|451:217|480:215,2,70,0|0|8,1:0|1:0|0:0,0:0:0:0:
380,105,76955,1,0,1:0:0:0:
260,159,77705,2,0,L|121:136,1,140,8|0,0:0|1:0,0:0:0:0:
71,258,79308,2,0,L|141:253,1,70,8|0,0:0|0:0,0:0:0:0:
256,192,80353,12,0,83781,0:0:0:0:
