osu file format v7

[General]
AudioFilename: ED -chikai.mp3
AudioLeadIn: 1985
PreviewTime: 45367
Countdown: 0
SampleSet: Soft
StackLeniency: 0.4
Mode: 0
LetterboxInBreaks: 1

[Editor]
DistanceSpacing: 0.699999988079071
BeatDivisor: 4
GridSize: 8

[Metadata]
Title:Chikaigoto ~Sukoshi Dake Mou Ichido~ (TV Size)
Artist:IKU
Creator:a2823282
Version:Normal
Source:Toaru Majutsu no Index
Tags:roxkyuubiforever

[Difficulty]
HPDrainRate:3
CircleSize:4
OverallDifficulty:5
SliderMultiplier:1.4
SliderTickRate:2

[Events]
//Background and Video events
0,0,"index (4).jpg"
Video,0,"ED -chikai.wmv"
//Break Periods
//Storyboard Layer 0 (Background)
//Storyboard Layer 1 (Fail)
//Storyboard Layer 2 (Pass)
//Storyboard Layer 3 (Foreground)
//Storyboard Sound Samples
//Background Colour Transformations
3,100,128,128,255

[TimingPoints]
2460,536.480686695279,4,2,0,50,1,0
3935,-100,4,2,2,50,0,0
4203,-100,4,2,0,50,0,0
8227,-100,4,2,2,50,0,0
8495,-100,4,2,0,50,0,0
10909,-100,4,2,0,40,0,0
28613,-100,4,2,1,40,0,0
28881,-100,4,2,0,40,0,0
30759,-100,4,2,1,40,0,0
31027,-100,4,2,0,40,0,0
35185,-100,4,2,0,0,0,0
35587,-100,4,2,0,40,0,0
37197,-100,4,2,1,40,0,0
37465,-100,4,2,0,40,0,0
43634,-100,4,2,0,50,0,0
45378,-100,4,2,0,50,0,1
52620,-100,4,2,0,50,0,0
60131,-100,4,2,0,40,0,0
62411,-100,4,2,0,50,0,0
62545,-100,4,2,0,50,0,1
69788,-100,4,2,0,50,0,0
70458,-100,4,2,2,50,0,0
70727,-100,4,2,0,50,0,0
72604,-100,4,2,2,50,0,0
72873,-100,4,2,0,50,0,0
77438,-100,4,2,0,50,0,0
81188,-100,4,2,1,50,0,0
81859,-100,4,2,0,0,0,0

[Colours]
Combo1 : 255,255,196
Combo2 : 255,255,255
Combo3 : 128,128,255
Combo4 : 240,5,5

[HitObjects]
96,64,2459,1,4
144,64,2728,1,0
192,64,2996,1,8
240,64,3264,2,0,B|368:64|464:192|368:320|240:320,1,420,0|0
254,319,5142,1,8
168,272,5678,5,0
136,240,5947,1,0
168,208,6215,1,8
136,176,6483,1,0
136,176,6751,6,0,B|144:96|216:64,1,140,4|8
264,56,7556,2,0,B|392:184|248:320,1,280
256,192,8897,12,0,10507
80,192,11043,5,4
176,192,11580,1,0
176,144,11848,1,2
232,64,12384,2,0,B|304:32|384:72,1,140,0|2
408,152,13457,1,0
408,200,13726,1,0
408,248,13994,1,2
272,336,14799,5,4
272,336,15067,1,2
224,336,15335,2,0,B|144:320|104:240,1,140
114,257,16140,1,2
136,160,16676,1,0
136,160,17213,6,0,B|208:120|304:136,1,140,6|0
376,160,18286,1,2
448,224,18822,1,0
376,288,19359,1,2
448,224,19895,5,0
408,192,20163,1,0
368,224,20432,1,2
328,192,20700,1,0
232,192,21236,1,0
232,192,21505,1,2
136,192,22041,2,0,C|136:48,2,140,0|2|0
256,192,23650,12,0,25528
80,56,27138,5,0
80,104,27406,1,0
80,152,27674,1,2
80,200,27942,1,0
80,248,28211,2,0,B|216:296|360:248,1,280
400,224,29552,5,0
400,176,29820,1,2
400,128,30088,2,0,B|352:232|160:232|96:352,1,350,0|0
80,288,31698,1,0
80,240,31966,2,0,L|80:200,2,35,2|0|0
128,240,32502,5,0
168,208,32771,1,0
208,240,33039,1,2
256,192,33307,12,0,35185
112,72,35721,5,0
112,120,35990,1,0
112,168,36258,2,0,B|112:248,1,70,2|0
112,288,36794,2,0,B|272:288|408:192,1,280,0|0
280,184,38404,5,2
232,184,38672,1,0
208,88,39208,1,0
256,88,39477,1,2
304,88,39745,1,0
256,192,40281,12,0,42696
128,96,43769,6,0,B|168:96,4,35,2|0|0|2|2
128,168,44573,1,4
128,240,44841,1,4
272,160,45378,5,4
192,208,45914,1,12
272,256,46451,1,0
320,256,46719,1,0
272,256,46987,1,8
320,256,47256,1,0
320,208,47524,1,0
320,160,47792,2,0,B|320:80,2,70,0|8|0
192,96,48865,6,0,L|96:96,4,70,0|8|0|0|0
240,96,50206,1,8
288,96,50475,1,0
288,192,51011,1,0
240,192,51279,1,8
192,192,51547,2,0,B|192:272,3,70,0|0|0|8
344,136,52889,5,4
392,136,53157,1,0
440,136,53425,2,0,B|448:224|368:288,1,140,8|0
296,272,54498,1,8
200,272,55035,6,0,B|120:272,1,70,4|0
128,224,55571,1,8
80,224,55839,1,0
128,224,56108,1,0
176,224,56376,1,0
128,224,56644,1,8
80,224,56912,1,0
160,96,57449,6,0,B|240:96,1,70,0|8
230,96,57985,1,0
280,96,58253,2,0,B|224:168|296:248,1,140,0|8
328,224,59058,2,0,B|384:296|320:376,1,140
256,192,59863,12,0,62009
416,64,62545,5,4
360,144,63082,1,8
304,64,63618,2,0,B|288:80|240:80|224:64,1,70,0|0
237,72,64155,1,8
237,72,64423,1,0
232,120,64691,2,0,B|216:104|168:104|152:120,3,70,0|0|8|0
64,176,66032,5,0
112,176,66301,1,8
160,176,66569,1,0
160,224,66837,2,0,B|176:256|160:304,1,70,0|0
216,296,67374,1,8
264,296,67642,2,0,B|328:328|432:288,1,140
400,248,68447,1,8
400,200,68715,2,0,C|400:128,3,70,0|0|0|8
384,88,70056,6,0,B|304:56|192:56|104:88,1,280,0|0
80,184,71666,1,8
112,280,72202,2,0,B|192:312|304:312|400:280,1,280,0|0
400,240,73543,1,0
408,192,73811,1,8
400,144,74080,1,0
280,80,74616,5,0
232,88,74884,1,8
192,112,75153,1,0
160,144,75421,2,0,B|112:224|160:288,1,140,0|8
184,312,76226,2,0,B|256:360|336:328,1,140
400,288,77299,1,0
400,240,77567,6,0,B|328:240,1,70
328,144,78372,1,0
256,72,78908,1,0
184,144,79444,2,0,B|152:216|192:296,1,140
256,352,80517,1,0
328,280,81054,2,0,B|368:208|320:128,1,140,2|2
256,192,81859,12,0,86687
