osu file format v14

[General]
AudioFilename: ICHIKO - I SAY YES.mp3
AudioLeadIn: 1000
PreviewTime: 59164
Countdown: 0
SampleSet: Soft
StackLeniency: 0.7
Mode: 0
LetterboxInBreaks: 0
WidescreenStoryboard: 0

[Editor]
Bookmarks: 1865,13362,23421,24859,36356,47853,53601,59350,70847,82344,83960,86475,86835,87912
DistanceSpacing: 1.5
BeatDivisor: 4
GridSize: 8
TimelineZoom: 1.7

[Metadata]
Title:I SAY YES ~TV version~
TitleUnicode:I SAY YES 〜TV version〜
Artist:ICHIKO
ArtistUnicode:ICHIKO
Creator:Taeyang
Version:Insane
Source:ゼロの使い魔 双月の騎士
Tags:Zero no Tsukaima opening Futatsuki no Kishi
BeatmapID:710228
BeatmapSetID:318721

[Difficulty]
HPDrainRate:6
CircleSize:4.2
OverallDifficulty:7.5
ApproachRate:8.7
SliderMultiplier:1.6
SliderTickRate:1

[Events]
//Background and Video events
0,0,"BG.jpg",0,0
Video,0,"Ichiko-I Say Yes.flv"
//Break Periods
//Storyboard Layer 0 (Background)
//Storyboard Layer 1 (Fail)
//Storyboard Layer 2 (Pass)
//Storyboard Layer 3 (Foreground)
//Storyboard Sound Samples

[TimingPoints]
1859,359.281437125748,4,2,1,40,1,0
12637,-133.333333333333,4,2,1,40,0,0
13356,-100,4,2,2,55,0,0
24853,-100,4,2,1,40,0,0
36350,-100,4,2,1,55,0,0
47847,-133.333333333333,4,2,1,40,0,0
53595,-100,4,2,1,55,0,0
58805,-133.333333333333,4,2,1,40,0,0
59344,-83.3333333333333,4,2,2,70,0,1
70661,-83.3333333333333,4,2,2,70,0,0
70841,-83.3333333333333,4,2,2,70,0,1
82338,-100,4,2,2,60,0,0

[Colours]
Combo1 : 218,221,102
Combo2 : 129,192,147
Combo3 : 132,130,227
Combo4 : 255,128,128

[HitObjects]
76,186,1859,6,0,P|161:215|206:195,1,120,4|0,0:1|0:0,0:0:0:0:
231,190,2218,2,0,L|314:202,1,80,2|0,0:0|0:0,0:0:0:0:
454,67,2577,1,8,0:0:0:0:
230,40,2757,2,0,P|285:95|363:102,1,160,2|2,0:0|0:0,0:0:0:0:
454,67,3296,6,0,L|448:146,1,80,2|0,0:0|0:0,0:0:0:0:
310,201,3655,1,2,0:0:0:0:
480,237,3835,1,0,0:0:0:0:
307,321,4014,1,8,0:0:0:0:
369,248,4194,2,0,P|393:279|403:319,1,80,2|0,0:0|0:0,0:0:0:0:
224,367,4553,1,2,0:0:0:0:
63,232,4733,6,0,L|222:224,1,160,2|2,0:0|0:0,0:0:0:0:
435,209,5272,2,0,P|407:237|369:248,1,80,0|8,0:0|0:0,0:0:0:0:
274,142,5631,2,0,L|194:146,1,80,2|0,0:0|0:0,0:0:0:0:
100,46,5990,1,2,0:0:0:0:
100,46,6350,5,0,0:0:0:0:
274,142,6529,2,0,P|279:215|289:233,1,80,2|0,0:0|0:0,0:0:0:0:
431,340,6888,2,0,L|425:233,1,80,8|2,0:0|0:0,0:0:0:0:
423,163,7248,1,0,0:0:0:0:
323,306,7427,1,2,0:0:0:0:
153,347,7607,6,0,B|74:331|74:331|18:258,1,160,2|2,0:0|0:0,0:0:0:0:
207,128,8146,1,8,0:0:0:0:
207,128,8506,2,0,B|194:206|194:206|129:253,1,160,2|2,0:0|0:0,0:0:0:0:
151,46,9045,6,0,P|228:32|291:78,1,160,2|2,0:0|0:0,0:0:0:0:
323,306,9583,1,8,0:0:0:0:
323,306,9942,2,0,B|290:334|290:334|166:309,1,160,2|2,0:0|0:0,0:0:0:0:
237,115,10481,6,0,B|354:136|354:136|315:160,1,160,2|0,0:0|0:0,0:0:0:0:
395,61,11020,2,0,P|439:124|414:197,1,160,2|0,0:0|0:0,0:0:0:0:
323,306,11559,1,2,0:0:0:0:
246,130,11739,1,2,0:0:0:0:
200,336,11918,1,2,0:0:0:0:
39,136,12637,6,0,B|47:153|48:172|45:195|32:208|17:225|12:244|22:266|42:275|69:264|77:242|67:231,1,180.000006866455,2|0,0:0|0:0,0:0:0:0:
20,340,13356,6,0,P|99:333|152:270,1,160,4|8,0:1|0:0,0:0:0:0:
39,136,14074,1,2,0:0:0:0:
39,136,14254,2,0,P|77:145|117:142,1,80,2|8,0:0|0:0,0:0:0:0:
279,63,14613,1,6,0:0:0:0:
473,214,14972,5,8,0:0:0:0:
473,214,15062,2,0,L|469:289,1,40
374,262,15332,1,8,0:0:0:0:
374,262,15422,2,0,L|333:324,1,40
264,254,15691,1,8,0:0:0:0:
264,254,15781,2,0,L|197:288,1,40
172,192,16050,1,8,0:0:0:0:
152,190,16139,1,0,0:0:0:0:
132,189,16230,6,0,B|97:169|97:169|81:42,1,160,6|8,0:0|0:0,0:0:0:0:
369,29,16948,1,2,0:0:0:0:
369,29,17128,2,0,B|359:143,1,80,2|8,0:0|0:0,0:0:0:0:
453,339,17487,6,0,P|387:344|292:300,1,160,6|8,0:0|0:0,0:0:0:0:
215,124,18026,1,2,0:0:0:0:
180,296,18206,1,8,0:0:0:0:
35,329,18385,1,2,0:0:0:0:
133,216,18565,1,8,0:0:0:0:
120,365,18745,1,2,0:0:0:0:
43,237,18924,1,8,0:0:0:0:
215,124,19104,6,0,B|265:121|265:121|319:141|319:141|371:139,1,160,6|8,0:0|0:0,0:0:0:0:
452,312,19823,1,2,0:0:0:0:
452,312,20002,2,0,L|371:315,1,80,2|8,0:0|0:0,0:0:0:0:
112,326,20361,2,0,P|190:314|238:252,1,160,6|2,0:0|0:0,0:0:0:0:
119,96,20900,5,8,0:0:0:0:
133,216,21080,1,8,0:0:0:0:
379,216,21260,1,2,0:0:0:0:
393,96,21440,1,8,0:0:0:0:
256,192,21619,1,2,0:0:0:0:
256,336,21799,1,8,0:0:0:0:
295,87,21978,6,0,P|256:85|216:87,1,80,6|0,0:0|0:0,0:0:0:0:
133,216,22338,1,8,0:0:0:0:
256,336,22517,1,8,0:0:0:0:
275,330,22606,1,8,0:0:0:0:
294,325,22697,2,0,L|312:232,1,80,8|8,0:3|0:3,0:0:0:0:
295,87,23056,1,4,0:3:0:0:
133,216,23236,1,4,0:3:0:0:
256,192,23595,12,6,24853,0:0:0:0:
140,287,25212,6,0,P|212:295|228:287,1,80,8|0,0:0|0:0,0:0:0:0:
348,234,25571,1,2,0:0:0:0:
231,150,25751,1,2,0:0:0:0:
140,287,25930,1,8,0:0:0:0:
356,338,26110,1,0,0:0:0:0:
356,338,26200,1,0,0:0:0:0:
356,338,26290,6,0,L|361:258,1,80,2|0,0:0|0:0,0:0:0:0:
393,65,26649,1,8,0:0:0:0:
223,46,26829,2,0,L|218:126,1,80,0|2,0:0|0:0,0:0:0:0:
140,287,27188,1,2,0:0:0:0:
348,234,27367,2,0,L|353:154,1,80,8|0,0:0|0:0,0:0:0:0:
92,155,27727,5,2,0:0:0:0:
327,320,28086,2,0,P|366:320|400:300,1,80,8|0,0:0|0:0,0:0:0:0:
368,86,28445,1,2,0:0:0:0:
230,143,28625,1,2,0:0:0:0:
348,234,28804,1,8,0:0:0:0:
255,34,28984,1,0,0:0:0:0:
255,34,29074,1,0,0:0:0:0:
255,34,29164,6,0,L|151:35,1,80,2|0,0:0|0:0,0:0:0:0:
92,155,29523,2,0,P|90:218|104:255,1,80,8|0,0:0|0:0,0:0:0:0:
199,315,29882,1,2,0:0:0:0:
95,376,30062,1,2,0:0:0:0:
301,362,30242,2,0,L|304:282,1,80,8|0,0:0|0:0,0:0:0:0:
314,57,30601,5,2,0:0:0:0:
493,263,30960,2,0,P|454:268|415:261,1,80,8|0,0:0|0:0,0:0:0:0:
323,181,31320,1,2,0:0:0:0:
228,254,31499,1,2,0:0:0:0:
177,109,31679,1,8,0:0:0:0:
73,294,31858,1,0,0:0:0:0:
73,294,31948,1,0,0:0:0:0:
73,294,32038,6,0,L|152:287,1,80,2|0,0:0|0:0,0:0:0:0:
371,264,32397,1,8,0:0:0:0:
177,109,32577,1,2,0:0:0:0:
177,109,32936,1,2,0:0:0:0:
228,254,33115,1,8,0:0:0:0:
314,57,33295,1,0,0:0:0:0:
502,165,33475,6,0,P|462:164|422:156,1,80,2|0,0:0|0:0,0:0:0:0:
371,264,33835,2,0,P|410:264|451:273,1,80,8|0,0:0|0:0,0:0:0:0:
227,333,34194,2,0,L|228:253,1,80,2|2,0:0|0:0,0:0:0:0:
312,136,34553,2,0,L|314:57,2,80,8|0|2,0:0|0:0|0:0,0:0:0:0:
371,264,35092,5,2,0:0:0:0:
210,351,35272,1,8,0:0:0:0:
85,181,35451,1,2,0:0:0:0:
193,369,35631,1,8,0:0:0:0:
293,164,35811,1,2,0:0:0:0:
466,286,35990,2,0,L|386:284,1,80,12|2,0:0|0:0,0:0:0:0:
227,333,36350,6,0,P|222:294|224:254,1,80,6|0,0:0|0:0,0:0:0:0:
291,85,36709,2,0,P|296:124|294:164,1,80,8|0,0:0|0:0,0:0:0:0:
145,199,37068,2,0,L|55:198,2,80,2|0|8,0:0|0:0|0:0,0:0:0:0:
318,320,37607,6,0,P|340:270|342:241,1,80,0|2,0:0|0:0,0:0:0:0:
291,85,37966,2,0,P|323:129|347:145,1,80,0|8,0:0|0:0,0:0:0:0:
509,180,38326,2,0,P|454:185|428:198,1,80,0|2,0:0|0:0,0:0:0:0:
318,320,38685,2,0,L|219:316,1,80,0|8,0:0|0:0,0:0:0:0:
124,278,39044,1,0,0:0:0:0:
307,106,39224,6,0,L|298:187,1,80,6|0,0:0|0:0,0:0:0:0:
140,299,39583,2,0,L|149:218,1,80,8|0,0:0|0:0,0:0:0:0:
167,100,39942,1,2,0:0:0:0:
45,77,40122,1,0,0:0:0:0:
148,219,40302,1,8,0:0:0:0:
324,128,40481,6,0,P|362:117|402:118,1,80,0|2,0:0|0:0,0:0:0:0:
478,218,40841,2,0,P|467:256|446:290,1,80,0|8,0:0|0:0,0:0:0:0:
322,308,41200,2,0,P|293:279|274:245,1,80,0|2,0:0|0:0,0:0:0:0:
167,100,41559,1,0,0:0:0:0:
148,219,41739,2,0,L|140:299,1,80,8|0,0:0|0:0,0:0:0:0:
339,290,42098,6,0,P|378:287|418:295,2,80,6|0|8,0:0|0:0|0:0,0:0:0:0:
211,255,42637,1,0,0:0:0:0:
83,356,42817,2,0,L|91:276,1,80,2|0,0:0|0:0,0:0:0:0:
53,162,43176,1,8,0:0:0:0:
173,43,43356,6,0,P|237:88|315:83,1,160
425,37,43894,2,0,L|432:116,1,80,8|0,0:0|0:0,0:0:0:0:
378,225,44254,1,2,0:0:0:0:
481,285,44433,1,0,0:0:0:0:
382,353,44613,2,0,L|288:351,1,80,8|0,0:0|0:0,0:0:0:0:
109,242,44972,6,0,P|174:200|246:228,1,160,2|8,0:0|0:0,0:0:0:0:
189,366,45511,2,0,L|184:287,1,80,0|2,0:0|0:0,0:0:0:0:
78,229,45870,2,0,L|72:149,1,80,0|8,0:0|0:0,0:0:0:0:
170,78,46230,1,0,0:0:0:0:
228,201,46409,6,0,L|322:195,1,80,2|2,0:0|0:0,0:0:0:0:
415,272,46769,1,8,0:0:0:0:
501,125,46948,1,2,0:0:0:0:
352,25,47128,2,0,L|357:104,1,80,8|2,0:0|0:0,0:0:0:0:
436,289,47487,1,8,0:0:0:0:
243,358,47667,1,2,0:0:0:0:
76,191,47847,6,0,L|92:311,1,120.000004577637,4|0,0:0|0:0,0:0:0:0:
243,358,48385,1,2,0:0:0:0:
357,237,48565,2,0,P|328:241|301:254,1,60.0000022888184,2|0,0:0|0:0,0:0:0:0:
170,193,48924,2,0,P|199:189|226:176,1,60.0000022888184,8|0,0:0|0:0,0:0:0:0:
373,118,49284,6,0,L|357:236,1,120.000004577637,2|0,0:0|0:0,0:0:0:0:
357,236,49823,1,2,0:0:0:0:
243,358,50002,1,2,0:0:0:0:
79,330,50182,1,8,0:0:0:0:
79,330,50361,2,0,L|74:247,1,60.0000022888184,8|0,0:0|0:0,0:0:0:0:
160,170,50721,6,0,P|190:174|293:164,1,120.000004577637,2|0,0:0|0:0,0:0:0:0:
393,94,51260,1,2,0:0:0:0:
428,223,51439,2,0,L|420:291,1,60.0000022888184,2|0,0:0|0:0,0:0:0:0:
308,357,51799,2,0,L|300:297,1,60.0000022888184,8|0,0:0|0:0,0:0:0:0:
393,94,52158,5,2,0:0:0:0:
428,223,52338,2,0,L|360:220,1,60.0000022888184,2|2,0:0|0:0,0:0:0:0:
219,172,52697,2,0,P|189:173|160:169,2,60.0000022888184,2|8|8,0:0|0:0|0:0,0:0:0:0:
393,94,53236,1,8,0:0:0:0:
403,83,53325,1,8,0:0:0:0:
414,73,53415,1,8,0:0:0:0:
425,62,53505,1,8,0:0:0:0:
435,52,53595,6,0,P|432:146|471:222,1,160,4|8,0:0|0:0,0:0:0:0:
373,359,54134,2,0,P|376:265|337:189,1,160
264,336,54673,1,8,0:0:0:0:
222,223,54853,6,0,L|43:240,1,160
138,330,55391,1,8,0:0:0:0:
167,132,55571,2,0,L|326:116,1,160
478,152,56110,1,8,0:0:0:0:
483,171,56199,1,8,0:0:0:0:
486,190,56289,1,8,0:0:0:0:
487,210,56379,1,8,0:0:0:0:
484,230,56469,6,0,L|404:239,1,80,6|0,0:0|0:0,0:0:0:0:
317,155,56829,1,8,0:0:0:0:
297,333,57008,1,2,0:0:0:0:
122,262,57188,2,0,L|201:258,1,80,8|2,0:0|0:0,0:0:0:0:
317,155,57547,1,8,0:0:0:0:
120,52,57727,5,4,0:0:0:0:
120,52,58086,2,0,P|114:91|120:130,1,80,4|4,0:0|0:0,0:0:0:0:
297,333,58445,1,4,0:0:0:0:
274,348,58805,6,8,L|251:346,8,15.0000005722046
297,332,59344,6,0,P|307:286|296:180,1,143.999995605469,4|0,0:1|0:0,0:0:0:0:
235,156,59703,2,0,L|138:161,1,95.9999970703126,8|0,0:0|0:0,0:0:0:0:
223,302,60062,1,2,0:0:0:0:
440,270,60242,2,0,L|449:174,1,95.9999970703126,0|8,0:0|0:0,0:0:0:0:
362,66,60601,1,0,0:0:0:0:
205,218,60781,6,0,L|302:213,1,95.9999970703126,2|0,0:0|0:0,0:0:0:0:
402,331,61140,1,8,0:0:0:0:
474,157,61320,1,0,0:0:0:0:
362,66,61499,2,0,L|265:71,1,95.9999970703126,2|2,0:0|0:0,0:0:0:0:
205,218,61858,1,8,0:0:0:0:
331,149,62038,1,0,0:0:0:0:
94,79,62218,6,0,P|88:126|89:174,1,95.9999970703126,2|0,0:0|0:0,0:0:0:0:
96,318,62577,1,8,0:0:0:0:
205,218,62757,1,0,0:0:0:0:
226,366,62936,1,2,0:0:0:0:
402,331,63116,2,0,L|290:325,1,95.9999970703126,0|8,0:0|0:0,0:0:0:0:
96,318,63475,1,0,0:0:0:0:
183,105,63655,6,0,P|254:103|294:91,1,95.9999970703126,2|0,0:0|0:0,0:0:0:0:
436,158,64014,2,0,P|388:156|341:166,1,95.9999970703126,8|0,0:0|0:0,0:0:0:0:
205,218,64373,1,2,0:0:0:0:
366,78,64553,1,2,0:0:0:0:
396,235,64733,2,0,L|402:344,1,95.9999970703126,8|0,0:0|0:0,0:0:0:0:
258,356,65092,6,0,P|163:360|67:354,1,191.999994140625,2|8,0:0|0:0,0:0:0:0:
114,123,65631,1,0,0:0:0:0:
182,244,65811,2,0,L|280:243,1,95.9999970703126,2|0,0:0|0:0,0:0:0:0:
366,78,66170,1,8,0:0:0:0:
249,162,66350,1,0,0:0:0:0:
388,292,66529,6,0,P|396:202|389:100,1,191.999994140625,2|8,0:0|0:0,0:0:0:0:
249,66,67068,1,0,0:0:0:0:
60,175,67248,2,0,L|156:176,1,95.9999970703126,2|2,0:0|0:0,0:0:0:0:
290,336,67607,1,8,0:0:0:0:
145,334,67787,1,0,0:0:0:0:
222,132,67966,5,2,0:0:0:0:
278,312,68146,1,0,0:0:0:0:
127,199,68326,1,8,0:0:0:0:
314,201,68505,1,0,0:0:0:0:
162,310,68685,1,2,0:0:0:0:
222,132,68864,1,0,0:0:0:0:
406,94,69044,2,0,L|403:204,1,95.9999970703126,8|0,0:0|0:0,0:0:0:0:
368,329,69403,5,2,0:0:0:0:
368,329,69763,2,0,P|415:335|476:330,1,95.9999970703126,8|0,0:0|0:0,0:0:0:0:
314,201,70122,2,0,P|267:195|206:200,1,95.9999970703126,2|2,0:0|0:0,0:0:0:0:
106,352,70481,2,0,P|153:358|214:353,1,95.9999970703126,8|2,0:0|0:0,0:0:0:0:
67,232,70841,6,0,P|72:158|84:89,1,143.999995605469,4|0,0:1|0:0,0:0:0:0:
152,66,71200,2,0,L|255:69,1,95.9999970703126,8|0,0:0|0:0,0:0:0:0:
395,93,71559,1,2,0:0:0:0:
349,316,71739,2,0,P|294:274|283:222,1,95.9999970703126,0|8,0:0|0:0,0:0:0:0:
456,207,72098,1,0,0:0:0:0:
349,316,72278,6,0,L|253:313,1,95.9999970703126,2|0,0:0|0:0,0:0:0:0:
165,148,72637,1,8,0:0:0:0:
285,250,72817,1,0,0:0:0:0:
126,360,72996,2,0,L|117:262,1,95.9999970703126,2|2,0:0|0:0,0:0:0:0:
32,90,73356,2,0,L|40:185,1,95.9999970703126,8|0,0:0|0:0,0:0:0:0:
325,123,73715,6,0,P|251:178|164:147,1,191.999994140625,2|8,0:0|0:0,0:0:0:0:
325,123,74254,1,0,0:0:0:0:
297,263,74433,2,0,L|304:360,1,95.9999970703126,2|0,0:0|0:0,0:0:0:0:
162,273,74793,1,8,0:0:0:0:
237,82,74972,1,0,0:0:0:0:
416,210,75152,6,0,L|422:114,1,95.9999970703126,2|0,0:0|0:0,0:0:0:0:
299,199,75511,2,0,L|306:296,1,95.9999970703126,8|0,0:0|0:0,0:0:0:0:
447,320,75870,1,2,0:0:0:0:
326,123,76050,1,2,0:0:0:0:
161,273,76230,2,0,P|114:279|67:271,1,95.9999970703126,8|0,0:0|0:0,0:0:0:0:
41,89,76589,6,0,P|105:47|232:62,1,191.999994140625,2|8,0:0|0:0,0:0:0:0:
161,273,77128,1,0,0:0:0:0:
283,349,77308,2,0,L|286:242,1,95.9999970703126,2|0,0:0|0:0,0:0:0:0:
216,53,77667,1,8,0:0:0:0:
396,160,77847,1,0,0:0:0:0:
174,289,78026,6,0,B|140:318|140:318|146:149,1,191.999994140625,2|8,0:0|0:0,0:0:0:0:
341,100,78565,1,0,0:0:0:0:
459,267,78745,2,0,L|363:263,1,95.9999970703126,2|2,0:0|0:0,0:0:0:0:
174,289,79104,1,8,0:0:0:0:
305,188,79284,1,0,0:0:0:0:
233,364,79463,5,2,0:0:0:0:
246,113,79643,1,0,0:0:0:0:
400,175,79823,1,8,0:0:0:0:
327,351,80002,1,0,0:0:0:0:
210,201,80182,1,2,0:0:0:0:
363,263,80361,1,2,0:0:0:0:
233,364,80541,1,8,0:0:0:0:
115,214,80721,1,0,0:0:0:0:
341,100,80900,5,8,0:3:0:0:
269,276,81080,1,4,0:3:0:0:
153,132,81260,2,0,P|152:73|160:32,1,95.9999970703126,8|0,0:0|0:0,0:0:0:0:
364,75,81619,2,0,B|414:61|414:61|424:130|407:200,1,191.999994140625,8|4,0:3|0:3,0:0:0:0:
376,326,82338,6,0,B|325:323|325:323|265:340|265:340|218:335,1,160,4|8,0:1|0:0,0:0:0:0:
103,123,83056,1,2,0:0:0:0:
103,123,83236,2,0,P|142:116|182:118,1,80,2|8,0:0|0:0,0:0:0:0:
301,126,83595,1,6,0:0:0:0:
453,290,83954,5,8,0:0:0:0:
453,290,84044,2,0,L|449:365,1,40
409,140,84314,1,8,0:0:0:0:
409,140,84404,2,0,L|411:100,1,40
344,261,84673,1,8,0:0:0:0:
344,261,84764,2,0,L|340:336,1,40
299,166,85032,1,8,0:0:0:0:
300,146,85121,1,0,0:0:0:0:
301,126,85212,6,0,P|214:101|152:125,1,160,6|8,0:0|0:0,0:0:0:0:
111,238,85751,1,2,0:0:0:0:
344,261,85930,1,8,0:3:0:0:
299,166,86110,1,8,0:3:0:0:
450,270,86290,1,4,0:3:0:0:
285,348,86469,1,4,0:3:0:0:
285,348,86829,6,0,B|229:356|205:348,1,80,8|4,0:3|0:3,0:0:0:0:
111,238,87188,1,8,0:3:0:0:
301,86,87367,2,0,L|298:194,1,80,4|4,0:3|0:3,0:0:0:0:
117,80,87727,1,8,0:3:0:0:
409,39,87906,1,4,0:0:0:0:
