osu file format v9

[General]
AudioFilename: ICHIKO - I SAY YES.mp3
AudioLeadIn: 0
PreviewTime: 59212
Countdown: 0
SampleSet: Soft
StackLeniency: 0.7
Mode: 0
LetterboxInBreaks: 1

[Editor]
DistanceSpacing: 1
BeatDivisor: 4
GridSize: 8

[Metadata]
Title:I SAY YES (TV Size)
Artist:ICHIKO
Creator:Fight69
Version:Normal
Source:Zero no Tsukaima
Tags:Futatsuki no Kishi

[Difficulty]
HPDrainRate:4
CircleSize:4
OverallDifficulty:4
ApproachRate:5
SliderMultiplier:1.2
SliderTickRate:1

[Events]
//Background and Video events
0,0,"9sukjb.jpg"
Video,50,"Ichiko-I Say Yes.flv"
//Break Periods
//Storyboard Layer 0 (Background)
//Storyboard Layer 1 (Fail)
//Storyboard Layer 2 (Pass)
//Storyboard Layer 3 (Foreground)
//Storyboard Sound Samples
//Background Colour Transformations
3,100,163,162,255

[TimingPoints]
1865,359.281437125748,4,2,2,100,1,0
47773,-100,4,2,1,100,0,0
47952,-100,4,2,2,100,0,0
53521,-100,4,2,1,100,0,0
53701,-100,4,2,2,100,0,0
58012,-100,4,2,1,59,0,0
58372,-100,4,2,1,100,0,0
59350,-100,4,2,1,69,0,1
70773,-100,4,2,1,69,0,0
70863,-100,4,2,1,69,0,1
82344,-100,4,2,1,100,0,0
82433,-100,4,2,2,100,0,0

[Colours]
Combo1 : 255,150,0
Combo2 : 5,240,5
Combo3 : 255,128,192
Combo4 : 240,5,5

[HitObjects]
256,296,1865,2,0,B|368:304|416:224,1,180,4|0
304,176,2763,1,0
336,56,3122,2,0,B|224:48|176:128,1,180
179,243,4020,6,0,B|179:372,2,120,0|0|4
80,176,5098,1,0
80,176,5278,1,0
144,72,5637,1,0
200,176,5996,2,0,B|304:176|352:72,1,180
448,24,6894,5,0
448,152,7254,1,0
448,272,7613,2,0,B|416:336|352:336,1,120,4|0
352,272,8152,2,0,B|290:272|258:208,1,120
258,88,8870,5,0
258,88,9050,2,0,B|226:24|162:24,1,120,4|0
162,88,9589,2,0,B|100:87|68:151,1,120
68,271,10308,5,0
68,271,10487,2,0,B|99:334|161:334,1,120,4|0
224,336,11026,2,0,B|328:360|440:240|424:136,1,300
425,136,12643,5,0
424,136,13362,2,0,B|399:41|255:-7|111:41|87:137,2,420,4|4|0
424,256,16236,2,0,B|399:351|256:400|111:351|87:255,2,420,4|4|0
424,136,19110,6,0,B|399:41|256:-8|111:41|87:137,2,420,4|4|0
256,192,21805,12,2,23242
256,192,24859,5,4
256,192,25577,2,0,B|184:200|144:144,1,120
152,88,26116,2,0,B|197:31|265:42,1,120
352,120,26835,1,0
368,240,27194,2,0,B|336:336|232:336,1,180,0|4
192,96,28451,6,0,B|136:56|80:96,1,120
80,155,28990,2,0,B|135:194|191:154,1,120
312,128,29709,1,0
424,96,30068,2,0,B|504:160|480:264,1,180,0|4
256,336,31326,6,0,B|199:290|210:222,1,120
216,168,31864,2,0,B|224:40|384:8,2,240
216,232,33481,6,0,B|274:241|320:184,1,120,4|0
368,144,34020,1,0
408,184,34200,2,0,B|417:242|360:288,1,120
256,192,34739,12,8,35996
208,256,36356,6,0,B|80:256,2,120,4|0|0
327,256,37433,1,0
328,256,37613,2,0,B|400:200|352:72|256:80,2,240
288,296,39230,1,4
232,192,39589,5,0
160,288,39948,2,0,B|72:240|96:128,2,180
208,328,41206,1,0
320,360,41566,1,0
424,216,42104,1,4
340,131,42463,5,0
254,216,42823,2,0,B|198:128|286:56,2,180
224,336,44260,2,0,B|96:336,1,120
19,251,44978,6,0,B|27:155|131:123,1,180,4|0
249,123,45876,2,0,B|385:123,1,120
256,192,46415,12,4,47853
256,192,48930,5,8
144,224,49290,2,0,B|152:312|256:352|352:320|368:224,1,300,0|8
363,244,50367,1,8
360,120,50727,6,0,B|320:56|240:56,1,120
202,57,51266,2,0,B|96:120,1,120
48,152,51805,1,8
144,224,52164,6,0,B|152:312|256:352|352:320|368:224,1,300,0|8
363,244,53242,1,8
368,128,53601,6,0,B|344:72|272:64,2,120,0|8|0
256,168,54679,2,0,B|232:224|160:232,2,120,8|0|8
152,112,55757,2,0,B|128:56|56:48,2,120,0|8|0
296,304,57194,6,0,B|376:368|464:304,1,180,0|2
384,216,58092,1,4
384,216,58272,1,4
384,216,58451,1,4
112,96,59350,6,0,B|56:144|80:224,1,120,0|8
96,256,59888,2,0,B|144:312|224:288,1,120
304,224,60607,2,0,B|320:128|232:64,1,180,0|8
144,136,61505,2,0,B|200:184|184:256,1,120,0|8
64,232,62224,6,0,B|88:336|200:344,1,180
288,280,63122,1,0
376,200,63481,2,0,B|352:96|240:88,1,180,0|8
130,89,64379,2,0,B|50:89,2,60,0|8|8
216,176,65098,6,0,B|289:249|255:351,2,180,4|0|8
288,80,66535,2,0,B|468:80,2,180,0|0|8
256,192,67972,12,0,69409
176,192,69769,5,2
260,107,70128,1,2
344,191,70487,1,2
258,276,70847,6,0,B|306:332|386:308,1,120,4|8
418,292,71385,2,0,B|474:244|450:164,1,120
386,84,72104,2,0,B|290:68|226:156,1,180,0|8
298,244,73002,2,0,B|346:188|418:204,1,120,0|8
400,320,73721,6,0,B|320:376|224:352,1,180
136,272,74619,1,0
208,176,74978,2,0,B|288:120|384:144,1,180,0|8
456,232,75876,6,0,B|409:278|345:254,1,120,0|8
400,360,76595,2,0,B|306:366|237:297,1,180,4|0
400,120,77853,5,0
400,120,78032,2,0,B|331:51|237:57,1,180,4|0
152,280,79290,5,0
152,280,79469,2,0,B|220:348|314:342,2,180,4|4|4
80,184,80906,1,0
104,128,81086,1,0
160,112,81266,5,8
256,40,81625,1,0
352,112,81984,1,0
256,184,82344,1,4
256,192,82523,12,0,85218
256,192,86475,5,0
280,64,86835,2,0,B|385:86|417:198|385:294|281:326,1,360,0|2
