osu file format v9

[General]
AudioFilename: ICHIKO - I SAY YES.mp3
AudioLeadIn: 0
PreviewTime: 59212
Countdown: 0
SampleSet: Soft
StackLeniency: 0.4
Mode: 0
LetterboxInBreaks: 1

[Editor]
DistanceSpacing: 1
BeatDivisor: 4
GridSize: 8

[Metadata]
Title:I SAY YES (TV Size)
Artist:ICHIKO
Creator:Fight69
Version:Hard
Source:Zero no Tsukaima
Tags:Futatsuki no Kishi

[Difficulty]
HPDrainRate:7
CircleSize:4
OverallDifficulty:7
ApproachRate:8
SliderMultiplier:1.6
SliderTickRate:1

[Events]
//Background and Video events
0,0,"9sukjb.jpg"
Video,50,"Ichiko-I Say Yes.flv"
//Break Periods
//Storyboard Layer 0 (Background)
//Storyboard Layer 1 (Fail)
//Storyboard Layer 2 (Pass)
//Storyboard Layer 3 (Foreground)
//Storyboard Sound Samples
//Background Colour Transformations
3,100,163,162,255

[TimingPoints]
1865,359.281437125748,4,2,2,100,1,0
47759,-100,4,2,1,100,0,0
47938,-100,4,2,2,100,0,0
53521,-100,4,2,1,100,0,0
53701,-100,4,2,2,100,0,0
58012,-100,4,2,1,59,0,0
58372,-100,4,2,1,100,0,0
59350,-100,4,2,1,69,0,1
70773,-100,4,2,1,69,0,0
70863,-100,4,2,1,69,0,1
80992,-100,4,1,0,69,0,1
81172,-100,4,2,2,69,0,1
82344,-100,4,2,0,100,0,0
82613,-100,4,2,2,100,0,0

[Colours]
Combo1 : 255,150,0
Combo2 : 5,240,5
Combo3 : 255,128,192
Combo4 : 240,5,5

[HitObjects]
256,96,1865,2,0,B|352:96|376:192,1,160,4|0
256,288,2403,2,0,B|160:288|136:192,1,160
256,24,3122,2,0,B|328:16|432:80|440:168,1,240
280,192,4020,2,0,B|328:256,2,80,2|0|0
208,160,4559,1,0
144,216,4739,6,0,B|165:304|261:304,1,160,4|0
368,168,5278,2,0,B|346:79|250:79,1,160
74,231,5996,2,0,B|80:304|160:384|256:376,1,240
413,360,6894,2,0,B|493:360,2,80,2|0|0
349,312,7433,1,0
349,312,7613,6,0,B|189:312,1,160,4|0
189,312,8152,1,0
109,176,8511,2,0,B|29:176,2,80,0|2|0
165,120,9050,6,0,B|333:120,1,160,4|0
349,192,9589,2,0,B|189:192,1,160
221,264,10128,2,0,B|381:264,2,160,2|4|0
144,264,11026,2,0,B|80:288|0:256|-16:176|16:128,1,240
13,132,11745,1,0
13,132,11924,1,0
161,32,12643,1,0
161,32,13362,6,0,B|77:32,2,80,4|0|2
241,32,13900,2,0,B|325:32,2,80,0|0|0
205,104,14439,1,0
125,104,14619,2,0,B|45:144|61:240,1,160,4|0
60,237,15068,5,0
60,237,15158,1,2
117,296,15338,1,0
117,296,15427,1,0
117,296,15517,1,0
189,328,15697,1,0
189,328,15787,1,0
189,328,15876,1,0
261,296,16056,1,0
261,296,16146,1,0
261,296,16236,2,0,B|392:272|413:120,2,240,4|0|4
213,232,17493,5,0
133,216,17673,2,0,B|45:216,1,80,0|0
53,135,18032,2,0,B|133:135,1,80
285,136,18391,2,0,B|197:136,1,80,2|0
205,216,18751,2,0,B|285:216,1,80,2|0
357,184,19110,6,0,B|429:144|405:40,2,160,4|0|2
285,144,20008,2,0,B|205:144,1,80
133,176,20367,2,0,B|61:216|85:320,1,160,4|0
141,368,20906,5,0
189,304,21086,1,0
253,344,21266,1,2
285,272,21445,1,0
349,320,21625,1,2
381,248,21805,1,0
445,288,21984,2,0,B|504:216|456:128,1,160,4|0
312,88,22703,2,0,B|224:88,2,80,2|0|0
392,88,23242,1,0
256,192,23421,12,4,24859
224,256,25577,6,0,B|144:256,2,80
296,256,26116,2,0,B|344:240|352:184,1,80
323,112,26475,2,0,B|276:128|272:168,1,80
400,144,26835,2,0,B|448:128|456:72,1,80
392,32,27194,2,0,B|256:24|192:144,1,240,0|4
193,140,28451,6,0,B|192:240,2,80
152,72,28990,2,0,B|96:136,1,80
99,212,29350,2,0,B|155:276,1,80
232,272,29709,2,0,B|284:211,1,80
284,132,30069,2,0,B|231:71,1,80
231,71,30607,1,4
231,71,31326,6,0,B|144:72,2,80
312,72,31864,2,0,B|392:72,1,80
504,144,32224,2,0,B|424:144,1,80
312,216,32583,2,0,B|392:216,1,80
504,288,32942,2,0,B|336:288,1,160
263,288,33481,6,0,B|176:312|96:256|80:168,1,240,4|0
176,48,34200,2,0,B|263:24|343:80|359:168,1,240
357,160,35098,5,0
512,208,35278,1,0
360,256,35457,1,0
512,304,35637,1,0
360,352,35817,1,0
360,352,35996,6,0,B|272:352|240:264,1,160,8|4
216,184,36535,2,0,B|200:128,2,40
160,240,36894,2,0,B|181:317,2,80
136,168,37433,1,0
192,112,37613,2,0,B|224:40,1,80
288,88,37972,2,0,B|361:59,1,80
368,136,38332,2,0,B|440:168,1,80
384,224,38691,2,0,B|412:297,2,80
336,288,39230,6,0,B|248:320|184:264,2,160,4|0|0
384,224,40128,2,0,B|432:160,1,80
424,40,40487,2,0,B|376:104,1,80
296,88,40847,2,0,B|307:167,1,80
232,200,41206,2,0,B|296:247,1,80
272,320,41565,2,0,B|351:308,2,80
192,328,42104,6,0,B|112:328|64:240,2,160,4|0|0
224,256,43002,2,0,B|312:232,1,80
320,160,43362,2,0,B|273:75|193:75,1,160
184,200,43900,1,0
192,328,44080,2,0,B|112:327|66:243,1,160
48,168,44619,1,0
80,96,44799,1,0
136,40,44978,6,0,B|216:8|296:56,1,160
416,136,45517,2,0,B|336:168|256:120,1,160
262,123,46056,1,0
224,184,46236,5,0
304,184,46415,1,0
192,248,46595,1,0
336,248,46775,1,0
160,312,46954,1,0
368,312,47134,1,0
120,248,47314,1,8
408,256,47493,1,8
264,352,47853,6,0,B|264:184,1,160,4|0
184,192,48391,2,0,B|184:352,1,160
264,352,48930,1,8
344,352,49110,2,0,B|344:184,1,160
304,120,49649,5,0
224,120,49829,1,0
264,48,50008,1,0
264,192,50188,1,8
264,48,50367,1,8
264,48,50727,6,0,B|176:32|120:112,1,160
192,144,51266,2,0,B|140:217|52:201,2,160,0|8|0
272,144,52164,2,0,B|323:217|411:201,1,160
376,128,52703,2,0,B|302:179|318:267,1,160,0|8
318,266,53242,1,8
318,266,53601,6,0,B|318:362,2,80,4|0|8
248,232,54140,1,0
176,200,54320,2,0,B|176:120,2,80,0|0|8
104,232,54859,1,0
40,272,55038,2,0,B|39:351,2,80,0|0|8
40,192,55577,2,0,B|40:104|112:56,2,160
40,192,56475,1,0
40,192,57194,5,0
152,304,57373,1,0
265,190,57553,1,0
151,76,57733,1,0
151,76,58092,5,4
265,190,58272,1,4
152,304,58452,1,4
208,320,59350,6,0,B|160:320|128:288,2,80,0|0|8
256,256,59888,1,0
304,192,60068,2,0,B|392:192,2,80,0|0|8
224,184,60607,1,0
272,120,60787,1,0
192,112,60966,2,0,B|144:112,2,40,0|0|8
240,48,61326,6,0,B|320:48,1,80
432,120,61685,2,0,B|352:120,1,80,0|8
240,192,62044,2,0,B|320:192,1,80
432,264,62403,2,0,B|352:264,1,80,0|8
296,328,62763,2,0,B|208:344|152:264,1,160
112,200,63302,2,0,B|96:112|176:56,1,160,8|0
248,56,63841,6,0,B|296:128,1,80,0|8
360,80,64200,2,0,B|408:152,1,80
336,192,64559,2,8,B|288:264,1,80
224,216,64918,2,0,B|176:288,2,80,2|4|0
272,152,65457,5,8
192,144,65637,2,0,B|128:88|40:112,1,160
42,111,66176,1,8
24,272,66356,1,2
24,272,66535,2,0,B|88:328|176:304,1,160,0|8
144,232,67074,2,0,B|229:208|293:264,1,160
293,264,67613,1,8
352,200,67793,6,0,B|408:264,2,80,2|0|0
296,144,68332,1,8
240,88,68511,2,0,B|176:40|80:72,1,160
160,168,69050,1,8
72,248,69230,2,0,B|136:296|232:264,1,160,0|0
480,192,69769,5,10
256,32,70128,1,0
32,192,70487,1,10
256,352,70847,6,0,B|344:352,2,80,4|0|8
176,352,71385,2,0,B|80:344|72:248,1,160
184,136,71924,2,0,B|280:144|288:240,1,160,8|0
287,236,72463,2,0,B|288:320,2,80,0|8|2
352,192,73002,2,0,B|351:112,2,80,0|0|8
416,232,73541,1,0
352,280,73721,6,0,B|344:372|248:380,1,160,0|8
136,266,74260,2,0,B|143:173|239:165,1,160
318,165,74799,1,8
280,96,74978,2,0,B|120:96,1,160
120,96,75517,1,8
64,248,75876,5,0
37,94,76056,1,8
64,248,76236,1,8
189,148,76415,1,2
328,80,76595,6,0,B|416:72|464:152,1,160,4|8
376,288,77134,2,0,B|288:296|240:216,1,160
241,218,77673,1,8
240,136,77853,1,2
241,218,78032,6,0,B|194:295|106:287,1,160,0|8
20,148,78571,2,0,B|66:70|154:78,1,160
153,78,79110,1,8
234,78,79290,1,2
152,80,79469,6,0,B|101:152|146:233,1,160,0|8
309,225,80008,2,0,B|359:152|314:71,1,160
316,74,80547,1,8
316,74,80906,5,8
232,216,81086,1,0
152,80,81266,1,4
440,208,81625,5,0
144,328,81984,1,0
168,8,82344,1,4
168,8,82703,2,0,B|248:32|280:128,1,160,0|0
276,117,83242,1,0
416,200,83601,2,0,B|384:288|296:288,1,160,4|0
296,288,84050,5,0
296,288,84140,1,0
216,280,84320,1,0
208,272,84409,1,0
200,264,84499,1,0
168,192,84679,1,0
168,176,84769,1,0
168,160,84859,1,0
216,96,85038,1,0
224,88,85128,1,0
232,80,85217,1,4
392,112,85577,6,0,B|448:192|392:272,1,160
240,264,86116,2,0,B|190:194|246:114,1,160,0|4
256,192,86655,12,2,87912
