osu file format v9

[General]
AudioFilename: ICHIKO - I SAY YES.mp3
AudioLeadIn: 0
PreviewTime: 59212
Countdown: 0
SampleSet: Soft
StackLeniency: 0.7
Mode: 0
LetterboxInBreaks: 1

[Editor]
DistanceSpacing: 1
BeatDivisor: 4
GridSize: 8

[Metadata]
Title:I SAY YES (TV Size)
Artist:ICHIKO
Creator:Fight69
Version:Easy
Source:Zero no Tsukaima
Tags:Futatsuki no Kishi

[Difficulty]
HPDrainRate:2
CircleSize:3
OverallDifficulty:2
ApproachRate:3
SliderMultiplier:0.8
SliderTickRate:1

[Events]
//Background and Video events
0,0,"9sukjb.jpg"
Video,50,"Ichiko-I Say Yes.flv"
//Break Periods
//Storyboard Layer 0 (Background)
//Storyboard Layer 1 (Fail)
//Storyboard Layer 2 (Pass)
//Storyboard Layer 3 (Foreground)
//Storyboard Sound Samples
//Background Colour Transformations
3,100,163,162,255

[TimingPoints]
1865,359.281437125748,4,2,2,100,1,0
47773,-100,4,2,1,100,0,0
47952,-100,4,2,2,100,0,0
53521,-100,4,2,1,100,0,0
53701,-100,4,2,2,100,0,0
59350,-100,4,2,1,69,0,1
70773,-100,4,2,1,69,0,0
70863,-100,4,2,1,69,0,1
82344,-100,4,2,1,100,0,0
82433,-100,4,2,2,100,0,0

[Colours]
Combo1 : 255,150,0
Combo2 : 5,240,5
Combo3 : 255,128,192
Combo4 : 240,5,5

[HitObjects]
256,320,1865,2,0,B|136:344|104:224,2,200,4|0|0
328,280,4020,2,0,B|416:232|376:136,1,160,0|4
456,120,5098,2,0,B|392:32|272:80,1,200
168,216,6894,1,0
108,156,7254,1,0
96,72,7613,6,0,B|280:0|376:152,2,320,4|4|4
256,192,10847,12,4,13362
224,312,14619,6,0,B|456:360|464:128,1,360,4|4
312,72,16954,1,0
224,160,17493,2,0,B|48:160,2,160,4|0|0
264,160,19110,6,0,B|456:120|480:272,2,280,4|4|0
184,160,21984,2,0,B|8:160,1,160,4|0
88,264,23242,1,0
256,192,23421,12,4,24859
272,336,25577,6,0,B|400:352|536:192|384:24|256:56,1,480,0|4
184,192,28451,6,0,B|64:200|40:80,2,200
264,176,30607,1,4
344,40,31326,6,0,B|464:32|488:152,2,200
264,40,33481,2,0,B|104:40,1,160,4|0
256,192,34379,12,0,36356
344,288,37074,5,0
408,240,37433,1,0
416,160,37793,1,0
384,88,38152,1,0
312,64,38511,2,0,B|224:64|176:144,1,160,0|4
216,296,39948,6,0,B|296:296,1,80
296,215,40667,2,0,B|216:215,1,80
216,135,41385,2,0,B|384:136,1,160,0|4
375,296,42823,6,0,B|136:296,1,240
64,256,44260,1,0
112,192,44619,2,0,B|128:96|240:56|336:104,1,280
256,192,46236,12,0,47853
344,152,48930,5,8
280,96,49290,2,0,B|192:64|96:128|112:208,1,240,0|8
136,280,50727,6,0,B|376:280,1,240,0|8
376,199,52164,2,0,B|136:199,1,240,0|8
136,120,53601,6,0,B|48:120,2,80,4|8|0
208,80,54679,1,8
280,120,55038,2,0,B|360:120,2,80,0|8|0
208,160,56116,1,8
280,200,56475,2,0,B|328:272|432:264,1,160
392,144,57733,1,2
72,272,59350,6,0,B|240:272,1,160,4|0
311,272,60427,2,0,B|391:224|367:136,2,160,8|0|8
240,232,62224,2,0,B|104:232,2,120,0|0|8
296,176,63661,2,0,B|384:176,2,80,0|8|0
240,120,64739,1,8
296,64,65098,6,0,B|360:56|416:104,2,120,0|0|8
215,64,66535,2,0,B|151:56|95:104,2,120,0|0|8
256,128,67972,2,0,B|256:264,2,120,0|0|8
176,112,69409,6,2,B|104:152,1,80
106,231,70128,2,2,B|178:271,1,80
248,304,70847,6,0,B|400:312|424:176,1,240,4|8
352,144,72284,2,0,B|384:64,2,80,0|8|0
295,200,73362,1,8
238,256,73721,6,0,B|86:264|62:128,1,240,0|8
119,74,75158,2,0,B|271:66|295:202,1,240,0|8
376,200,76595,6,0,B|376:328,2,120,4|0|8
319,143,78032,2,0,B|319:23,2,120,0|0|8
262,199,79469,2,0,B|110:207|86:71,1,240,0|8
168,56,80906,2,0,B|256:56,1,80,0|8
328,64,81625,5,0
400,96,81984,1,0
440,168,82344,2,0,B|448:256|368:304,1,160,4|0
256,328,83601,2,0,B|134:258|174:114,1,240,4|0
280,72,85218,2,0,B|416:160|360:328,1,280,4|0
256,192,86655,12,2,87912
