osu file format v5

[General]
AudioFilename: ICHIKO - First Kiss.mp3
AudioLeadIn: 0
PreviewTime: -1
Countdown: 0
SampleSet: Normal
StackLeniency: 0.8
Mode: 0
LetterboxInBreaks: 1

[Editor]
DistanceSpacing: 1.10000002384186
BeatDivisor: 4
GridSize: 8

[Metadata]
Title:First Kiss
Artist:ICHIKO
Creator:quintitem
Version:Hard
Source:Zero no Tsukaima
Tags:Anime

[Difficulty]
HPDrainRate:7
CircleSize:5
OverallDifficulty:7
SliderMultiplier:1.4
SliderTickRate:0.5

[Events]
//Background and Video events
0,0,"Louis.jpg"
//Break Periods
2,86746,98146
2,163863,181224
//Storyboard Layer 0 (Background)
//Storyboard Layer 1 (Fail)
//Storyboard Layer 2 (Pass)
//Storyboard Layer 3 (Foreground)
//Storyboard Sound Samples
//Background Colour Transformations
3,100,163,162,255

[TimingPoints]
20971,384.615384615385,4,1,0,80,1,0
21932,-100,4,2,0,60,0,0
22317,-100,4,2,0,45,0,0
23663,-100,4,2,0,60,0,0
25394,-100,4,2,0,45,0,0
26740,-100,4,2,0,60,0,0
28471,-100,4,2,0,45,0,0
30201,-100,4,2,0,53,0,0
30586,-100,4,1,0,60,0,0
30971,-100,4,1,0,67,0,0
31355,-100,4,1,0,70,0,0
34624,-100,4,1,0,60,0,0
35971,-100,4,1,0,70,0,0
37701,-100,4,1,0,60,0,0
39047,-100,4,1,0,70,0,0
39817,-100,4,1,0,60,0,0
43663,-100,4,1,0,70,0,0
45682,-100,4,1,0,60,0,0
46740,-200,4,1,0,60,0,0
48855,-100,4,1,0,60,0,0
51163,-200,4,1,0,60,0,0
51740,-100,4,1,0,70,0,0
59047,-100,4,1,0,90,0,0
60009,-100,4,1,0,70,0,1
60057,-100,4,1,0,80,0,0
63182,-100,4,1,0,90,0,0
63374,-100,4,1,0,80,0,0
65778,-100,4,1,0,70,0,0
66355,-100,4,1,0,80,0,0
69336,-100,4,1,0,90,0,0
69528,-100,4,1,0,80,0,0
72028,-100,4,1,0,90,0,0
72797,-100,4,1,0,80,0,0
75490,-100,4,1,0,90,0,0
75682,-100,4,1,0,80,0,0
78086,-100,4,1,0,70,0,0
78663,-100,4,1,0,80,0,0
81355,-100,4,1,0,90,0,0
81644,-100,4,1,0,80,0,0
85682,-100,4,1,0,95,0,0
98663,-100,4,1,0,70,0,0
99240,-100,4,1,0,60,0,0
100586,-100,4,1,0,70,0,0
102317,-100,4,1,0,60,0,0
103663,-100,4,1,0,70,0,0
104432,-100,4,1,0,60,0,0
108278,-100,4,1,0,70,0,0
109817,-100,4,1,0,60,0,0
111355,-200,4,1,0,60,0,0
112317,-100,4,1,0,70,0,0
113278,-100,4,1,0,60,0,0
115778,-200,4,1,0,60,0,0
116355,-100,4,1,0,70,0,0
123663,-100,4,1,0,90,0,0
124625,-100,4,1,0,70,0,1
124673,-100,4,1,0,80,0,0
127797,-100,4,1,0,90,0,0
127990,-100,4,1,0,80,0,0
130394,-100,4,1,0,70,0,0
130922,-100,4,1,0,80,0,0
133951,-100,4,1,0,90,0,0
134144,-100,4,1,0,80,0,0
136644,-100,4,1,0,90,0,0
137413,-100,4,1,0,80,0,0
140105,-100,4,1,0,90,0,0
140297,-100,4,1,0,80,0,0
142701,-100,4,1,0,70,0,0
143278,-100,4,1,0,80,0,0
145971,-100,4,1,0,90,0,0
146259,-100,4,1,0,80,0,0
150297,-100,4,1,0,95,0,0
151259,-100,4,1,0,60,0,0
151547,-100,4,1,0,50,0,0
152221,-100,4,1,0,60,0,0
153086,-100,4,1,0,50,0,0
153759,-100,4,1,0,60,0,0
154624,-100,4,1,0,50,0,0
155297,-100,4,1,0,60,0,0
156163,-100,4,1,0,50,0,0
156932,-100,4,1,0,70,0,0
157317,-100,4,1,0,75,0,0
163567,-100,4,1,0,60,0,0
181740,-100,4,1,0,80,0,0
192701,-100,4,1,0,50,0,0
193086,-100,4,1,0,39,0,0
193374,-100,4,1,0,30,0,0
193663,-100,4,1,0,60,0,0
193855,-100,4,1,0,70,0,0
200394,-100,4,1,0,90,0,0
201740,-100,4,1,0,70,0,1
201788,-100,4,1,0,80,0,0
204721,-100,4,1,0,90,0,0
204913,-100,4,1,0,80,0,0
207317,-100,4,1,0,70,0,0
207894,-100,4,1,0,80,0,0
210874,-100,4,1,0,90,0,0
211067,-100,4,1,0,80,0,0
213663,-100,4,1,0,90,0,0
214336,-100,4,1,0,80,0,0
217028,-100,4,1,0,90,0,0
217221,-100,4,1,0,80,0,0
219624,-100,4,1,0,70,0,0
220201,-100,4,1,0,80,0,0
222894,-100,4,1,0,90,0,0
223182,-100,4,1,0,80,0,0
227124,-100,4,1,0,95,0,0

[Colours]
Combo1 : 226,192,122
Combo2 : 254,205,194
Combo3 : 103,98,166
Combo4 : 140,106,123

[HitObjects]
40,48,21740,5,0
152,48,22124,1,0
152,48,22509,5,2
104,80,22701,1,0
152,104,22894,1,2
104,136,23086,1,0
152,160,23278,1,2
104,192,23471,1,0
104,304,23855,1,0
216,304,24240,1,0
216,304,24432,1,2
328,304,24817,1,0
440,304,25201,1,0
416,192,25586,5,2
464,160,25778,1,0
416,136,25971,1,2
464,104,26163,1,0
416,80,26355,1,2
464,48,26547,1,0
352,48,26932,1,0
240,48,27317,1,0
240,48,27509,1,2
128,48,27894,1,0
128,160,28278,1,0
128,272,28663,5,2
160,320,28855,1,0
192,272,29047,1,2
224,320,29240,1,0
256,272,29432,1,2
288,320,29624,1,0
288,208,30009,1,0
288,96,30394,1,2
400,96,30778,1,0
400,208,31163,1,0
256,192,31355,12,0,33278
256,192,33663,5,0
312,208,33855,1,0
344,248,34047,1,0
312,288,34240,1,0
256,304,34432,1,4
144,304,34817,6,0,B|56:304,1,70
40,256,35201,2,0,B|40:184,1,70
40,186,35586,1,0
40,186,35778,1,0
40,72,36163,1,0
40,72,36355,2,0,B|128:72,1,70
168,72,36740,1,0
168,72,36932,2,0,B|168:144,1,70
168,200,37317,1,0
224,200,37509,1,4
336,200,37894,5,0
336,256,38086,2,0,B|336:336,1,70
336,326,38471,1,0
392,328,38663,2,0,B|464:328,1,70
464,216,39240,1,0
464,160,39432,1,0
464,104,39624,1,0
368,48,40009,5,0
368,48,40201,2,0,B|288:48,1,70
240,48,40586,1,0
184,48,40778,1,0
184,48,40971,2,0,B|88:48,1,70
56,48,41355,1,0
56,104,41547,1,0
104,136,41740,1,0
56,160,41932,1,0
104,192,42124,1,0
56,216,42317,2,0,B|16:288|64:360,2,140
56,216,43278,1,0
56,216,43470,1,0
152,272,43855,5,0
152,272,44047,1,0
152,272,44240,2,0,B|216:328,1,70
256,320,44624,2,0,B|312:272,1,70
309,274,45009,1,4
424,272,45394,5,0
424,216,45586,1,0
424,160,45778,2,0,B|352:120|280:168,1,140
232,160,46355,1,0
176,160,46547,1,0
120,160,46740,2,0,B|64:256|144:352,1,175
232,328,48086,2,0,B|304:368|376:320,1,140
472,328,49240,5,0
472,328,49432,1,0
472,328,49624,2,0,B|472:240,1,70
472,144,50201,1,0
472,144,50394,1,0
472,144,50586,2,0,B|384:144,1,70,0|0
344,144,50970,1,0
288,144,51163,2,0,B|216:104|168:168,1,105
80,144,52124,1,0
80,256,52509,1,4
192,256,52894,5,0
240,224,53086,1,0
192,200,53278,1,0
240,168,53470,1,0
240,168,53855,1,0
408,168,54432,1,0
360,200,54624,1,0
408,224,54817,1,0
360,256,55009,1,0
360,256,55394,1,0
440,328,55778,5,0
440,328,55970,1,0
328,328,56355,1,0
216,328,56740,1,0
104,328,57124,1,0
104,216,57509,1,0
104,104,57894,1,0
160,104,58086,1,0
216,104,58278,1,0
216,104,58663,1,4
312,240,59240,5,0
256,240,59432,1,0
200,144,59817,1,0
256,144,60009,1,0
392,40,60586,5,0
392,152,60970,1,0
392,264,61355,1,0
392,264,61547,2,0,B|336:320,1,70
288,312,61932,1,0
176,312,62317,1,0
120,312,62509,1,0
64,312,62701,1,0
64,200,63086,1,4
64,200,63278,1,0
64,200,63470,6,0,B|64:128,1,70
64,130,63855,1,0
64,72,64047,2,0,B|144:72,1,70
134,72,64432,1,0
192,72,64624,2,0,B|264:72,1,70
262,72,65009,1,0
376,72,65394,1,0
376,72,65586,1,0
376,184,65970,2,0,B|416:184,4,35,0|0|0|0|4
376,184,66547,6,0,B|376:232,2,35
264,184,67124,1,0
152,184,67509,1,0
40,184,67894,2,0,B|40:272,1,70
40,312,68278,2,0,B|128:312,1,70
168,312,68663,2,0,B|240:312,1,70,0|0
352,312,69240,1,4
352,312,69432,1,0
352,312,69624,6,0,B|440:312,1,70
480,312,70009,1,0
480,312,70201,2,0,B|480:232,1,70
480,128,70778,1,0
368,128,71163,2,0,B|368:56,2,70
368,128,71740,1,0
368,128,71932,1,0
368,184,72124,2,0,B|320:240,1,70
266,236,72509,2,0,B|210:172,1,70,4|0
160,184,72894,5,0
48,184,73278,1,0
48,72,73663,1,0
104,72,73855,1,0
160,72,74047,1,0
216,72,74240,1,0
328,72,74624,1,0
384,72,74817,1,0
440,72,75009,1,0
440,184,75394,1,4
440,240,75586,1,0
440,296,75778,6,0,B|360:296,1,70
312,296,76163,2,0,B|232:296,1,70
184,296,76547,2,0,B|112:296,1,70
56,296,76932,2,0,B|56:208,1,70
56,226,77317,1,0
56,112,77701,1,0
56,112,77894,1,0
168,112,78278,2,0,B|168:72,4,35,0|0|0|0|4
168,112,78855,5,0
168,112,78951,1,0
168,112,79047,1,0
280,112,79432,1,0
168,112,79817,1,0
280,112,80201,1,0
328,144,80394,1,0
280,168,80586,1,0
328,200,80778,1,0
280,224,80970,1,0
328,256,81163,1,0
440,264,81547,2,0,B|440:192,1,70,0|4
440,80,82124,5,0
384,80,82317,1,0
328,80,82509,1,0
272,80,82701,1,0
160,80,83086,1,0
48,80,83470,1,0
48,80,83663,2,0,B|8:152|56:224,5,140,0|0|0|0|4|0
104,232,85778,5,0
152,256,85970,1,0
200,280,86163,1,0
248,304,86355,1,0
296,328,86547,1,4
256,32,99047,5,4
392,32,99432,6,0,B|448:104,1,70
448,152,99817,2,0,B|408:216,1,70
408,280,100201,2,0,B|320:312,1,70
200,304,100778,1,0
200,304,100970,2,0,B|136:264,1,70
80,232,101355,1,0
80,232,101547,2,0,B|80:160,1,70
80,88,101932,1,0
152,88,102124,1,4
304,88,102509,5,0
376,88,102701,1,0
448,88,102894,1,0
448,160,103086,1,0
376,160,103278,1,0
304,160,103470,1,0
304,296,103855,1,0
376,296,104047,1,0
448,296,104240,1,0
304,296,104624,5,0
232,296,104817,2,0,B|152:296,1,70
88,296,105201,1,0
88,224,105394,2,0,B|88:128,1,70
88,80,105778,1,0
160,80,105970,2,0,B|216:32,1,70
280,32,106355,2,0,B|328:88,1,70
392,80,106740,2,0,B|472:120,1,70
448,248,107317,1,0
336,328,107701,2,0,B|264:280,2,70
192,328,108470,5,0
120,328,108663,1,0
88,264,108855,1,0
120,200,109047,1,0
192,200,109240,1,0
224,264,109432,1,0
156,264,109624,1,4
160,120,110009,5,0
160,48,110201,1,0
232,48,110394,2,0,B|304:8|376:56,1,140
416,96,110970,1,0
448,160,111163,1,0
416,224,111355,2,0,B|320:280|224:200,1,175,0|0
110,219,112701,1,0
360,344,113470,5,0
216,344,113855,2,0,B|176:272,1,70
112,288,114240,1,0
72,232,114432,1,0
40,96,114817,2,0,B|120:40,1,70,0|0
168,56,115201,2,0,B|248:104,1,70,0|0
296,88,115586,1,0
296,88,115778,2,0,B|368:48|416:112,1,105,0|0
392,232,116740,1,0
256,192,117124,1,4
152,288,117509,6,0,B|112:224,2,70
152,288,118086,1,0
152,288,118470,1,0
360,288,119047,6,0,B|400:224,2,70
360,288,119624,1,0
360,288,120009,1,0
464,192,120394,5,0
416,136,120586,1,0
352,96,120778,1,0
288,64,120970,2,0,B|216:24|144:72,4,140
288,64,122701,1,0
288,64,122894,1,0
288,200,123278,1,4
440,336,123855,5,0
440,336,124047,1,0
72,48,124432,1,0
72,48,124624,1,0
280,48,125201,5,0
416,48,125586,1,0
416,184,125970,1,0
416,256,126163,2,0,B|416:328,2,70
272,256,126932,1,0
272,256,127124,1,0
272,256,127317,1,0
128,256,127701,1,4
56,256,127894,1,0
56,184,128086,6,0,B|24:112,1,70
40,48,128470,1,0
40,48,128663,2,0,B|120:24,1,70
176,32,129047,1,0
176,32,129240,2,0,B|264:64,1,70
312,40,129624,2,0,B|360:104,1,70
354,95,130009,1,0
354,95,130201,1,0
352,232,130586,1,0
352,232,130682,1,0
352,232,130778,1,0
352,232,130874,1,0
352,232,130970,1,4
352,232,131163,6,0,B|400:232,2,35
224,176,131740,1,0
88,152,132124,1,0
32,280,132509,2,0,B|80:352,1,70
144,336,132894,2,0,B|200:264,1,70
256,280,133278,2,0,B|296:352,1,70
432,336,133855,1,4
432,264,134047,1,0
432,192,134240,6,0,B|432:104,1,70
431,122,134624,1,0
432,56,134817,2,0,B|352:56,1,70
224,56,135394,1,0
232,192,135778,1,0
176,232,135970,1,0
200,296,136163,1,0
272,296,136355,1,0
288,232,136547,1,0
232,168,136740,1,0
144,224,136932,1,0
184,320,137124,1,4
288,320,137317,1,0
320,224,137509,5,0
456,224,137894,1,0
416,88,138278,2,0,B|352:32,1,70,0|0
294,40,138663,2,0,B|230:88,1,70
104,80,139240,2,0,B|32:40,2,70
104,80,140009,1,4
104,80,140201,1,0
104,152,140394,5,0
104,152,140586,2,0,B|56:232,1,70
67,212,140970,1,0
56,280,141163,2,0,B|104:344,1,70
98,336,141547,1,0
168,336,141740,2,0,B|240:336,1,70
237,338,142317,1,0
237,337,142509,1,0
328,232,142894,2,0,B|288:208,4,35,0|0|0|0|4
328,232,143470,5,0
328,232,143567,1,0
328,232,143663,2,0,B|400:272,1,70
432,208,144047,2,0,B|464:136,1,70
408,96,144432,2,0,B|344:48,1,70
280,40,144817,2,0,B|216:88,1,70
224,81,145201,1,0
160,56,145394,2,0,B|88:104,1,70
101,94,145778,1,0
101,94,146163,1,0
101,94,146355,1,4
32,216,146740,6,0,B|72:280,1,70
136,272,147124,2,0,B|208:240,1,70
328,296,147701,1,0
464,296,148086,1,0
464,224,148278,2,0,B|504:152|456:80,1,140
400,56,148855,1,0
336,32,149047,2,0,B|264:-8|192:40,1,140
136,56,149624,1,0
80,104,149817,2,0,B|40:176|88:248,1,140,4|0
136,192,150394,5,0
256,312,150586,1,0
376,192,150778,1,0
256,72,150970,1,0
256,192,151163,1,4
256,192,151355,5,0
360,288,151740,1,8
360,288,151932,1,8
152,288,152509,1,0
256,192,152894,1,0
152,96,153278,1,8
152,96,153470,1,8
360,96,154047,1,0
256,192,154432,5,0
360,288,154817,1,8
360,288,155009,1,8
152,288,155586,1,0
256,192,155970,1,0
256,192,156355,1,8
256,192,156547,1,8
256,192,157124,1,4
392,192,157509,6,0,B|456:136,1,70
400,88,157894,2,0,B|336:32,1,70
280,40,158278,2,0,B|192:64,1,70
144,64,158663,2,0,B|72:32,1,70
40,96,159047,2,0,B|64:176,1,70
72,232,159432,2,0,B|40:320,1,70
112,320,159817,2,0,B|192:360,1,70
240,352,160201,2,0,B|320:312,1,70
256,192,160586,12,4,163663
176,120,182124,5,0
176,120,182317,1,0
312,120,182701,1,0
312,120,182894,1,0
456,120,183278,6,0,B|488:192,1,70
472,256,183663,2,0,B|448:328,1,70
384,336,184047,2,0,B|296:280,1,70
256,304,184432,2,0,B|192:344,1,70
128,312,184817,2,0,B|64:256,1,70,0|0
256,192,185201,12,4,187894
256,104,188278,5,0
256,280,189240,5,0
256,280,189624,1,0
112,96,191355,5,0
392,96,192124,1,0
256,344,192894,2,0,B|256:304,8,35
256,192,194047,1,4
112,192,194432,6,0,B|112:280,3,70
112,262,195394,1,0
400,192,195970,2,0,B|400:104,3,70
400,122,196932,1,0
256,192,197124,12,4,200201
256,32,200586,5,0
32,192,200970,1,0
256,360,201355,1,0
480,192,201740,1,0
336,192,202124,6,0,B|376:120|328:48,2,140
336,192,203086,1,0
336,328,203470,1,0
192,328,203855,2,0,B|192:240,2,70
192,328,204624,1,4
192,328,204817,1,0
120,328,205009,5,0
72,272,205201,1,0
64,200,205394,1,0
88,136,205586,1,0
128,80,205778,1,0
192,48,205970,1,0
256,32,206163,1,0
328,24,206355,1,0
400,24,206547,1,0
400,160,206932,1,0
400,160,207124,1,0
400,296,207509,2,0,B|440:296,4,35,0|0|0|0|4
328,296,208086,6,0,B|328:344,2,35
328,160,208663,1,0
184,160,209047,1,0
40,160,209432,1,0
40,160,209624,2,0,B|80:248,1,70
64,296,210009,1,0
64,296,210201,2,0,B|128:336,1,70
123,333,210778,1,4
123,333,210970,1,0
192,336,211163,5,0
192,336,211355,2,0,B|280:336,1,70
328,328,211740,2,0,B|392:272,1,70
488,192,212317,1,0
392,88,212701,2,0,B|456:48,2,70
320,72,213278,2,0,B|240:32,2,70
304,144,213855,2,0,B|264:216,2,70,0|4|0
304,144,214432,5,0
160,144,214817,1,0
64,248,215201,1,0
64,248,215394,1,0
64,248,215586,1,0
64,248,215778,2,0,B|136:288|208:240,1,140
197,246,216355,1,0
197,246,216547,1,0
336,248,216932,1,4
408,248,217124,1,0
408,176,217317,6,0,B|464:120,1,70
408,72,217701,1,0
344,48,217894,1,0
272,32,218086,2,0,B|200:80,1,70
144,48,218470,1,0
88,88,218663,1,0
48,144,218855,2,0,B|8:216|56:288,1,140
50,277,219432,1,0
192,280,219817,2,0,B|192:240,4,35,0|0|0|0|4
264,280,220394,6,0,B|264:320,2,35,0|0|0
400,280,220970,1,0
400,280,221355,1,0
432,144,221740,2,0,B|496:192,2,70
384,88,222317,2,0,B|448:32,2,70
384,88,223086,1,0
384,88,223278,1,4
240,88,223663,5,0
240,88,223855,1,0
240,88,224047,1,0
240,88,224240,2,0,B|168:48|96:96,2,140
256,192,225201,12,0,226932
256,192,227317,5,0
256,192,227509,1,0
256,192,227701,1,0
256,192,227894,1,0
256,192,228086,1,4
