osu file format v14

[General]
AudioFilename: ICE - L.mp3
AudioLeadIn: 0
PreviewTime: 181053
Countdown: 0
SampleSet: Soft
StackLeniency: 0.3
Mode: 0
LetterboxInBreaks: 0
SkinPreference:Default
WidescreenStoryboard: 1

[Editor]
Bookmarks: 13432,106723,123271,131497,156271,230594,255368,280142,304916,329691,354465,359884,360658,385432
DistanceSpacing: 0.8
BeatDivisor: 6
GridSize: 4
TimelineZoom: 2.400001

[Metadata]
Title:L
TitleUnicode:L
Artist:ICE
ArtistUnicode:ICE
Creator:Scorpiour
Version:Antares
Source:
Tags:Triumphal Return of Prismatic Music Cytus Album Version Renaissance Prayer
BeatmapID:395482
BeatmapSetID:162060

[Difficulty]
HPDrainRate:5
CircleSize:5.5
OverallDifficulty:7
ApproachRate:9.3
SliderMultiplier:1.6
SliderTickRate:1

[Events]
//Background and Video events
0,0,"bg.jpg",0,0
//Break Periods
2,20268,31901
2,74520,76417
2,359110,360159
//Storyboard Layer 0 (Background)
//Storyboard Layer 1 (Fail)
//Storyboard Layer 2 (Pass)
//Storyboard Layer 3 (Foreground)
//Storyboard Sound Samples

[TimingPoints]
1488,387.096774193548,4,2,1,10,1,0
1488,-200,4,2,1,10,0,0
2842,-125,4,2,1,10,0,0
3423,-142.857142857143,4,2,1,8,0,0
3810,-166.666666666667,4,2,1,6,0,0
4197,-200,4,2,1,5,0,0
4584,-200,4,2,1,10,0,0
6907,-142.857142857143,4,2,1,10,0,0
13875,-100,4,2,1,10,0,0
32455,-100,4,2,1,30,0,0
44842,-83.3333333333333,4,2,1,32,0,0
82778,-83.3333333333333,4,2,1,30,0,0
131552,-200,4,2,1,25,0,0
156326,-100,4,2,1,25,0,0
171810,-80,4,2,1,25,0,0
181100,-80,4,2,1,40,0,1
230649,-90.9090909090909,4,2,1,25,0,0
233746,-100,4,2,1,25,0,0
253875,-100,4,2,1,15,0,0
255423,-100,4,2,1,40,0,1
255471,-100,4,2,1,25,0,0
270907,-66.6666666666667,4,2,1,25,0,0
272455,-100,4,2,1,25,0,0
280197,-80,4,2,1,40,0,1
329746,-166.666666666667,4,2,1,25,0,0
330713,-100,4,2,1,25,0,0
351423,-83.3333333333333,4,2,1,25,0,0
360713,-300,4,2,1,12,0,0
373100,-200,4,2,1,12,0,0
383552,-200,4,2,1,5,0,0
383939,-200,4,2,1,12,0,0
385100,-200,4,2,1,5,0,0
385487,-166.666666666667,4,2,1,12,0,0
385487,-166.666666666667,4,2,1,6,0,0
405617,-166.666666666667,4,2,1,9,0,0
406391,-166.666666666667,4,2,1,6,0,0
407165,-166.666666666667,4,2,1,5,0,0

[Colours]
Combo1 : 240,0,0
Combo2 : 239,255,223
Combo3 : 223,255,255
Combo4 : 239,223,255
Combo5 : 255,223,223
Combo6 : 255,204,0
SliderBorder : 255,255,255

[HitObjects]
77,164,1488,6,0,B|116:112|189:133,1,120,2|0,0:0|0:0,0:0:0:0:
420,280,2842,1,2,0:0:0:0:
408,288,2939,1,2,0:0:0:0:
396,296,3036,2,0,L|290:263,1,96,2|0,0:0|0:0,0:0:0:0:
304,202,3423,2,0,L|212:213,1,83.9999974365235,2|0,0:0|0:0,0:0:0:0:
188,155,3810,2,0,L|121:197,1,71.9999978027344,2|0,0:0|0:0,0:0:0:0:
62,173,4197,2,0,L|30:234,1,60,2|0,0:0|0:0,0:0:0:0:
94,112,4584,1,2,0:0:0:0:
379,39,5552,1,2,0:0:0:0:
427,103,5746,1,2,0:0:0:0:
377,165,5939,1,2,0:0:0:0:
300,140,6133,2,0,P|227:119|155:131,1,140,2|0,0:0|0:0,0:0:0:0:
95,174,6907,2,0,P|139:199|212:194,1,111.999996582031,2|0,0:0|0:0,0:0:0:0:
269,331,7681,6,0,P|327:310|352:257,1,111.999996582031,2|0,0:0|0:0,0:0:0:0:
370,196,8262,2,0,P|373:135|416:90,1,111.999996582031,2|0,0:0|0:0,0:0:0:0:
471,62,8842,1,2,0:0:0:0:
406,260,9229,2,0,P|352:266|296:216,1,111.999996582031,2|0,0:0|0:0,0:0:0:0:
275,165,9810,2,0,P|232:133|163:139,1,111.999996582031,2|0,0:0|0:0,0:0:0:0:
108,100,10391,1,2,0:0:0:0:
91,100,10778,1,2,0:0:0:0:
206,198,11358,1,2,0:0:0:0:
231,177,11552,2,0,B|270:139|274:74|274:74|323:187|240:275|240:275|272:287|272:287|330:307|384:280|384:280|421:259|460:276,1,559.999982910157,2|0,0:0|0:0,0:0:0:0:
404,333,13875,5,2,0:0:0:0:
382,343,13971,1,0,0:0:0:0:
359,350,14068,1,0,0:0:0:0:
335,352,14165,1,0,0:0:0:0:
311,350,14262,1,0,0:0:0:0:
288,341,14358,1,0,0:0:0:0:
269,325,14455,1,0,0:0:0:0:
256,304,14552,1,0,0:0:0:0:
250,280,14649,5,0,0:0:0:0:
223,288,14746,1,0,0:0:0:0:
196,294,14842,1,0,0:0:0:0:
167,293,14939,1,0,0:0:0:0:
139,286,15036,1,0,0:0:0:0:
115,270,15133,1,0,0:0:0:0:
96,249,15229,1,0,0:0:0:0:
85,222,15326,1,0,0:0:0:0:
90,194,15423,37,0,0:0:0:0:
65,167,15520,1,0,0:0:0:0:
50,133,15617,1,0,0:0:0:0:
53,97,15713,1,0,0:0:0:0:
65,63,15810,1,0,0:0:0:0:
86,34,15907,1,0,0:0:0:0:
119,20,16004,1,0,0:0:0:0:
154,16,16100,1,0,0:0:0:0:
177,43,16197,5,0,0:0:0:0:
189,85,16294,1,0,0:0:0:0:
219,116,16391,1,0,0:0:0:0:
258,133,16487,1,0,0:0:0:0:
301,139,16584,1,0,0:0:0:0:
344,131,16681,1,0,0:0:0:0:
383,110,16778,1,0,0:0:0:0:
407,73,16875,1,0,0:0:0:0:
449,88,16971,5,4,3:0:0:0:
256,192,19197,12,4,20068,0:0:0:0:
363,134,32455,5,12,0:0:0:0:
393,226,32649,1,0,0:0:0:0:
301,255,32842,1,8,0:0:0:0:
301,255,32939,1,0,3:0:0:0:
272,164,33133,1,0,3:0:0:0:
272,164,33229,1,8,0:0:0:0:
363,134,33423,1,0,3:0:0:0:
372,131,33520,1,0,3:0:0:0:
381,129,33617,2,0,L|468:136,1,80,8|0,0:0|3:0,0:0:0:0:
280,263,34004,38,0,L|193:256,1,80,8|0,0:0|3:0,0:0:0:0:
186,264,34294,1,0,0:0:0:0:
171,271,34391,2,0,L|72:262,1,80,8|0,0:0|3:0,0:0:0:0:
21,150,34778,1,8,0:0:0:0:
24,149,34875,1,0,0:0:0:0:
27,148,34971,1,0,0:0:0:0:
30,147,35068,1,0,0:0:0:0:
33,146,35165,1,8,0:0:0:0:
36,145,35262,1,0,0:0:0:0:
39,144,35358,1,0,0:0:0:0:
42,143,35455,1,0,0:0:0:0:
45,142,35552,6,0,L|133:155,1,80,8|0,0:0|0:0,0:0:0:0:
326,156,35939,2,0,L|238:143,1,80,8|0,0:0|0:0,0:0:0:0:
179,289,36326,1,8,0:0:0:0:
179,289,36423,1,0,0:0:0:0:
181,87,36616,1,0,0:0:0:0:
181,87,36713,1,8,0:0:0:0:
179,186,36907,1,0,0:0:0:0:
179,193,37004,1,0,0:0:0:0:
179,200,37100,5,8,0:0:0:0:
269,232,37294,1,0,0:0:0:0:
326,156,37487,1,8,0:0:0:0:
414,194,37681,1,0,0:0:0:0:
425,198,37778,1,0,0:0:0:0:
436,202,37875,2,0,L|483:191,3,40,8|0|0|0,0:0|0:0|0:0|0:0,0:0:0:0:
434,122,38262,2,0,L|485:109,3,40,8|0|8|0,0:0|0:0|0:0|0:0,0:0:0:0:
362,84,38649,5,8,0:0:0:0:
180,114,38842,1,0,0:0:0:0:
272,232,39036,1,8,0:0:0:0:
272,99,39229,1,0,0:0:0:0:
272,86,39326,1,0,0:0:0:0:
272,73,39423,2,0,L|194:51,1,80,8|0,0:0|0:0,0:0:0:0:
40,100,39810,2,0,L|117:121,1,80,8|0,0:0|0:0,0:0:0:0:
126,273,40197,37,8,0:0:0:0:
272,232,40391,1,0,0:0:0:0:
283,229,40487,1,0,0:0:0:0:
294,226,40584,1,8,0:0:0:0:
305,223,40681,1,0,0:0:0:0:
316,220,40778,1,0,0:0:0:0:
327,217,40875,1,0,0:0:0:0:
338,214,40971,1,8,0:0:0:0:
188,190,41165,1,0,0:0:0:0:
199,187,41261,1,0,0:0:0:0:
210,184,41358,1,8,0:0:0:0:
221,181,41455,1,0,0:0:0:0:
232,178,41552,1,0,0:0:0:0:
243,175,41649,1,0,0:0:0:0:
254,171,41746,6,0,P|262:133|257:93,2,80,8|0|8,0:0|0:0|0:0,0:0:0:0:
365,97,42326,1,0,0:0:0:0:
353,100,42423,1,0,0:0:0:0:
341,104,42520,2,0,P|332:65|337:25,2,80,8|0|8,0:0|0:0|0:0,0:0:0:0:
460,200,43100,2,0,L|463:151,1,40
353,311,43391,1,0,0:0:0:0:
353,311,43487,6,0,L|303:308,1,40
217,273,43681,2,0,L|257:276,1,40,0|0,0:0|0:0,0:0:0:0:
158,243,43875,2,0,L|108:240,1,40,0|0,0:0|0:0,0:0:0:0:
29,199,44068,2,0,L|69:202,1,40,0|0,0:0|0:0,0:0:0:0:
109,201,44262,1,0,0:0:0:0:
132,199,44358,1,0,0:0:0:0:
155,194,44455,1,4,0:0:0:0:
177,186,44552,1,0,0:0:0:0:
196,172,44649,1,8,0:0:0:0:
213,155,44746,1,0,0:0:0:0:
225,134,44842,6,4,P|288:166|358:156,1,143.999995605469,12|0,0:0|0:0,0:0:0:0:
415,120,45229,1,8,0:3:0:0:
274,232,45423,1,0,0:0:0:0:
125,127,45617,2,0,P|58:123|11:59,1,143.999995605469,8|0,0:0|0:0,0:0:0:0:
139,58,46004,2,0,P|179:82|194:126,1,95.9999970703126,8|0,0:3|0:0,0:0:0:0:
130,267,46391,37,8,0:0:0:0:
301,85,46584,1,0,0:0:0:0:
210,269,46778,1,8,0:3:0:0:
369,126,46971,1,0,0:0:0:0:
289,268,47165,1,8,0:0:0:0:
437,166,47358,1,0,0:0:0:0:
365,266,47552,1,8,0:3:0:0:
504,212,47746,1,0,0:0:0:0:
504,212,47939,5,8,0:0:0:0:
483,191,48036,1,0,0:0:0:0:
462,170,48133,1,0,0:0:0:0:
450,143,48229,1,0,0:0:0:0:
444,114,48326,1,8,0:3:0:0:
441,85,48423,1,0,0:0:0:0:
446,56,48520,1,0,0:0:0:0:
459,30,48617,1,0,0:0:0:0:
436,48,48713,5,8,0:0:0:0:
418,70,48810,1,0,0:0:0:0:
394,86,48907,1,0,0:0:0:0:
366,96,49004,1,0,0:0:0:0:
337,95,49100,1,8,0:3:0:0:
310,83,49197,1,0,0:0:0:0:
287,64,49294,1,0,0:0:0:0:
272,39,49391,1,0,0:0:0:0:
271,67,49487,5,8,0:0:0:0:
262,94,49584,1,0,0:0:0:0:
243,116,49681,1,0,0:0:0:0:
217,129,49778,1,0,0:0:0:0:
189,136,49875,1,8,0:3:0:0:
160,131,49971,1,0,0:0:0:0:
134,118,50068,1,0,0:0:0:0:
115,96,50165,1,0,0:0:0:0:
119,124,50262,37,8,0:0:0:0:
126,151,50358,1,0,0:0:0:0:
126,179,50455,1,0,0:0:0:0:
122,207,50552,1,0,0:0:0:0:
108,232,50649,1,8,0:3:0:0:
89,254,50746,1,0,0:0:0:0:
65,270,50842,1,8,0:0:0:0:
37,278,50939,1,0,0:0:0:0:
8,279,51036,6,0,P|54:331|124:336,1,143.999995605469,8|0,0:0|0:0,0:0:0:0:
190,319,51423,1,8,0:3:0:0:
289,226,51617,1,0,0:0:0:0:
420,263,51810,2,0,L|469:271,1,47.9999985351563,8|0,0:0|0:0,0:0:0:0:
340,102,52100,2,0,L|291:94,1,47.9999985351563,0|8,0:0|0:3,0:0:0:0:
380,185,52391,1,0,0:0:0:0:
383,193,52487,1,0,0:0:0:0:
387,201,52584,5,8,0:0:0:0:
250,288,52778,1,0,0:0:0:0:
146,160,52971,1,8,0:3:0:0:
262,174,53165,1,0,0:0:0:0:
266,182,53262,1,0,0:0:0:0:
270,190,53358,1,8,0:0:0:0:
132,277,53552,1,0,0:0:0:0:
28,149,53746,2,0,L|40:100,3,47.9999985351563,8|0|0|0,0:3|0:0|0:0|0:0,0:0:0:0:
100,64,54133,5,8,0:0:0:0:
106,78,54229,1,0,0:0:0:0:
111,91,54326,1,0,0:0:0:0:
116,104,54423,1,0,0:0:0:0:
122,117,54520,1,8,0:3:0:0:
128,130,54617,1,0,0:0:0:0:
133,142,54713,1,0,0:0:0:0:
139,155,54810,1,0,0:0:0:0:
145,168,54907,37,8,0:0:0:0:
174,151,55004,1,0,0:0:0:0:
205,139,55100,1,0,0:0:0:0:
238,133,55197,1,0,0:0:0:0:
271,133,55294,1,8,0:3:0:0:
304,136,55391,1,0,0:0:0:0:
336,143,55487,1,0,0:0:0:0:
367,156,55584,1,0,0:0:0:0:
395,174,55681,5,8,0:0:0:0:
388,186,55778,1,0,0:0:0:0:
381,198,55875,1,0,0:0:0:0:
374,210,55971,1,0,0:0:0:0:
367,222,56068,1,8,0:3:0:0:
360,235,56165,1,0,0:0:0:0:
353,248,56262,1,0,0:0:0:0:
347,260,56358,1,0,0:0:0:0:
341,273,56455,5,8,0:0:0:0:
359,300,56552,1,0,0:0:0:0:
389,314,56649,1,8,0:0:0:0:
422,314,56746,1,0,0:0:0:0:
452,300,56842,1,8,0:3:0:0:
475,276,56939,1,0,0:0:0:0:
490,246,57036,1,8,0:0:0:0:
498,213,57133,1,0,0:0:0:0:
492,179,57229,6,0,P|423:171|380:115,1,143.999995605469,12|0,0:0|0:0,0:0:0:0:
496,27,57617,2,0,P|489:74|458:109,1,95.9999970703126,8|0,0:3|0:0,0:0:0:0:
329,178,58004,1,8,0:0:0:0:
220,91,58197,1,0,0:0:0:0:
220,81,58294,1,0,0:0:0:0:
221,71,58391,1,8,0:3:0:0:
86,131,58584,1,0,0:0:0:0:
47,267,58778,38,0,L|105:284,3,47.9999985351563,8|0|0|0,0:0|0:0|0:0|0:0,0:0:0:0:
123,256,59165,1,8,0:3:0:0:
153,232,59262,1,0,0:0:0:0:
183,208,59358,1,0,0:0:0:0:
213,184,59455,1,0,0:0:0:0:
243,161,59552,2,0,L|299:181,3,47.9999985351563,8|0|0|0,0:0|0:0|0:0|0:0,0:0:0:0:
321,158,59939,1,8,0:3:0:0:
351,134,60036,1,0,0:0:0:0:
381,110,60132,1,0,0:0:0:0:
411,86,60229,1,0,0:0:0:0:
436,64,60326,5,8,0:0:0:0:
467,204,60520,1,0,0:0:0:0:
358,297,60713,1,8,0:3:0:0:
222,247,60907,1,0,0:0:0:0:
209,240,61004,1,0,0:0:0:0:
196,233,61100,2,0,L|92:242,2,95.9999970703126,8|0|8,0:0|0:0|0:3,0:0:0:0:
309,135,61681,2,0,L|356:131,1,47.9999985351563
253,181,61875,5,8,0:0:0:0:
233,179,61971,1,0,0:0:0:0:
213,177,62068,1,0,0:0:0:0:
193,176,62165,1,0,0:0:0:0:
173,175,62262,2,0,L|118:192,3,47.9999985351563,8|0|0|0,0:3|0:0|0:0|0:0,0:0:0:0:
48,158,62649,1,8,0:0:0:0:
65,150,62746,1,0,0:0:0:0:
82,143,62842,1,0,0:0:0:0:
99,136,62939,1,0,0:0:0:0:
116,128,63036,2,0,L|138:84,3,47.9999985351563,8|0|0|0,0:3|0:0|0:0|0:0,0:0:0:0:
181,27,63423,6,0,P|236:71|308:65,1,143.999995605469,12|0,0:0|0:0,0:0:0:0:
416,46,63810,2,0,P|414:93|390:134,1,95.9999970703126,8|0,0:3|0:0,0:0:0:0:
291,240,64197,1,8,0:0:0:0:
153,202,64391,1,0,0:0:0:0:
140,194,64487,1,0,0:0:0:0:
127,186,64584,2,0,L|33:202,1,95.9999970703126,8|8,0:3|0:0,0:0:0:0:
61,353,64971,38,0,L|155:337,1,95.9999970703126,12|0,0:0|0:0,0:0:0:0:
349,313,65358,1,8,0:3:0:0:
334,310,65455,1,0,0:0:0:0:
319,308,65552,1,0,0:0:0:0:
304,306,65649,1,0,0:0:0:0:
289,304,65746,2,0,L|385:285,1,95.9999970703126,8|8,0:0|0:0,0:0:0:0:
237,233,66133,1,8,0:3:0:0:
222,230,66230,1,0,0:0:0:0:
207,228,66327,1,8,0:0:0:0:
192,226,66424,1,0,0:0:0:0:
178,222,66520,6,0,P|247:211|292:156,1,143.999995605469,12|0,0:0|0:0,0:0:0:0:
159,84,66907,2,0,P|175:128|215:152,1,95.9999970703126,8|0,0:3|0:0,0:0:0:0:
391,135,67294,2,0,P|374:90|334:66,1,95.9999970703126,8|0,0:0|0:0,0:0:0:0:
311,199,67681,1,8,0:3:0:0:
299,225,67778,1,0,0:0:0:0:
288,251,67875,1,8,0:0:0:0:
277,277,67971,1,0,0:0:0:0:
266,303,68068,6,0,L|203:320,3,47.9999985351563,8|0|8|0,0:0|0:0|0:0|0:0,0:0:0:0:
378,262,68455,2,0,L|441:245,3,47.9999985351563,8|0|8|0,0:3|0:0|0:0|0:0,0:0:0:0:
299,225,68842,1,8,0:0:0:0:
285,229,68939,1,0,0:0:0:0:
271,233,69036,1,8,0:0:0:0:
257,237,69133,1,0,0:0:0:0:
243,241,69229,1,8,0:3:0:0:
229,246,69326,1,0,0:0:0:0:
215,251,69423,1,8,0:0:0:0:
201,256,69520,1,0,0:0:0:0:
187,261,69617,1,12,0:0:0:0:
256,192,76971,12,4,82004,0:0:0:0:
118,250,82907,21,2,0:0:0:0:
113,258,82971,1,2,0:0:0:0:
109,267,83036,22,0,P|153:282|213:265,1,95.9999970703126,2|0,0:0|0:0,0:0:0:0:
446,175,83552,2,0,P|400:167|354:180,1,95.9999970703126,2|0,0:0|0:0,0:0:0:0:
210,107,84326,2,0,P|193:183|173:73,1,335.999989746094,2|0,0:0|0:0,0:0:0:0:
152,134,85100,5,2,0:0:0:0:
256,294,85391,1,0,0:0:0:0:
256,304,85487,1,0,0:0:0:0:
344,123,85681,1,0,0:0:0:0:
344,133,85778,1,0,0:0:0:0:
253,192,85971,1,0,0:0:0:0:
253,202,86068,1,0,0:0:0:0:
253,212,86165,1,0,0:0:0:0:
253,222,86262,2,0,P|216:250|153:245,1,95.9999970703126,2|0,0:0|0:0,0:0:0:0:
299,27,86649,6,0,L|354:37,2,47.9999985351563,2|0|0,0:0|0:0|0:0,0:0:0:0:
112,69,87036,2,0,L|57:59,2,47.9999985351563,2|0|0,0:0|0:0|0:0,0:0:0:0:
253,185,87423,2,0,L|308:195,2,47.9999985351563,2|0|0,0:0|0:0|0:0,0:0:0:0:
66,227,87810,2,0,L|11:217,2,47.9999985351563,2|0|0,0:0|0:0|0:0,0:0:0:0:
206,341,88197,6,0,B|254:330|254:330|286:339|286:339|363:323,1,143.999995605469,6|0,0:0|0:0,0:0:0:0:
420,342,88584,2,0,B|490:332|490:332|467:296,1,95.9999970703126,0|0,0:0|0:0,0:0:0:0:
354,255,88971,2,0,P|326:207|333:117,1,143.999995605469,0|0,0:0|0:0,0:0:0:0:
473,139,89358,2,0,P|438:171|392:178,1,95.9999970703126,2|0,0:0|0:0,0:0:0:0:
253,54,89746,37,2,0:0:0:0:
253,54,89939,1,0,0:0:0:0:
82,136,90133,1,2,0:0:0:0:
82,136,90326,1,0,0:0:0:0:
195,154,90520,1,2,0:0:0:0:
139,36,90713,1,0,0:0:0:0:
220,165,90907,1,2,0:0:0:0:
119,26,91100,1,0,0:0:0:0:
245,178,91294,6,0,P|306:188|379:141,1,143.999995605469,2|0,0:0|0:0,0:0:0:0:
390,79,91681,1,0,0:0:0:0:
146,102,91875,2,0,P|126:167|172:219,1,143.999995605469,2|0,0:0|0:0,0:0:0:0:
237,252,92262,1,0,0:0:0:0:
375,195,92455,2,0,P|420:181|468:181,1,95.9999970703126,2|0,0:0|0:0,0:0:0:0:
354,317,92842,6,0,L|290:337,2,47.9999985351563,2|0|0,0:0|0:0|0:0,0:0:0:0:
129,245,93229,2,0,L|50:239,2,47.9999985351563,2|0|0,0:0|0:0|0:0,0:0:0:0:
272,142,93617,2,0,L|330:145,2,47.9999985351563,2|0|0,0:0|0:0|0:0,0:0:0:0:
227,324,94004,2,0,L|157:336,2,47.9999985351563,2|0|8,0:0|0:0|0:0,0:0:0:0:
370,244,94391,6,0,B|419:255|419:255|471:238|469:183,1,143.999995605469,14|0,0:0|0:0,0:0:0:0:
428,78,94778,2,0,P|387:53|339:52,1,95.9999970703126,0|0,0:0|0:0,0:0:0:0:
250,87,95165,1,0,0:0:0:0:
350,139,95294,5,2,0:0:0:0:
357,146,95358,1,2,0:0:0:0:
364,153,95423,1,2,0:0:0:0:
371,160,95487,1,2,0:0:0:0:
378,167,95552,22,0,P|334:182|286:176,1,95.9999970703126,2|0,0:0|0:0,0:0:0:0:
159,40,95939,2,0,P|89:34|28:71,1,143.999995605469,2|0,0:0|0:0,0:0:0:0:
7,169,96326,2,0,L|30:269,1,95.9999970703126
258,243,96713,2,0,L|223:94,1,143.999995605469,2|0,0:0|0:0,0:0:0:0:
114,141,97100,2,0,B|140:253,1,95.9999970703126
343,326,97487,6,0,L|401:337,2,47.9999985351563,2|0|0,0:0|0:0|0:0,0:0:0:0:
136,235,97875,2,0,L|78:224,2,47.9999985351563,2|0|0,0:0|0:0|0:0,0:0:0:0:
363,230,98262,2,0,L|421:241,2,47.9999985351563,2|0|0,0:0|0:0|0:0,0:0:0:0:
165,149,98649,1,2,0:0:0:0:
58,163,98842,1,2,0:0:0:0:
280,136,99036,6,0,P|278:195|205:247,1,143.999995605469,2|0,0:0|0:0,0:0:0:0:
90,312,99423,2,0,P|134:297|182:299,1,95.9999970703126
303,336,99810,1,2,0:0:0:0:
418,325,100004,1,0,0:0:0:0:
479,228,100197,1,0,0:0:0:0:
426,125,100391,2,0,L|439:60,1,47.9999985351563,8|0,0:0|0:0,0:0:0:0:
408,199,100584,6,0,B|396:252|396:252|330:298|273:237,1,191.999994140625,6|2,0:0|0:0,0:0:0:0:
40,81,101358,1,0,0:0:0:0:
52,74,101455,1,0,0:0:0:0:
64,67,101552,1,0,0:0:0:0:
76,60,101649,1,0,0:0:0:0:
87,53,101746,2,0,P|82:99|108:138,1,95.9999970703126,2|8,0:0|0:0,0:0:0:0:
217,268,102133,38,0,P|287:261|341:215,1,143.999995605469,10|0,0:0|0:0,0:0:0:0:
265,49,102520,2,0,P|194:55|140:101,1,143.999995605469,2|0,0:0|0:0,0:0:0:0:
351,184,102907,2,0,P|344:113|298:59,1,143.999995605469,2|0,0:0|0:0,0:0:0:0:
131,133,103294,2,0,P|137:203|183:257,1,143.999995605469,2|0,0:0|0:0,0:0:0:0:
240,159,103681,5,14,0:0:0:0:
372,80,103875,1,0,0:0:0:0:
376,232,104068,1,0,0:0:0:0:
306,119,104262,1,0,0:0:0:0:
441,191,104455,1,8,0:0:0:0:
311,273,104649,1,0,0:0:0:0:
263,56,104842,1,2,0:0:0:0:
418,296,105036,1,2,0:0:0:0:
340,175,105229,5,10,0:0:0:0:
326,170,105326,1,0,0:0:0:0:
312,166,105423,2,0,L|248:185,1,47.9999985351563,8|0,0:0|0:0,0:0:0:0:
247,322,105617,1,10,0:0:0:0:
233,326,105713,1,0,0:0:0:0:
219,330,105810,2,0,L|151:322,1,47.9999985351563,8|0,0:0|0:0,0:0:0:0:
41,311,106004,1,8,0:0:0:0:
30,300,106100,1,0,0:0:0:0:
19,289,106197,2,0,L|8:222,1,47.9999985351563,8|0,0:0|0:0,0:0:0:0:
69,124,106391,1,8,0:0:0:0:
79,114,106487,1,0,0:0:0:0:
90,104,106584,1,8,0:0:0:0:
101,94,106681,1,0,0:0:0:0:
112,85,106778,6,0,B|158:90|158:90|191:82|191:82|266:86,1,143.999995605469,12|0,0:0|0:0,0:0:0:0:
348,72,107165,2,0,L|446:76,1,95.9999970703126,8|0,0:3|0:0,0:0:0:0:
203,171,107552,1,8,0:0:0:0:
305,224,107746,1,0,0:0:0:0:
392,150,107939,1,8,0:3:0:0:
493,205,108133,1,0,0:0:0:0:
497,218,108229,1,0,0:0:0:0:
502,231,108326,38,0,B|491:284|491:284|413:328,1,143.999995605469,8|0,0:0|0:0,0:0:0:0:
322,297,108713,2,0,B|277:285|277:285|229:291,1,95.9999970703126,8|0,0:3|0:0,0:0:0:0:
19,269,109100,2,0,B|74:278|74:278|161:265,1,143.999995605469,8|0,0:0|0:0,0:0:0:0:
204,170,109487,2,0,B|249:162|249:162|305:173,1,95.9999970703126,8|0,0:3|0:0,0:0:0:0:
450,200,109875,6,0,L|487:108,2,95.9999970703126,8|0|8,0:0|0:0|0:3,0:0:0:0:
338,136,110455,1,0,0:0:0:0:
338,136,110552,1,0,0:0:0:0:
338,136,110649,2,0,L|347:25,1,95.9999970703126,8|0,0:0|0:0,0:0:0:0:
204,170,111036,2,0,L|214:278,1,95.9999970703126,8|0,0:3|0:0,0:0:0:0:
124,344,111423,5,8,0:0:0:0:
41,258,111617,1,0,0:0:0:0:
115,164,111810,1,8,0:3:0:0:
80,49,112004,1,0,0:0:0:0:
125,194,112197,2,0,B|182:304|321:237|275:125|275:125|313:124|343:95,1,335.999989746094,8|0,0:0|0:0,0:0:0:0:
476,122,112971,5,8,0:0:0:0:
402,301,113165,1,0,0:0:0:0:
382,131,113358,1,8,0:3:0:0:
322,268,113552,1,0,0:0:0:0:
315,280,113649,1,0,0:0:0:0:
309,293,113746,1,8,0:0:0:0:
287,146,113939,1,0,0:0:0:0:
276,136,114036,1,0,0:0:0:0:
264,127,114133,2,0,L|168:123,1,95.9999970703126,8|0,0:3|0:0,0:0:0:0:
38,257,114520,38,0,P|107:251|150:196,1,143.999995605469,8|0,0:0|0:0,0:0:0:0:
80,85,114907,2,0,P|128:35|199:34,1,143.999995605469,8|0,0:3|0:0,0:0:0:0:
287,146,115294,2,0,P|349:178|419:166,1,143.999995605469,8|0,0:0|0:0,0:0:0:0:
459,69,115681,2,0,P|413:59|367:72,1,95.9999970703126,8|0,0:3|0:0,0:0:0:0:
331,300,116068,5,8,0:0:0:0:
451,214,116262,1,0,0:0:0:0:
465,201,116358,1,0,0:0:0:0:
478,188,116455,1,8,0:3:0:0:
384,139,116649,2,0,B|336:188|336:188|269:211|230:149,1,191.999994140625
78,48,117229,2,0,P|125:50|164:76,1,95.9999970703126,8|0,0:3|0:0,0:0:0:0:
222,264,117617,5,8,0:0:0:0:
143,318,117810,1,0,0:0:0:0:
69,255,118004,1,8,0:3:0:0:
101,165,118197,1,0,0:0:0:0:
222,264,118391,1,8,0:0:0:0:
290,147,118584,1,0,0:0:0:0:
418,190,118778,1,0,0:3:0:0:
394,55,118971,1,0,0:0:0:0:
477,281,119165,6,0,P|408:293|343:263,1,143.999995605469,12|0,0:0|0:0,0:0:0:0:
299,214,119552,1,8,0:3:0:0:
431,146,119746,1,0,0:0:0:0:
270,275,119939,2,0,P|202:257|163:198,1,143.999995605469,8|0,0:0|0:0,0:0:0:0:
156,133,120326,1,8,0:3:0:0:
302,111,120520,1,0,0:0:0:0:
99,176,120713,38,0,L|-1:189,1,95.9999970703126,8|0,0:0|0:0,0:0:0:0:
225,50,121100,2,0,L|325:37,1,95.9999970703126,8|0,0:3|0:0,0:0:0:0:
83,64,121487,1,8,0:0:0:0:
237,157,121681,1,0,0:0:0:0:
93,265,121875,1,8,0:3:0:0:
258,336,122068,1,0,0:0:0:0:
396,224,122262,6,0,P|408:154|413:82,1,143.999995605469,8|0,0:0|0:0,0:0:0:0:
401,16,122649,1,8,0:3:0:0:
495,161,122842,2,0,P|490:256|445:340,1,191.999994140625
318,184,123423,2,0,P|327:138|327:90,1,95.9999970703126,8|0,0:3|0:0,0:0:0:0:
321,310,123810,2,0,P|264:350|193:350,1,143.999995605469,8|0,0:0|0:0,0:0:0:0:
131,321,124197,1,8,0:3:0:0:
50,192,124391,1,0,0:0:0:0:
183,28,124584,2,0,B|232:52|263:83|263:83|258:22|258:22|310:51|310:51|327:32|327:32|368:46|428:40,1,335.999989746094,8|0,0:0|0:0,0:0:0:0:
496,24,125358,5,12,0:0:0:0:
256,192,125746,1,8,0:3:0:0:
15,121,126133,1,8,0:0:0:0:
24,142,126229,1,0,0:0:0:0:
33,163,126326,1,0,0:0:0:0:
42,184,126423,1,0,0:0:0:0:
51,204,126520,2,0,P|121:195|189:218,1,143.999995605469,8|0,0:3|0:0,0:0:0:0:
275,261,126907,6,0,L|322:254,1,47.9999985351563,8|0,0:3|0:0,0:0:0:0:
400,329,127100,2,0,L|393:281,1,47.9999985351563
466,203,127294,2,0,L|418:209,1,47.9999985351563,8|0,0:3|0:0,0:0:0:0:
342,138,127487,2,0,L|348:185,1,47.9999985351563
368,218,127681,2,0,P|358:171|385:71,1,143.999995605469,8|0,0:0|0:0,0:0:0:0:
431,34,128068,1,8,0:3:0:0:
294,139,128262,1,8,0:0:0:0:
138,78,128455,38,0,L|76:88,1,47.9999985351563,8|0,0:0|0:0,0:0:0:0:
121,148,128649,2,0,L|59:158,1,47.9999985351563,8|0,0:0|0:0,0:0:0:0:
106,219,128842,2,0,L|44:229,1,47.9999985351563,8|0,0:0|0:0,0:0:0:0:
89,289,129036,2,0,L|27:299,1,47.9999985351563,8|0,0:0|0:0,0:0:0:0:
198,357,129229,38,0,L|260:347,1,47.9999985351563,8|0,0:0|0:0,0:0:0:0:
215,287,129423,2,0,L|277:277,1,47.9999985351563,8|0,0:0|0:0,0:0:0:0:
230,216,129616,2,0,L|292:206,1,47.9999985351563,8|0,0:0|0:0,0:0:0:0:
247,146,129810,2,0,L|309:136,1,47.9999985351563,8|0,0:0|0:0,0:0:0:0:
265,75,130004,1,8,0:0:0:0:
279,73,130100,1,8,0:0:0:0:
293,71,130197,1,8,0:0:0:0:
307,69,130294,1,8,0:0:0:0:
321,67,130391,1,8,0:0:0:0:
335,65,130487,1,8,0:0:0:0:
349,63,130584,1,8,0:0:0:0:
363,61,130681,1,8,0:0:0:0:
377,59,130778,1,8,0:0:0:0:
391,57,130875,1,8,0:0:0:0:
405,55,130971,1,8,0:0:0:0:
419,53,131068,1,8,0:0:0:0:
433,51,131165,1,8,0:0:0:0:
447,49,131262,1,8,0:0:0:0:
461,47,131358,1,8,0:0:0:0:
475,46,131455,1,8,0:0:0:0:
489,45,131552,38,0,L|459:126,1,80,4|0,0:0|0:0,0:0:0:0:
390,325,132907,1,0,0:0:0:0:
380,329,133004,1,0,0:0:0:0:
370,333,133100,2,0,L|287:318,1,80
266,186,133875,2,0,L|349:201,1,80
162,269,134649,2,0,P|105:285|37:265,2,120
274,71,136197,2,0,P|329:55|390:71,2,120
167,186,137746,6,0,P|157:252|255:179,1,280
260,180,139197,1,0,0:0:0:0:
254,169,139294,2,0,L|336:142,1,80
117,125,140068,2,0,L|35:152,1,80
226,40,140842,2,0,P|280:59|348:46,1,120
348,45,141617,1,0,0:0:0:0:
449,269,142391,6,0,P|379:234|332:241,1,120
268,272,143165,1,0,0:0:0:0:
190,292,143358,1,0,0:0:0:0:
110,280,143552,1,0,0:0:0:0:
41,237,143746,1,0,0:0:0:0:
10,163,143939,6,0,L|36:34,1,120
194,101,144713,2,0,L|178:187,1,80
150,41,145487,2,0,P|207:29|255:61,1,120
251,71,146165,1,0,0:0:0:0:
247,80,146262,2,0,L|337:67,1,80
47,194,147036,37,0,0:0:0:0:
464,117,147423,1,0,0:0:0:0:
289,325,147810,1,0,0:0:0:0:
224,33,148197,1,0,0:0:0:0:
16,265,148584,2,0,P|56:307|114:304,1,120
186,269,149358,1,0,0:0:0:0:
295,217,149649,1,0,0:0:0:0:
409,174,149939,1,0,0:0:0:0:
468,269,150133,6,0,P|411:286|347:266,1,120
295,217,150907,1,0,0:0:0:0:
183,173,151197,1,0,0:0:0:0:
74,122,151487,1,0,0:0:0:0:
31,49,151681,6,0,P|86:37|144:76,1,120
234,315,152455,1,0,0:0:0:0:
301,79,152746,1,0,0:0:0:0:
386,310,153036,1,0,0:0:0:0:
183,173,153229,2,0,B|136:188|98:168|98:168|66:174,2,120
427,164,154778,2,0,P|357:144|291:171,1,140
254,226,155552,5,0,0:0:0:0:
237,250,155649,1,0,0:0:0:0:
211,266,155746,1,2,0:0:0:0:
182,274,155842,1,0,0:0:0:0:
152,277,155939,1,0,0:0:0:0:
122,272,156036,1,0,0:0:0:0:
94,259,156133,1,0,0:0:0:0:
71,239,156229,1,0,0:0:0:0:
55,213,156326,38,0,L|96:184,1,40,8|0,0:0|0:0,0:0:0:0:
68,128,156520,2,0,L|118:123,1,40
121,61,156713,2,0,L|166:82,1,40
201,30,156907,2,0,L|229:71,1,40
254,150,157100,6,0,L|225:189,1,40
323,186,157294,2,0,L|317:234,1,40
399,182,157487,2,0,L|418:226,1,40
464,140,157681,2,0,L|425:111,1,40
383,25,157875,6,0,P|340:66|268:63,1,120
92,61,158262,2,0,P|140:27|200:28,1,120
105,144,158649,2,0,L|84:203,3,40
154,269,159036,2,0,L|175:323,3,40
193,201,159423,5,0,0:0:0:0:
227,186,159520,1,0,0:0:0:0:
251,153,159617,1,0,0:0:0:0:
289,162,159713,1,0,0:0:0:0:
310,196,159810,1,0,0:0:0:0:
338,211,159907,1,0,0:0:0:0:
373,219,160004,2,0,L|418:201,1,40
412,137,160197,38,0,P|420:99|443:66,2,80
386,310,160778,2,0,L|324:320,1,40
282,282,160971,1,2,0:0:0:0:
248,250,161068,1,0,0:0:0:0:
201,259,161165,1,0,0:0:0:0:
157,250,161262,1,2,0:0:0:0:
133,286,161358,1,0,0:0:0:0:
152,329,161455,1,0,0:0:0:0:
127,357,161552,1,0,0:0:0:0:
86,359,161649,1,0,0:0:0:0:
54,335,161746,5,2,0:0:0:0:
127,153,161939,1,0,0:0:0:0:
247,180,162133,1,2,0:0:0:0:
17,222,162326,1,10,0:0:0:0:
102,34,162520,1,10,0:0:0:0:
259,97,162713,5,0,0:0:0:0:
274,103,162810,2,0,L|369:91,1,80
347,108,163100,1,0,0:0:0:0:
465,32,163294,1,0,0:0:0:0:
458,42,163391,1,0,0:0:0:0:
451,52,163487,1,0,0:0:0:0:
444,62,163584,1,0,0:0:0:0:
437,72,163681,1,0,0:0:0:0:
480,186,163875,1,0,0:0:0:0:
471,199,163971,1,0,0:0:0:0:
459,210,164068,6,0,P|401:224|342:212,1,120
287,106,164455,2,0,P|230:92|172:107,1,120
178,228,164842,2,0,P|235:242|293:227,1,120
140,170,165229,2,0,P|82:163|26:185,1,120
178,228,165617,2,0,P|236:220|273:175,1,120
287,105,166004,1,0,0:0:0:0:
271,273,166197,1,0,0:0:0:0:
275,288,166294,1,0,0:0:0:0:
279,302,166391,2,0,P|341:256|419:263,1,160
434,356,166971,38,0,L|381:351,1,40
360,332,167165,1,2,0:0:0:0:
345,291,167262,1,0,0:0:0:0:
364,250,167358,1,0,0:0:0:0:
409,244,167455,1,0,0:0:0:0:
448,218,167552,1,2,0:0:0:0:
454,172,167649,1,0,0:0:0:0:
429,135,167746,1,0,0:0:0:0:
454,98,167842,1,0,0:0:0:0:
424,63,167939,5,2,0:0:0:0:
294,182,168133,1,0,0:0:0:0:
219,23,168326,1,2,0:0:0:0:
142,182,168520,1,10,0:0:0:0:
13,63,168713,6,0,B|1:198|1:197,1,120,14|0,0:0|0:0,0:0:0:0:
43,238,169100,1,0,0:0:0:0:
35,350,169294,1,0,0:0:0:0:
62,344,169391,1,0,0:0:0:0:
85,328,169487,2,0,P|142:341|198:321,1,120
286,247,169875,2,0,P|228:232|171:250,1,120
272,326,170262,5,2,0:0:0:0:
446,203,170455,1,0,0:0:0:0:
414,214,170552,1,0,0:0:0:0:
383,186,170649,1,0,0:0:0:0:
347,184,170746,1,0,0:0:0:0:
316,203,170842,1,0,0:0:0:0:
280,203,170939,1,0,0:0:0:0:
248,184,171036,38,0,L|188:173,1,40,2|0,0:0|0:0,0:0:0:0:
168,89,171229,2,0,L|157:149,1,40
71,169,171423,2,0,L|131:180,1,40,2|0,0:0|0:0,0:0:0:0:
151,264,171616,2,0,L|162:204,1,40,8|0,0:0|0:0,0:0:0:0:
248,183,171810,6,0,P|263:136|263:86,1,100,12|0,0:0|0:0,0:0:0:0:
391,22,172197,2,0,P|387:72|403:119,1,100
506,217,172584,1,12,0:0:0:0:
30,200,172971,1,0,0:0:0:0:
69,191,173068,1,0,0:0:0:0:
108,199,173165,1,0,0:0:0:0:
145,185,173262,1,0,0:0:0:0:
178,232,173358,5,10,0:0:0:0:
178,267,173455,1,0,0:0:0:0:
200,294,173552,1,0,0:0:0:0:
233,304,173649,1,0,0:0:0:0:
264,318,173746,1,2,0:0:0:0:
295,304,173842,1,0,0:0:0:0:
304,270,173939,1,0,0:0:0:0:
331,247,174036,1,0,0:0:0:0:
325,207,174133,5,2,0:0:0:0:
294,181,174229,1,0,0:0:0:0:
280,143,174326,1,0,0:0:0:0:
294,105,174423,1,0,0:0:0:0:
333,99,174520,1,2,0:0:0:0:
358,68,174617,1,0,0:0:0:0:
397,62,174713,1,8,0:0:0:0:
433,77,174810,1,0,0:0:0:0:
483,135,174907,37,14,0:0:0:0:
484,149,175004,1,0,0:0:0:0:
485,163,175100,2,0,L|489:222,1,50
392,176,175294,1,0,0:0:0:0:
393,190,175391,1,0,0:0:0:0:
394,204,175487,2,0,L|398:263,1,50
280,143,175681,1,0,0:0:0:0:
281,159,175778,1,0,0:0:0:0:
289,271,175971,1,0,0:0:0:0:
291,285,176068,2,0,P|247:307|198:304,1,100
80,274,176455,5,14,0:0:0:0:
76,264,176552,1,0,0:0:0:0:
72,254,176649,2,0,L|52:198,1,50
127,212,176842,1,0,0:0:0:0:
124,202,176939,1,0,0:0:0:0:
121,192,177036,2,0,L|103:125,1,50
190,170,177229,21,0,0:0:0:0:
189,160,177326,1,0,0:0:0:0:
242,109,177520,1,0,0:0:0:0:
241,98,177617,1,0,0:0:0:0:
310,59,177810,1,0,0:0:0:0:
311,49,177907,1,0,0:0:0:0:
381,55,178004,38,0,L|435:48,1,50,14|0,0:0|0:0,0:0:0:0:
391,128,178197,2,0,L|331:126,1,50
396,203,178391,2,0,L|453:213,1,50
365,269,178584,2,0,L|301:248,1,50
311,325,178778,5,12,0:0:0:0:
296,327,178875,1,0,0:0:0:0:
281,329,178971,1,0,0:0:0:0:
266,331,179068,1,0,0:0:0:0:
251,333,179165,1,0,0:0:0:0:
236,335,179262,1,0,0:0:0:0:
221,337,179358,1,0,0:0:0:0:
206,339,179455,1,0,0:0:0:0:
191,341,179552,5,10,0:0:0:0:
151,345,179649,1,8,0:0:0:0:
111,336,179746,1,8,0:0:0:0:
74,320,179842,1,8,0:0:0:0:
48,289,179939,1,8,0:0:0:0:
35,251,180036,1,8,0:0:0:0:
30,211,180133,1,8,0:0:0:0:
38,172,180229,1,8,0:0:0:0:
63,141,180326,5,8,0:0:0:0:
97,162,180423,1,8,0:0:0:0:
134,176,180520,1,8,0:0:0:0:
174,176,180617,1,8,0:0:0:0:
213,168,180713,1,8,0:0:0:0:
246,145,180810,1,8,0:0:0:0:
270,113,180907,1,8,0:0:0:0:
274,73,181004,1,8,0:0:0:0:
270,32,181100,38,0,P|266:99|331:157,1,150,12|0,0:0|0:0,0:0:0:0:
391,171,181487,1,8,0:0:0:0:
181,102,181681,1,0,0:0:0:0:
20,253,181875,1,8,0:0:0:0:
230,323,182068,1,0,0:0:0:0:
248,314,182165,1,0,0:0:0:0:
266,306,182262,2,0,L|198:207,1,100,8|0,0:0|0:0,0:0:0:0:
40,119,182649,6,0,P|126:129|192:93,1,150,8|0,0:0|0:0,0:0:0:0:
229,49,183036,1,8,0:0:0:0:
432,68,183229,1,0,0:0:0:0:
448,78,183326,1,0,0:0:0:0:
464,89,183423,2,0,L|483:191,1,100,8|0,0:0|0:0,0:0:0:0:
272,235,183810,2,0,L|253:133,1,100,8|0,0:0|0:0,0:0:0:0:
401,260,184197,5,8,0:0:0:0:
403,269,184294,1,0,0:0:0:0:
272,235,184487,1,0,0:0:0:0:
271,245,184584,1,8,0:0:0:0:
144,276,184778,1,0,0:0:0:0:
139,266,184875,1,0,0:0:0:0:
134,257,184971,1,8,0:0:0:0:
31,190,185165,1,0,0:0:0:0:
35,180,185262,1,0,0:0:0:0:
39,170,185358,2,0,L|42:97,1,50,8|0,0:0|0:0,0:0:0:0:
124,161,185552,1,0,0:0:0:0:
43,46,185746,1,8,0:0:0:0:
195,186,185939,5,0,0:0:0:0:
233,195,186036,1,0,0:0:0:0:
257,163,186133,1,8,0:0:0:0:
248,124,186229,1,0,0:0:0:0:
260,85,186326,1,0,0:0:0:0:
296,69,186423,1,0,0:0:0:0:
332,86,186520,1,8,0:0:0:0:
370,75,186617,1,0,0:0:0:0:
405,92,186713,1,0,0:0:0:0:
425,126,186810,1,0,0:0:0:0:
435,164,186907,1,8,0:0:0:0:
410,195,187004,1,0,0:0:0:0:
417,233,187100,1,0,0:0:0:0:
440,265,187197,1,0,0:0:0:0:
427,302,187294,38,0,P|356:325|282:314,1,150,8|0,0:0|0:0,0:0:0:0:
176,252,187681,2,0,P|129:247|78:265,1,100,8|0,0:0|0:0,0:0:0:0:
212,315,188068,1,8,0:0:0:0:
304,223,188262,1,0,0:0:0:0:
319,210,188358,1,0,0:0:0:0:
334,196,188455,2,0,L|320:85,1,100,8|0,0:0|0:0,0:0:0:0:
121,32,188842,5,8,0:0:0:0:
124,41,189036,1,0,0:0:0:0:
32,238,189229,1,8,0:0:0:0:
28,247,189423,1,0,0:0:0:0:
137,160,189617,1,8,0:0:0:0:
257,211,189810,1,0,0:0:0:0:
263,218,189907,1,0,0:0:0:0:
269,225,190004,2,0,L|380:245,1,100,8|0,0:0|0:0,0:0:0:0:
152,288,190391,5,8,0:0:0:0:
137,160,190584,1,0,0:0:0:0:
138,150,190681,1,0,0:0:0:0:
139,140,190778,1,8,0:0:0:0:
272,72,190971,1,0,0:0:0:0:
274,62,191068,1,0,0:0:0:0:
276,52,191165,2,0,P|207:22|138:52,1,150,8|0,0:0|0:0,0:0:0:0:
211,112,191552,2,0,P|276:143|340:109,1,150,8|0,0:0|0:0,0:0:0:0:
379,57,191939,5,8,0:0:0:0:
404,88,192036,1,0,0:0:0:0:
401,127,192133,1,0,0:0:0:0:
382,162,192229,1,0,0:0:0:0:
386,196,192326,1,8,0:0:0:0:
408,223,192423,1,0,0:0:0:0:
411,257,192520,1,0,0:0:0:0:
399,290,192617,1,0,0:0:0:0:
374,307,192713,37,8,0:0:0:0:
344,313,192810,1,0,0:0:0:0:
315,303,192907,1,0,0:0:0:0:
288,288,193004,1,0,0:0:0:0:
263,290,193100,1,8,0:0:0:0:
237,288,193197,1,0,0:0:0:0:
215,274,193294,1,8,0:0:0:0:
190,278,193391,1,0,0:0:0:0:
119,312,193487,5,12,0:0:0:0:
119,312,193584,1,0,0:0:0:0:
119,312,193681,2,0,L|44:298,1,50
120,229,193875,1,8,0:0:0:0:
120,229,193971,1,0,0:0:0:0:
120,229,194068,2,0,L|40:215,1,50
186,173,194262,1,8,0:0:0:0:
186,173,194358,1,0,0:0:0:0:
186,173,194455,2,0,L|250:186,1,50
310,222,194649,1,8,0:0:0:0:
310,222,194746,1,0,0:0:0:0:
310,222,194842,2,0,L|372:209,1,50
434,237,195036,5,8,0:0:0:0:
438,222,195133,1,0,0:0:0:0:
442,207,195229,1,0,0:0:0:0:
446,192,195326,1,0,0:0:0:0:
450,177,195423,1,8,0:0:0:0:
454,162,195520,1,0,0:0:0:0:
458,147,195617,1,0,0:0:0:0:
462,132,195713,1,0,0:0:0:0:
466,117,195810,5,8,0:0:0:0:
440,116,195907,1,0,0:0:0:0:
415,113,196004,1,0,0:0:0:0:
390,108,196100,1,0,0:0:0:0:
366,98,196197,1,8,0:0:0:0:
344,85,196294,1,0,0:0:0:0:
324,69,196391,1,0,0:0:0:0:
307,50,196487,1,0,0:0:0:0:
293,28,196584,37,8,0:0:0:0:
294,32,196681,1,0,0:0:0:0:
295,36,196778,1,0,0:0:0:0:
296,40,196875,1,0,0:0:0:0:
297,44,196971,1,8,0:0:0:0:
298,48,197068,1,0,0:0:0:0:
299,52,197165,1,0,0:0:0:0:
300,56,197262,1,0,0:0:0:0:
301,60,197358,1,8,0:0:0:0:
302,64,197455,1,0,0:0:0:0:
303,68,197552,1,0,0:0:0:0:
304,72,197649,1,0,0:0:0:0:
305,76,197746,2,0,B|319:151|319:151|303:182,1,100,8|0,0:0|0:0,0:0:0:0:
382,96,198133,5,8,0:0:0:0:
260,226,198326,1,0,0:0:0:0:
214,226,198423,1,0,0:0:0:0:
205,270,198520,1,8,0:0:0:0:
166,293,198617,1,0,0:0:0:0:
165,337,198713,1,0,0:0:0:0:
121,347,198810,1,0,0:0:0:0:
76,339,198907,1,8,0:0:0:0:
48,303,199004,1,0,0:0:0:0:
62,260,199100,1,0,0:0:0:0:
41,219,199197,1,0,0:0:0:0:
39,173,199294,37,10,0:0:0:0:
48,163,199358,1,2,0:0:0:0:
57,153,199423,1,2,0:0:0:0:
66,143,199487,1,10,0:0:0:0:
75,133,199552,1,2,0:0:0:0:
84,123,199617,1,2,0:0:0:0:
93,113,199681,21,14,0:0:0:0:
117,119,199778,1,0,0:0:0:0:
154,104,199875,1,0,0:0:0:0:
183,104,199971,1,0,0:0:0:0:
210,132,200068,2,0,L|317:143,1,100,8|0,0:0|0:0,0:0:0:0:
445,252,200455,1,8,0:0:0:0:
425,250,200552,1,0,0:0:0:0:
404,248,200649,1,0,0:0:0:0:
383,246,200746,1,0,0:0:0:0:
363,245,200842,2,0,L|419:160,1,100,8|0,0:0|0:0,0:0:0:0:
339,26,201229,6,0,L|257:151,1,150,12|0,0:0|0:0,0:0:0:0:
77,147,201617,2,0,P|148:148|210:208,1,150,8|0,0:0|0:0,0:0:0:0:
383,246,202004,2,0,P|329:292|237:281,1,150,8|0,0:0|0:0,0:0:0:0:
72,365,202391,2,0,P|111:301|176:265,1,150,8|0,0:0|0:0,0:0:0:0:
346,320,202778,5,12,0:0:0:0:
190,334,202971,1,0,0:0:0:0:
488,292,203165,1,8,0:0:0:0:
422,154,203358,1,0,0:0:0:0:
279,226,203552,2,0,P|207:208|156:154,1,150,8|0,0:0|0:0,0:0:0:0:
316,65,203939,2,0,P|295:110|256:139,1,100,8|8,0:0|0:0,0:0:0:0:
42,116,204326,5,12,0:0:0:0:
69,103,204423,1,0,0:0:0:0:
103,66,204520,1,8,0:0:0:0:
132,72,204617,1,0,0:0:0:0:
180,80,204713,1,8,0:0:0:0:
207,68,204810,1,0,0:0:0:0:
246,98,204907,1,8,0:0:0:0:
259,124,205004,1,0,0:0:0:0:
270,172,205100,1,8,0:0:0:0:
294,176,205197,1,0,0:0:0:0:
321,211,205294,1,8,0:0:0:0:
346,210,205391,1,0,0:0:0:0:
383,186,205487,1,8,0:0:0:0:
408,187,205584,1,0,0:0:0:0:
439,212,205681,1,8,0:0:0:0:
463,206,205778,1,0,0:0:0:0:
500,252,205875,37,12,0:0:0:0:
484,277,205971,1,0,0:0:0:0:
457,290,206068,1,0,0:0:0:0:
426,288,206165,1,0,0:0:0:0:
399,273,206262,1,8,0:0:0:0:
369,267,206358,1,0,0:0:0:0:
339,271,206455,1,0,0:0:0:0:
311,282,206552,1,0,0:0:0:0:
274,341,206649,5,8,0:0:0:0:
240,350,206746,1,0,0:0:0:0:
206,340,206842,1,0,0:0:0:0:
178,317,206939,1,0,0:0:0:0:
161,286,207036,1,8,0:0:0:0:
160,250,207133,1,0,0:0:0:0:
173,218,207229,1,0,0:0:0:0:
195,190,207326,1,0,0:0:0:0:
269,163,207423,5,8,0:0:0:0:
288,179,207520,1,0,0:0:0:0:
310,190,207617,1,0,0:0:0:0:
334,193,207713,1,0,0:0:0:0:
359,192,207810,1,8,0:0:0:0:
383,186,207907,1,0,0:0:0:0:
405,174,208004,1,0,0:0:0:0:
422,156,208100,1,0,0:0:0:0:
451,81,208197,5,8,0:0:0:0:
416,61,208294,1,0,0:0:0:0:
375,63,208391,1,0,0:0:0:0:
335,60,208487,1,0,0:0:0:0:
302,38,208584,1,8,0:0:0:0:
262,45,208681,1,0,0:0:0:0:
224,59,208778,1,0,0:0:0:0:
185,52,208875,1,0,0:0:0:0:
121,103,208971,38,0,B|85:124|85:124|48:177|100:232,1,150,8|0,0:0|0:0,0:0:0:0:
138,171,209358,1,8,0:0:0:0:
265,254,209552,1,0,0:0:0:0:
325,117,209746,2,0,B|379:104|379:104|431:115|432:181,1,150,8|0,0:0|0:0,0:0:0:0:
395,225,210133,1,8,0:0:0:0:
486,121,210326,1,8,0:0:0:0:
472,281,210520,5,8,0:0:0:0:
325,117,210713,1,0,0:0:0:0:
290,88,210810,1,0,0:0:0:0:
272,46,210907,1,8,0:0:0:0:
227,53,211004,1,0,0:0:0:0:
203,91,211100,1,0,0:0:0:0:
161,107,211197,1,0,0:0:0:0:
120,86,211294,6,0,L|54:77,3,50,8|0|0|0,0:0|0:0|0:0|0:0,0:0:0:0:
40,181,211681,2,0,L|93:176,3,50,8|0|0|0,0:0|0:0|0:0|0:0,0:0:0:0:
21,269,212068,5,8,0:0:0:0:
24,278,212165,1,0,0:0:0:0:
27,287,212262,1,0,0:0:0:0:
29,296,212358,1,0,0:0:0:0:
103,282,212455,37,8,0:0:0:0:
100,268,212552,1,0,0:0:0:0:
97,254,212649,1,0,0:0:0:0:
94,240,212746,1,0,0:0:0:0:
166,210,212842,5,8,0:0:0:0:
169,229,212939,1,0,0:0:0:0:
173,248,213036,1,0,0:0:0:0:
177,267,213133,1,0,0:0:0:0:
256,255,213229,5,8,0:0:0:0:
251,231,213326,1,0,0:0:0:0:
246,207,213423,1,0,0:0:0:0:
241,183,213520,1,0,0:0:0:0:
220,100,213617,5,8,0:0:0:0:
229,103,213713,1,0,0:0:0:0:
238,106,213810,1,0,0:0:0:0:
247,109,213907,1,0,0:0:0:0:
256,112,214004,1,8,0:0:0:0:
290,92,214100,1,0,0:0:0:0:
322,69,214197,1,0,0:0:0:0:
355,47,214294,1,0,0:0:0:0:
388,25,214391,37,8,0:0:0:0:
382,54,214487,1,0,0:0:0:0:
379,83,214584,1,0,0:0:0:0:
383,112,214681,1,0,0:0:0:0:
392,140,214778,1,8,0:0:0:0:
408,164,214875,1,0,0:0:0:0:
429,184,214971,1,0,0:0:0:0:
457,192,215068,1,0,0:0:0:0:
486,188,215165,6,0,L|464:302,1,100,8|0,0:0|0:0,0:0:0:0:
398,252,215455,1,0,0:0:0:0:
398,252,215552,2,0,L|348:351,1,100,8|0,0:0|0:0,0:0:0:0:
255,276,215939,1,8,0:0:0:0:
255,276,216036,1,0,0:0:0:0:
255,276,216133,1,0,0:0:0:0:
255,276,216229,1,0,0:0:0:0:
255,276,216326,2,0,L|169:347,1,100,8|0,0:0|0:0,0:0:0:0:
99,272,216713,5,8,0:0:0:0:
91,265,216810,1,0,0:0:0:0:
82,258,216907,1,0,0:0:0:0:
73,251,217004,1,0,0:0:0:0:
90,180,217100,1,8,0:0:0:0:
82,173,217197,1,0,0:0:0:0:
74,166,217294,1,0,0:0:0:0:
66,159,217391,1,0,0:0:0:0:
32,81,217487,6,0,L|96:69,1,50,8|0,0:0|0:0,0:0:0:0:
143,121,217681,2,0,L|204:134,1,50
257,184,217875,2,0,L|323:173,1,50,8|0,0:0|0:0,0:0:0:0:
382,218,218068,2,0,L|432:228,1,50,8|0,0:0|0:0,0:0:0:0:
480,301,218262,37,12,0:0:0:0:
465,305,218358,1,0,0:0:0:0:
450,309,218455,1,0,0:0:0:0:
435,313,218552,1,0,0:0:0:0:
420,317,218649,1,8,0:0:0:0:
405,321,218746,1,0,0:0:0:0:
390,325,218842,1,0,0:0:0:0:
375,329,218939,1,0,0:0:0:0:
310,285,219036,5,8,0:0:0:0:
294,265,219133,1,0,0:0:0:0:
278,245,219229,1,0,0:0:0:0:
262,225,219326,1,0,0:0:0:0:
246,205,219423,1,8,0:0:0:0:
230,185,219520,1,0,0:0:0:0:
214,165,219617,1,0,0:0:0:0:
198,145,219713,1,0,0:0:0:0:
92,118,219810,5,8,0:0:0:0:
92,118,219907,1,0,0:0:0:0:
92,118,220004,2,0,L|32:114,1,50
131,189,220197,5,8,0:0:0:0:
131,189,220294,1,0,0:0:0:0:
131,189,220391,2,0,L|127:249,1,50
198,145,220584,37,8,0:0:0:0:
198,145,220681,1,0,0:0:0:0:
198,145,220778,2,0,L|258:149,1,50
161,75,220971,5,8,0:0:0:0:
161,75,221068,1,0,0:0:0:0:
161,75,221165,2,0,L|165:15,1,50
258,29,221358,5,8,0:0:0:0:
256,48,221455,1,0,0:0:0:0:
253,67,221552,1,0,0:0:0:0:
252,86,221649,1,0,0:0:0:0:
320,110,221746,1,8,0:0:0:0:
325,128,221842,1,0,0:0:0:0:
331,147,221939,1,0,0:0:0:0:
337,166,222036,1,0,0:0:0:0:
386,220,222133,5,8,0:0:0:0:
375,242,222229,1,0,0:0:0:0:
364,264,222326,1,0,0:0:0:0:
353,286,222423,1,0,0:0:0:0:
285,328,222520,1,8,0:0:0:0:
271,300,222617,1,0,0:0:0:0:
258,273,222713,1,0,0:0:0:0:
244,245,222810,1,0,0:0:0:0:
214,249,222907,37,8,0:0:0:0:
255,35,223100,1,0,0:0:0:0:
302,52,223197,1,0,0:0:0:0:
348,35,223294,1,8,0:0:0:0:
392,31,223391,1,0,0:0:0:0:
425,74,223487,1,0,0:0:0:0:
449,111,223584,1,0,0:0:0:0:
407,146,223681,1,8,0:0:0:0:
396,189,223778,1,0,0:0:0:0:
422,237,223875,1,0,0:0:0:0:
400,276,223971,1,0,0:0:0:0:
346,288,224068,5,8,0:0:0:0:
341,286,224165,1,0,0:0:0:0:
336,284,224262,1,8,0:0:0:0:
331,282,224358,1,0,0:0:0:0:
270,235,224455,6,0,L|220:228,3,50,12|0|0|0,0:0|0:0|0:0|0:0,0:0:0:0:
326,173,224842,1,8,0:0:0:0:
144,269,225036,1,0,0:0:0:0:
253,126,225229,1,8,0:0:0:0:
233,130,225326,1,0,0:0:0:0:
213,134,225423,1,0,0:0:0:0:
193,139,225520,1,0,0:0:0:0:
173,144,225617,2,0,L|102:126,1,50,8|0,0:0|0:0,0:0:0:0:
41,176,225810,2,0,L|100:195,1,50,8|0,0:0|0:0,0:0:0:0:
164,220,226004,5,8,0:0:0:0:
168,228,226100,1,0,0:0:0:0:
172,237,226197,1,0,0:0:0:0:
176,246,226294,1,0,0:0:0:0:
180,255,226391,1,8,0:0:0:0:
184,263,226487,1,0,0:0:0:0:
188,272,226584,1,0,0:0:0:0:
192,281,226681,1,0,0:0:0:0:
196,289,226778,38,0,P|243:301|292:294,1,100,8|8,0:0|0:0,0:0:0:0:
395,315,227068,2,0,P|430:279|444:231,1,100
479,132,227358,2,0,P|466:100|450:80,1,50,8|0,0:0|0:0,0:0:0:0:
373,116,227552,1,12,0:0:0:0:
348,136,227649,1,0,0:0:0:0:
299,123,227746,1,8,0:0:0:0:
267,134,227842,1,0,0:0:0:0:
230,104,227939,1,8,0:0:0:0:
199,107,228036,1,0,0:0:0:0:
165,72,228133,1,8,0:0:0:0:
136,62,228229,1,0,0:0:0:0:
81,84,228326,6,0,L|27:75,1,50,12|0,0:0|0:0,0:0:0:0:
16,163,228520,2,0,L|74:154,1,50,8|0,0:0|0:0,0:0:0:0:
96,231,228713,2,0,L|36:229,1,50,8|0,0:0|0:0,0:0:0:0:
153,161,228907,2,0,L|212:153,1,50,8|0,0:0|0:0,0:0:0:0:
276,197,229100,5,8,0:0:0:0:
290,202,229197,1,8,0:0:0:0:
304,207,229294,1,8,0:0:0:0:
318,212,229391,1,8,0:0:0:0:
342,276,229487,1,8,0:0:0:0:
356,273,229584,1,8,0:0:0:0:
370,270,229681,1,8,0:0:0:0:
384,267,229778,1,8,0:0:0:0:
460,228,229875,5,8,0:0:0:0:
445,223,229971,1,8,0:0:0:0:
430,218,230068,1,8,0:0:0:0:
415,213,230165,1,8,0:0:0:0:
365,160,230262,1,8,0:0:0:0:
379,157,230358,1,8,0:0:0:0:
393,154,230455,1,8,0:0:0:0:
407,151,230552,1,8,0:0:0:0:
449,87,230649,38,0,P|386:72|310:84,1,132.00000402832,12|0,0:0|0:0,0:0:0:0:
299,138,231036,1,0,0:0:0:0:
279,155,231133,1,0,0:0:0:0:
259,172,231229,1,0,0:0:0:0:
240,190,231326,1,0,0:0:0:0:
213,193,231423,1,0,0:0:0:0:
186,193,231520,1,0,0:0:0:0:
159,188,231617,1,0,0:0:0:0:
134,177,231713,1,0,0:0:0:0:
110,164,231810,1,0,0:0:0:0:
94,142,231907,1,0,0:0:0:0:
80,119,232004,2,0,L|93:72,2,44.0000013427735,0|0|0,0:0|0:0|0:0,0:0:0:0:
41,193,232391,37,0,0:0:0:0:
32,225,232487,1,0,0:0:0:0:
20,257,232584,2,0,L|32:312,1,44.0000013427735
100,321,232778,2,0,L|86:269,1,44.0000013427735
149,249,232971,2,0,L|161:296,1,44.0000013427735
170,322,233165,1,0,0:0:0:0:
180,352,233262,1,0,0:0:0:0:
263,364,233358,2,0,L|247:318,1,44.0000013427735
237,293,233552,1,0,0:0:0:0:
228,262,233649,1,0,0:0:0:0:
227,198,233746,38,0,L|274:205,1,40
306,209,233939,2,0,L|347:201,1,40
380,220,234133,1,0,0:0:0:0:
413,241,234229,1,0,0:0:0:0:
452,237,234326,2,0,L|501:202,1,40
484,173,234520,1,0,0:0:0:0:
498,135,234617,1,0,0:0:0:0:
472,104,234713,2,0,L|454:42,1,40
425,45,234907,2,0,L|367:40,1,40
359,72,235100,1,0,0:0:0:0:
319,69,235197,1,0,0:0:0:0:
286,45,235294,5,0,0:0:0:0:
116,103,235487,1,0,0:0:0:0:
101,145,235584,1,0,0:0:0:0:
60,152,235681,2,0,L|45:197,1,40
66,227,235875,2,0,L|87:264,1,40
126,272,236068,1,0,0:0:0:0:
164,255,236165,1,0,0:0:0:0:
181,215,236262,1,0,0:0:0:0:
225,208,236358,1,0,0:0:0:0:
261,228,236455,1,0,0:0:0:0:
302,227,236552,1,0,0:0:0:0:
328,194,236649,1,0,0:0:0:0:
374,201,236746,1,0,0:0:0:0:
404,232,236842,5,0,0:0:0:0:
327,347,237036,2,0,L|277:323,1,40
261,297,237229,2,0,L|206:309,1,40
197,347,237423,1,0,0:0:0:0:
149,343,237520,1,0,0:0:0:0:
110,314,237617,2,0,L|65:306,3,40,0|0|0|0,0:0|0:0|0:0|0:0,0:0:0:0:
13,250,238004,2,0,L|67:235,3,40,0|0|0|0,0:0|0:0|0:0|0:0,0:0:0:0:
120,206,238391,1,0,0:0:0:0:
253,241,238584,6,0,L|313:250,1,40
207,171,238778,2,0,L|246:165,1,40
150,109,238971,2,0,L|188:96,1,40
247,52,239165,2,0,L|290:72,1,40,0|0,0:0|0:0,0:0:0:0:
285,135,239358,2,0,L|330:154,1,40
369,195,239552,1,0,0:0:0:0:
407,218,239649,1,0,0:0:0:0:
450,208,239746,1,0,0:0:0:0:
473,167,239842,1,0,0:0:0:0:
454,121,239939,38,0,L|484:88,1,40,0|0,0:0|0:0,0:0:0:0:
412,106,240133,2,0,L|415:56,1,40
365,122,240326,2,0,L|326:69,1,40
344,160,240520,2,0,L|284:153,1,40
266,183,240713,1,0,0:0:0:0:
219,194,240810,1,0,0:0:0:0:
183,161,240907,1,0,0:0:0:0:
137,173,241004,1,0,0:0:0:0:
121,214,241100,2,0,L|76:205,1,40
10,165,241294,2,0,L|49:160,1,40
93,116,241487,5,0,0:0:0:0:
234,130,241681,1,0,0:0:0:0:
250,171,241778,1,0,0:0:0:0:
225,206,241875,1,0,0:0:0:0:
212,249,241971,1,0,0:0:0:0:
225,291,242068,1,0,0:0:0:0:
267,294,242165,1,0,0:0:0:0:
297,326,242262,2,0,L|356:314,1,40
360,263,242455,2,0,L|417:248,1,40
425,199,242649,2,0,L|472:186,3,40,4|0|0|0,0:0|0:0|0:0|0:0,0:0:0:0:
492,122,243036,5,4,0:0:0:0:
453,140,243133,1,0,0:0:0:0:
408,142,243229,1,0,0:0:0:0:
374,123,243326,1,0,0:0:0:0:
351,85,243423,1,0,0:0:0:0:
313,61,243520,1,0,0:0:0:0:
272,66,243617,1,0,0:0:0:0:
253,110,243713,1,0,0:0:0:0:
276,150,243810,1,0,0:0:0:0:
283,197,243907,1,0,0:0:0:0:
263,238,244004,1,0,0:0:0:0:
224,267,244100,1,0,0:0:0:0:
184,240,244197,1,0,0:0:0:0:
139,250,244294,1,0,0:0:0:0:
111,211,244391,1,0,0:0:0:0:
140,175,244487,1,0,0:0:0:0:
118,133,244584,1,0,0:0:0:0:
81,338,244778,5,0,0:0:0:0:
128,326,244875,1,0,0:0:0:0:
173,339,244971,2,0,L|232:326,1,40
245,298,245165,2,0,L|293:285,1,40
310,249,245358,1,0,0:0:0:0:
289,209,245455,1,0,0:0:0:0:
242,197,245552,1,0,0:0:0:0:
202,222,245649,1,0,0:0:0:0:
160,202,245746,1,0,0:0:0:0:
151,156,245842,1,0,0:0:0:0:
170,114,245939,1,0,0:0:0:0:
151,71,246036,1,0,0:0:0:0:
166,27,246133,38,0,L|222:15,1,40
243,47,246326,1,0,0:0:0:0:
282,73,246423,1,0,0:0:0:0:
329,61,246520,2,0,L|373:52,2,40,0|0|0,0:0|0:0|0:0,0:0:0:0:
413,73,246810,2,0,L|460:80,2,40,0|0|0,0:0|0:0|0:0,0:0:0:0:
483,113,247100,2,0,L|500:163,1,40
455,180,247294,1,0,0:0:0:0:
409,185,247391,1,0,0:0:0:0:
379,221,247487,1,0,0:0:0:0:
383,268,247584,1,0,0:0:0:0:
418,302,247681,6,0,L|385:338,1,40
335,309,247875,2,0,L|279:325,1,40
262,270,248068,2,0,L|206:264,1,40
211,205,248262,2,0,L|171:187,1,40
201,123,248455,1,0,0:0:0:0:
190,110,248552,1,0,0:0:0:0:
179,97,248649,1,0,0:0:0:0:
168,84,248746,1,0,0:0:0:0:
156,71,248842,2,0,P|104:98|81:152,1,120,4|0,0:0|0:0,0:0:0:0:
69,270,249229,21,4,0:0:0:0:
99,303,249326,1,0,0:0:0:0:
114,348,249423,1,0,0:0:0:0:
160,352,249520,1,0,0:0:0:0:
197,327,249617,1,0,0:0:0:0:
217,287,249713,1,0,0:0:0:0:
264,292,249810,1,0,0:0:0:0:
301,319,249907,1,0,0:0:0:0:
343,340,250004,1,0,0:0:0:0:
386,324,250100,1,0,0:0:0:0:
386,276,250197,1,0,0:0:0:0:
421,246,250294,1,0,0:0:0:0:
464,263,250391,1,0,0:0:0:0:
500,230,250487,1,0,0:0:0:0:
504,182,250584,1,0,0:0:0:0:
488,137,250681,1,0,0:0:0:0:
444,121,250778,37,0,3:0:0:0:
409,148,250875,1,0,3:0:0:0:
368,162,250971,1,0,3:0:0:0:
325,151,251068,1,0,3:0:0:0:
293,94,251165,1,0,3:0:0:0:
247,85,251262,1,0,3:0:0:0:
202,97,251358,1,0,3:0:0:0:
175,134,251455,1,0,3:0:0:0:
183,202,251552,1,0,3:0:0:0:
152,238,251649,1,0,3:0:0:0:
103,239,251746,1,0,3:0:0:0:
59,217,251842,1,0,3:0:0:0:
52,175,251939,1,0,3:0:0:0:
70,134,252036,1,0,3:0:0:0:
56,90,252133,1,0,3:0:0:0:
67,42,252229,1,0,3:0:0:0:
108,21,252326,6,0,L|164:36,1,40,0|0,0:0|0:0,3:0:0:0:
203,51,252520,2,0,L|247:34,1,40,0|0,0:0|0:0,3:0:0:0:
296,66,252713,2,0,L|346:73,1,40,0|0,0:0|0:0,3:0:0:0:
368,129,252907,2,0,L|409:145,1,40,0|0,0:0|0:0,3:0:0:0:
474,139,253100,2,0,P|496:179|487:271,1,120,0|0,0:0|0:0,3:0:0:0:
419,244,253487,2,0,P|390:288|315:301,1,120,0|0,0:0|0:0,3:0:0:0:
259,356,253875,1,0,1:0:0:0:
239,342,253971,1,0,1:0:0:0:
222,324,254068,1,0,1:0:0:0:
210,303,254165,1,0,1:0:0:0:
203,279,254262,1,0,1:0:0:0:
201,255,254358,1,0,1:0:0:0:
205,231,254455,1,0,1:0:0:0:
214,208,254552,1,0,1:0:0:0:
230,190,254649,37,0,1:0:0:0:
249,207,254713,1,0,1:0:0:0:
273,217,254778,1,0,1:0:0:0:
299,220,254842,1,0,1:0:0:0:
325,217,254907,1,0,1:0:0:0:
350,208,254971,1,0,1:0:0:0:
371,192,255036,1,0,1:0:0:0:
387,171,255100,1,0,1:0:0:0:
397,146,255165,1,0,1:0:0:0:
401,119,255229,1,0,1:0:0:0:
397,92,255294,1,0,1:0:0:0:
384,68,255358,1,0,1:0:0:0:
364,49,255423,5,14,1:2:0:0:
329,46,255487,1,2,1:2:0:0:
301,67,255552,1,2,1:2:0:0:
286,98,255617,1,2,1:2:0:0:
251,101,255681,1,2,1:2:0:0:
222,81,255746,1,2,1:2:0:0:
195,58,255810,38,2,L|123:50,1,40
102,95,256004,2,2,L|46:100,1,40,2|2,0:0|0:0,0:0:0:0:
28,188,256197,2,2,L|64:169,3,40,2|2|2|2,0:0|0:0|0:0|0:0,0:0:0:0:
76,253,256584,2,2,L|62:298,1,40
146,345,256778,2,2,L|164:298,1,40
157,226,256971,5,2,0:0:0:0:
186,189,257068,1,2,0:0:0:0:
234,195,257165,1,2,0:0:0:0:
266,228,257262,1,2,0:0:0:0:
270,272,257358,1,2,0:0:0:0:
313,287,257455,1,2,0:0:0:0:
354,270,257552,1,2,0:0:0:0:
380,233,257649,1,2,0:0:0:0:
367,187,257746,5,2,0:0:0:0:
363,176,257810,1,2,0:0:0:0:
361,165,257875,1,2,0:0:0:0:
392,135,257939,1,2,0:0:0:0:
399,127,258004,1,2,0:0:0:0:
406,119,258068,1,2,0:0:0:0:
399,79,258133,1,2,0:0:0:0:
376,70,258197,1,2,0:0:0:0:
352,71,258262,1,2,0:0:0:0:
332,83,258326,2,2,L|290:93,1,40
221,123,258520,53,2,0:0:0:0:
217,161,258617,1,2,0:0:0:0:
229,191,258713,1,2,0:0:0:0:
263,206,258810,1,2,0:0:0:0:
328,234,258907,1,2,0:0:0:0:
332,272,259004,1,2,0:0:0:0:
308,305,259100,1,2,0:0:0:0:
270,313,259197,1,2,0:0:0:0:
203,303,259294,1,2,0:0:0:0:
170,274,259391,1,2,0:0:0:0:
171,230,259487,1,2,0:0:0:0:
142,197,259584,1,2,0:0:0:0:
118,164,259681,37,2,0:0:0:0:
89,157,259746,1,2,0:0:0:0:
60,162,259810,1,2,0:0:0:0:
40,184,259875,1,2,0:0:0:0:
35,212,259939,1,2,0:0:0:0:
46,239,260004,1,2,0:0:0:0:
70,254,260068,54,2,L|52:302,1,40
125,302,260262,2,2,L|121:336,2,20,2|2|2,0:0|0:0|0:0,0:0:0:0:
193,295,260455,2,2,L|190:249,1,40
257,256,260649,2,2,L|247:211,1,40
194,177,260842,1,2,0:0:0:0:
218,137,260939,1,2,0:0:0:0:
193,94,261036,1,2,0:0:0:0:
227,59,261133,1,2,0:0:0:0:
272,67,261229,1,2,0:0:0:0:
311,46,261326,1,2,0:0:0:0:
357,55,261423,1,10,0:0:0:0:
386,88,261520,1,2,0:0:0:0:
382,131,261617,38,2,L|339:159,1,40,10|2,0:0|0:0,0:0:0:0:
324,190,261810,1,2,0:0:0:0:
342,235,261907,1,2,0:0:0:0:
388,245,262004,2,2,L|373:298,1,40
369,327,262197,2,2,L|314:368,1,40
290,352,262391,53,2,0:0:0:0:
258,325,262455,1,2,0:0:0:0:
219,322,262520,1,2,0:0:0:0:
178,336,262584,1,2,0:0:0:0:
144,311,262649,1,2,0:0:0:0:
136,272,262713,1,2,0:0:0:0:
158,239,262778,38,2,L|193:219,1,40
96,210,262971,2,2,L|60:228,1,40
122,141,263165,54,0,L|166:126,2,26.6666666666667
220,84,263358,2,0,L|210:129,2,26.6666666666667
222,187,263552,2,0,L|187:156,2,26.6666666666667
292,161,263746,2,0,L|326:130,2,26.6666666666667
380,175,263939,1,2,0:0:0:0:
386,196,264004,1,0,0:0:0:0:
392,215,264068,1,0,0:0:0:0:
381,259,264133,1,0,0:0:0:0:
384,279,264197,1,0,0:0:0:0:
385,302,264262,1,0,0:0:0:0:
343,314,264326,6,2,L|287:301,1,40
233,261,264520,2,2,L|287:252,1,40
311,222,264713,1,2,0:0:0:0:
357,229,264810,1,2,0:0:0:0:
397,198,264907,2,2,L|438:189,1,40
455,134,265100,2,2,L|516:122,3,40,2|2|2|2,0:0|0:0|0:0|0:0,0:0:0:0:
390,129,265487,54,2,L|397:90,2,26.6666666666667,2|2|2,0:0|0:0|0:0,0:0:0:0:
326,110,265681,2,2,L|330:66,2,26.6666666666667,2|2|2,0:0|0:0|0:0,0:0:0:0:
262,99,265875,2,2,L|267:65,2,26.6666666666667,2|2|2,0:0|0:0|0:0,0:0:0:0:
201,93,266068,2,2,L|203:59,2,26.6666666666667,0|2|0,0:0|0:0|0:0,0:0:0:0:
142,119,266262,5,2,0:0:0:0:
128,152,266326,1,2,0:0:0:0:
131,188,266391,1,2,0:0:0:0:
157,212,266455,2,2,L|202:202,2,26.6666666666667,2|2|2,0:0|0:0|0:0,0:0:0:0:
204,262,266649,1,2,0:0:0:0:
237,273,266713,1,2,0:0:0:0:
272,260,266778,1,2,0:0:0:0:
292,233,266842,2,2,L|271:196,2,26.6666666666667,2|2|2,0:0|0:0|0:0,0:0:0:0:
232,170,267036,69,2,0:0:0:0:
223,131,267100,1,2,0:0:0:0:
240,99,267165,1,2,0:0:0:0:
272,81,267229,2,2,L|315:88,2,26.6666666666667,2|2|2,0:0|0:0|0:0,0:0:0:0:
340,134,267423,1,2,0:0:0:0:
374,150,267487,1,2,0:0:0:0:
409,142,267552,1,2,0:0:0:0:
430,109,267617,2,2,L|423:78,2,26.6666666666667,10|2|2,0:0|0:0|0:0,0:0:0:0:
365,72,267810,5,14,0:0:0:0:
375,252,268004,2,2,L|380:281,2,26.6666666666667,2|2|2,0:0|0:0|0:0,0:0:0:0:
351,232,268197,1,2,0:0:0:0:
309,221,268262,1,2,0:0:0:0:
271,238,268326,1,2,0:0:0:0:
234,244,268391,2,2,L|193:221,2,26.6666666666667,2|2|2,0:0|0:0|0:0,0:0:0:0:
220,284,268584,1,2,0:0:0:0:
212,325,268649,1,2,0:0:0:0:
173,339,268713,1,2,0:0:0:0:
141,308,268778,1,2,0:0:0:0:
99,315,268842,1,2,0:0:0:0:
63,294,268907,1,2,0:0:0:0:
24,297,268971,22,2,L|-6:249,1,40
38,198,269165,2,2,L|63:242,1,40
111,187,269358,1,2,0:0:0:0:
96,158,269455,1,2,0:0:0:0:
84,132,269552,2,2,L|99:87,1,40
134,85,269746,1,2,0:0:0:0:
175,93,269842,1,2,0:0:0:0:
205,63,269939,1,2,0:0:0:0:
246,75,270036,1,2,0:0:0:0:
268,107,270133,37,2,0:0:0:0:
262,138,270197,1,0,0:0:0:0:
256,169,270262,1,0,0:0:0:0:
250,200,270326,1,0,0:0:0:0:
244,231,270391,1,0,0:0:0:0:
238,262,270455,1,0,0:0:0:0:
234,314,270520,54,2,L|284:322,1,40,2|2,0:0|0:0,0:0:0:0:
325,273,270713,2,2,L|374:264,1,40,10|2,0:0|0:0,0:0:0:0:
430,289,270907,37,14,0:0:0:0:
445,133,271100,1,2,0:0:0:0:
450,137,271165,1,2,0:0:0:0:
455,141,271229,1,2,0:0:0:0:
460,144,271294,2,2,B|470:93|470:93|440:19,1,120.000004577637
325,273,271681,69,14,0:0:0:0:
298,154,271875,1,2,0:0:0:0:
292,150,271939,1,2,0:0:0:0:
286,146,272004,1,2,0:0:0:0:
280,142,272068,2,2,B|234:149|234:149|166:208,1,120.000004577637
63,272,272455,6,0,L|105:261,2,26.6666666666667,2|2|2,0:0|0:0|0:0,0:0:0:0:
175,246,272649,2,0,L|223:264,2,26.6666666666667,2|2|2,0:0|0:0|0:0,0:0:0:0:
254,319,272842,2,0,L|292:307,2,26.6666666666667,2|2|2,0:0|0:0|0:0,0:0:0:0:
378,299,273036,2,0,L|421:289,2,26.6666666666667,2|2|2,0:0|0:0|0:0,0:0:0:0:
450,235,273229,54,2,L|483:170,1,40
409,135,273423,2,2,L|395:184,1,40
316,156,273617,2,2,L|316:101,1,40
226,128,273810,2,2,L|234:168,1,40,10|2,0:0|0:0,0:0:0:0:
169,212,274004,37,10,0:0:0:0:
133,237,274100,1,2,0:0:0:0:
90,229,274197,1,2,0:0:0:0:
64,195,274294,1,2,0:0:0:0:
72,152,274391,2,0,L|49:120,2,26.6666666666667,2|2|2,0:0|0:0|0:0,0:0:0:0:
116,105,274584,2,0,L|111:71,2,26.6666666666667,2|2|2,0:0|0:0|0:0,0:0:0:0:
181,118,274778,6,2,L|212:61,1,40
235,57,274971,1,2,0:0:0:0:
273,76,275068,2,2,L|320:46,1,40
348,62,275262,1,2,0:0:0:0:
380,87,275358,2,2,L|434:76,1,40
461,93,275552,37,14,0:0:0:0:
458,114,275617,1,2,0:0:0:0:
455,135,275681,1,0,0:0:0:0:
452,156,275746,1,0,0:0:0:0:
449,177,275810,1,0,0:0:0:0:
447,198,275875,1,0,0:0:0:0:
383,186,275939,1,0,0:0:0:0:
375,206,276004,1,0,0:0:0:0:
367,225,276068,1,0,0:0:0:0:
359,245,276133,1,0,0:0:0:0:
351,264,276197,1,0,0:0:0:0:
343,284,276262,1,0,0:0:0:0:
305,231,276326,5,2,0:0:0:0:
305,225,276391,2,2,L|309:177,1,26.6666666666667
248,168,276520,1,2,0:0:0:0:
247,162,276584,2,2,L|242:115,1,26.6666666666667
174,128,276713,1,2,0:0:0:0:
171,123,276778,2,2,L|159:88,1,26.6666666666667
91,116,276907,1,2,0:0:0:0:
86,112,276971,2,2,L|52:92,1,26.6666666666667
49,167,277100,69,14,0:0:0:0:
11,191,277165,1,2,0:0:0:0:
15,236,277229,1,2,0:0:0:0:
7,281,277294,1,2,0:0:0:0:
27,318,277358,1,2,0:0:0:0:
71,330,277423,1,2,0:0:0:0:
111,310,277487,1,2,0:0:0:0:
154,321,277552,1,2,0:0:0:0:
165,360,277617,1,2,0:0:0:0:
210,371,277681,1,2,0:0:0:0:
254,373,277746,1,2,0:0:0:0:
297,365,277810,1,2,0:0:0:0:
322,326,277875,5,14,0:0:0:0:
302,286,277939,1,2,0:0:0:0:
259,277,278004,1,2,0:0:0:0:
228,243,278068,1,2,0:0:0:0:
233,200,278133,1,2,0:0:0:0:
257,167,278197,1,2,0:0:0:0:
299,165,278262,1,2,0:0:0:0:
343,176,278326,1,2,0:0:0:0:
385,158,278391,1,2,0:0:0:0:
395,114,278455,1,2,0:0:0:0:
376,70,278520,1,2,0:0:0:0:
334,48,278584,1,2,0:0:0:0:
290,58,278649,6,0,L|244:72,1,40,8|0,0:0|0:0,0:0:0:0:
170,123,278842,2,0,L|216:109,1,40,8|0,0:0|0:0,0:0:0:0:
218,22,279036,2,0,L|172:36,1,40,8|0,0:0|0:0,0:0:0:0:
92,82,279229,2,0,L|138:68,1,40,8|0,0:0|0:0,0:0:0:0:
52,131,279423,1,8,0:0:0:0:
59,149,279520,1,8,0:0:0:0:
66,167,279617,1,8,0:0:0:0:
73,185,279713,1,8,0:0:0:0:
80,203,279810,1,8,0:0:0:0:
87,221,279907,1,8,0:0:0:0:
94,239,280004,1,8,0:0:0:0:
101,257,280100,1,8,0:0:0:0:
108,275,280197,6,0,P|175:247|264:264,1,150,12|0,0:0|0:0,0:0:0:0:
309,292,280584,1,8,0:3:0:0:
463,216,280778,1,0,0:0:0:0:
469,207,280875,1,0,0:0:0:0:
475,199,280972,2,0,P|490:143|437:49,1,150,8|0,0:0|0:0,0:0:0:0:
396,109,281358,2,0,P|354:127|293:113,1,100,8|0,0:3|0:0,0:0:0:0:
111,54,281746,6,0,P|182:40|259:80,1,150,8|0,0:0|0:0,0:0:0:0:
174,117,282133,1,8,0:3:0:0:
325,32,282326,1,0,0:0:0:0:
334,28,282423,1,0,0:0:0:0:
343,25,282520,2,0,P|305:105|329:176,1,150,8|0,0:0|0:0,0:0:0:0:
345,281,282907,2,0,P|379:246|380:197,1,100,8|0,0:3|0:0,0:0:0:0:
162,191,283294,5,8,0:0:0:0:
148,185,283391,1,0,0:0:0:0:
42,293,283584,1,0,0:0:0:0:
28,286,283681,1,8,0:3:0:0:
191,298,283875,1,0,0:0:0:0:
177,292,283971,1,0,0:0:0:0:
162,286,284068,2,0,P|240:284|293:224,1,150,8|0,0:0|0:0,0:0:0:0:
307,73,284455,2,0,P|275:110|270:159,2,100,8|0|8,0:3|0:0|0:0,0:0:0:0:
453,57,285036,5,0,0:0:0:0:
483,89,285100,1,0,0:0:0:0:
473,136,285165,1,0,0:0:0:0:
426,144,285229,1,8,0:3:0:0:
392,178,285294,1,0,0:0:0:0:
400,224,285358,1,0,0:0:0:0:
433,256,285423,1,0,0:0:0:0:
415,302,285487,1,0,0:0:0:0:
369,310,285552,1,0,0:0:0:0:
330,281,285617,1,8,0:0:0:0:
285,295,285681,1,0,0:0:0:0:
241,278,285746,1,0,0:0:0:0:
221,235,285810,1,0,0:0:0:0:
236,192,285875,1,0,0:0:0:0:
211,153,285939,1,0,0:0:0:0:
164,151,286004,2,0,L|117:166,2,33.3333333333333,8|0|0,0:3|0:0|0:0,0:0:0:0:
93,186,286197,2,0,L|48:178,2,33.3333333333333,0|0|0,0:0|0:0|0:0,0:0:0:0:
24,208,286391,22,0,P|32:285|91:335,1,150,8|0,0:0|0:0,0:0:0:0:
117,243,286778,2,0,P|166:255|221:231,1,100,8|0,0:3|0:0,0:0:0:0:
257,56,287165,1,8,0:0:0:0:
393,185,287358,1,0,0:0:0:0:
390,194,287455,1,0,0:0:0:0:
387,203,287552,2,0,P|312:221|230:189,1,150,8|0,0:3|0:0,0:0:0:0:
103,37,287939,5,8,0:0:0:0:
58,128,288133,1,0,0:0:0:0:
158,122,288326,1,8,0:3:0:0:
166,336,288520,1,0,0:0:0:0:
75,294,288713,1,8,0:0:0:0:
158,237,288907,1,0,0:0:0:0:
170,244,289004,1,0,0:0:0:0:
184,251,289100,2,0,L|158:131,1,100,8|0,0:3|0:0,0:0:0:0:
235,66,289487,5,8,0:0:0:0:
243,104,289584,1,0,0:0:0:0:
254,137,289681,2,0,L|283:99,2,33.3333333333333,0|0|0,0:0|0:0|0:0,0:0:0:0:
338,105,289875,2,0,L|362:71,2,33.3333333333333,8|0|0,0:3|0:0|0:0,0:0:0:0:
417,87,290068,2,0,L|447:44,2,33.3333333333333,0|0|0,0:0|0:0|0:0,0:0:0:0:
440,145,290262,37,8,0:0:0:0:
418,171,290326,1,0,0:0:0:0:
386,184,290391,1,0,0:0:0:0:
354,179,290455,1,0,0:0:0:0:
318,188,290520,1,0,0:0:0:0:
296,213,290584,1,0,0:0:0:0:
295,249,290649,1,8,0:3:0:0:
312,277,290713,1,0,0:0:0:0:
346,289,290778,1,0,0:0:0:0:
378,274,290842,1,0,0:0:0:0:
413,282,290907,1,0,0:0:0:0:
431,319,290971,1,0,0:0:0:0:
423,352,291036,1,8,0:0:0:0:
246,357,291229,69,0,0:0:0:0:
232,342,291294,1,0,0:0:0:0:
218,327,291358,1,0,0:0:0:0:
204,312,291423,70,0,L|224:253,1,50,8|0,0:3|0:0,0:0:0:0:
295,249,291617,2,0,L|276:307,1,50
181,208,291810,1,8,0:0:0:0:
173,178,291907,1,0,0:0:0:0:
178,148,292004,1,0,0:0:0:0:
194,123,292100,1,0,0:0:0:0:
218,105,292197,1,8,0:3:0:0:
246,95,292294,1,0,0:0:0:0:
276,94,292391,1,8,0:0:0:0:
304,101,292487,1,0,0:0:0:0:
328,117,292584,38,0,L|297:156,3,50,8|0|0|0,0:0|0:0|0:0|0:0,0:0:0:0:
236,233,292971,2,0,L|171:242,3,50,8|0|0|0,0:3|0:0|0:0|0:0,0:0:0:0:
97,189,293358,2,0,L|43:170,1,50,8|0,0:0|0:0,0:0:0:0:
15,90,293552,2,0,L|75:112,1,50
167,145,293746,2,0,L|99:122,1,50,8|0,0:3|0:0,0:0:0:0:
90,51,293939,2,0,L|148:71,1,50
165,216,294133,5,8,0:0:0:0:
165,216,294229,1,0,0:0:0:0:
165,216,294326,2,0,L|147:282,1,50
250,185,294520,1,8,0:3:0:0:
250,185,294616,1,0,0:0:0:0:
250,185,294713,2,0,L|232:251,1,50
327,159,294907,5,8,0:0:0:0:
327,159,295003,1,0,0:0:0:0:
327,159,295100,2,0,L|345:93,1,50
412,128,295294,1,8,0:3:0:0:
412,128,295390,1,0,0:0:0:0:
412,128,295487,2,0,L|430:62,1,50
483,176,295681,5,8,0:0:0:0:
480,185,295778,1,0,0:0:0:0:
477,194,295875,1,0,0:0:0:0:
474,203,295971,1,0,0:0:0:0:
471,212,296068,1,8,0:3:0:0:
468,221,296165,1,0,0:0:0:0:
465,230,296262,1,0,0:0:0:0:
462,239,296358,1,0,0:0:0:0:
459,248,296455,1,8,0:0:0:0:
456,257,296552,1,0,0:0:0:0:
453,266,296649,1,0,0:0:0:0:
450,275,296746,1,0,0:0:0:0:
446,284,296842,2,0,P|401:298|342:273,1,100,8|0,0:3|0:0,0:0:0:0:
238,188,297229,37,8,0:0:0:0:
106,260,297423,1,0,0:0:0:0:
139,299,297520,1,0,0:0:0:0:
189,299,297617,1,8,0:3:0:0:
236,278,297713,1,0,0:0:0:0:
285,288,297810,1,0,0:0:0:0:
305,334,297907,1,0,0:0:0:0:
354,349,298004,1,8,0:0:0:0:
401,328,298100,1,0,0:0:0:0:
421,282,298197,1,0,0:0:0:0:
419,231,298294,1,0,0:0:0:0:
430,182,298391,6,0,L|412:138,2,33.3333333333333,8|0|0,0:3|0:0|0:0,0:0:0:0:
407,102,298584,2,0,L|415:60,2,33.3333333333333,8|0|0,0:0|0:0|0:0,0:0:0:0:
326,122,298778,5,12,0:0:0:0:
323,131,298875,1,0,0:0:0:0:
320,140,298971,1,0,0:0:0:0:
318,149,299068,1,0,0:0:0:0:
316,158,299165,5,8,0:3:0:0:
280,305,299358,1,0,0:0:0:0:
218,162,299552,1,8,0:0:0:0:
218,162,299649,1,0,0:0:0:0:
218,162,299746,1,0,0:0:0:0:
358,252,299939,1,8,0:3:0:0:
200,252,300133,2,0,L|144:264,1,50
1,218,300326,38,0,B|95:201|95:201|143:155,1,150,12|0,0:0|0:0,0:0:0:0:
192,34,300713,2,0,B|294:43|294:43|336:97,1,150,8|0,0:3|0:0,0:0:0:0:
307,181,301100,2,0,L|284:229,1,50,8|0,0:0|0:0,0:0:0:0:
235,160,301294,2,0,L|260:107,1,50
220,227,301487,2,0,L|197:275,1,50,8|0,0:3|0:0,0:0:0:0:
148,206,301681,2,0,L|173:153,1,50,8|0,0:0|0:0,0:0:0:0:
281,265,301875,5,12,0:0:0:0:
294,272,301971,1,0,0:0:0:0:
307,279,302068,1,0,0:0:0:0:
320,286,302165,1,0,0:0:0:0:
333,293,302262,1,8,0:3:0:0:
346,300,302358,1,0,0:0:0:0:
359,307,302455,1,0,0:0:0:0:
372,314,302552,1,0,0:0:0:0:
385,321,302649,2,0,L|442:306,1,50,8|0,0:0|0:0,0:0:0:0:
482,252,302842,2,0,L|422:240,1,50
388,180,303036,2,0,L|447:174,1,50,8|0,0:3|0:0,0:0:0:0:
498,121,303229,2,0,L|449:112,1,50,8|0,0:0|0:0,0:0:0:0:
402,61,303423,5,8,0:0:0:0:
361,81,303520,1,0,0:0:0:0:
325,45,303617,1,8,0:0:0:0:
281,59,303713,1,0,0:0:0:0:
277,106,303810,1,8,0:0:0:0:
247,137,303907,1,0,0:0:0:0:
262,182,304004,1,8,0:0:0:0:
241,224,304100,1,0,0:0:0:0:
270,264,304197,5,8,0:0:0:0:
264,301,304294,1,0,0:0:0:0:
235,325,304391,1,8,0:0:0:0:
196,319,304487,1,0,0:0:0:0:
173,294,304584,1,8,0:0:0:0:
139,304,304681,1,0,0:0:0:0:
113,297,304778,1,8,0:0:0:0:
91,268,304875,1,0,0:0:0:0:
100,233,304971,21,12,0:0:0:0:
270,264,305165,2,0,L|320:276,2,33.3333333333333,0|0|0,0:0|0:0|0:0,0:0:0:0:
345,295,305358,1,8,0:3:0:0:
391,295,305423,1,0,0:0:0:0:
427,265,305487,1,0,0:0:0:0:
411,219,305552,1,0,0:0:0:0:
383,183,305617,1,0,0:0:0:0:
388,139,305681,1,0,0:0:0:0:
417,105,305746,69,8,0:0:0:0:
410,58,305810,1,0,0:0:0:0:
370,40,305875,1,0,0:0:0:0:
328,51,305939,1,0,0:0:0:0:
282,47,306004,1,0,0:0:0:0:
241,69,306068,1,0,0:0:0:0:
232,110,306133,1,8,0:3:0:0:
251,153,306197,1,0,0:0:0:0:
229,192,306262,1,0,0:0:0:0:
184,195,306326,1,0,0:0:0:0:
146,168,306391,1,0,0:0:0:0:
127,129,306455,1,0,0:0:0:0:
79,116,306520,22,0,L|21:153,3,50,8|0|0|0,0:0|0:0|0:0|0:0,0:0:0:0:
28,248,306907,2,0,L|87:215,3,50,8|0|0|0,0:3|0:0|0:0|0:0,0:0:0:0:
188,140,307294,2,0,L|244:154,1,50,8|0,0:0|0:0,0:0:0:0:
286,241,307487,2,0,L|326:199,1,50
423,209,307681,2,0,L|407:153,1,50,8|0,0:3|0:0,0:0:0:0:
461,73,307874,2,0,L|405:59,1,50
323,7,308068,6,0,P|295:47|290:96,1,100,8|0,0:0|0:0,0:0:0:0:
79,58,308455,2,0,P|85:106|115:145,1,100,8|0,0:3|0:0,0:0:0:0:
149,316,308842,1,8,0:0:0:0:
255,168,309036,1,0,0:0:0:0:
264,160,309133,1,0,0:0:0:0:
272,152,309229,1,8,0:3:0:0:
88,187,309423,1,0,0:0:0:0:
97,179,309520,1,0,0:0:0:0:
105,171,309616,1,8,0:0:0:0:
213,258,309810,53,2,0:0:0:0:
236,288,309875,1,2,0:0:0:0:
274,295,309939,1,2,0:0:0:0:
310,272,310004,1,10,0:3:0:0:
293,231,310068,1,2,0:0:0:0:
294,186,310133,1,2,0:0:0:0:
317,149,310197,1,2,0:0:0:0:
306,106,310262,1,2,0:0:0:0:
271,81,310326,1,2,0:0:0:0:
225,82,310391,38,0,L|174:110,1,50,8|0,0:0|0:0,0:0:0:0:
97,67,310584,2,0,L|125:118,1,50
79,197,310778,2,0,L|130:169,1,50,8|0,0:3|0:0,0:0:0:0:
207,212,310971,2,0,L|179:161,1,50
140,250,311165,5,8,0:0:0:0:
147,263,311262,1,0,0:0:0:0:
154,275,311358,1,0,0:0:0:0:
161,288,311455,1,0,0:0:0:0:
220,336,311552,37,8,0:3:0:0:
232,320,311649,1,0,0:0:0:0:
244,304,311746,1,0,0:0:0:0:
256,288,311842,1,0,0:0:0:0:
299,227,311939,5,8,0:0:0:0:
321,237,312036,1,0,0:0:0:0:
343,247,312133,1,0,0:0:0:0:
365,256,312229,1,0,0:0:0:0:
437,280,312326,5,8,0:3:0:0:
450,253,312423,1,0,0:0:0:0:
463,226,312520,1,0,0:0:0:0:
476,199,312617,1,0,0:0:0:0:
511,122,312713,6,0,L|470:98,2,33.3333333333333,8|0|0,0:0|0:0|0:0,0:0:0:0:
424,124,312907,2,0,L|386:138,2,33.3333333333333,0|0|0,0:0|0:0|0:0,0:0:0:0:
338,97,313100,1,8,0:3:0:0:
308,58,313197,1,0,0:0:0:0:
259,41,313294,1,0,0:0:0:0:
212,57,313391,1,0,0:0:0:0:
211,104,313487,1,8,0:0:0:0:
246,138,313584,1,0,0:0:0:0:
231,184,313681,1,0,0:0:0:0:
183,197,313778,1,0,0:0:0:0:
150,162,313875,1,8,0:3:0:0:
104,149,313971,1,0,0:0:0:0:
60,168,314068,1,0,0:0:0:0:
42,212,314165,1,0,0:0:0:0:
50,261,314262,38,0,P|96:280|160:272,1,100,8|0,0:0|0:0,0:0:0:0:
217,221,314552,1,0,0:0:0:0:
217,221,314649,2,0,P|283:193|370:218,1,150,8|0,0:3|0:0,0:0:0:0:
414,251,315036,1,8,0:0:0:0:
295,349,315229,1,0,0:0:0:0:
282,341,315326,1,0,0:0:0:0:
268,333,315423,2,0,L|288:245,1,66.6666666666667,8|0,0:3|0:0,0:0:0:0:
346,213,315617,2,0,L|341:153,1,50,8|0,0:0|0:0,0:0:0:0:
290,116,315810,5,8,0:0:0:0:
217,221,316004,1,0,0:0:0:0:
98,176,316197,1,8,0:3:0:0:
111,48,316391,1,0,0:0:0:0:
230,4,316584,2,0,L|195:78,1,50,8|0,0:0|0:0,0:0:0:0:
200,126,316778,2,0,L|257:175,1,50
289,216,316971,2,0,L|256:274,1,50,8|0,0:3|0:0,0:0:0:0:
258,338,317165,2,0,L|189:355,1,50,8|0,0:0|0:0,0:0:0:0:
143,359,317358,5,12,0:0:0:0:
113,363,317455,1,0,0:0:0:0:
82,361,317552,1,0,0:0:0:0:
54,349,317649,1,0,0:0:0:0:
34,326,317746,1,8,0:3:0:0:
24,297,317842,1,0,0:0:0:0:
20,267,317939,1,0,0:0:0:0:
25,237,318036,1,0,0:0:0:0:
42,212,318133,5,8,0:0:0:0:
88,194,318229,1,0,0:0:0:0:
134,213,318326,1,0,0:0:0:0:
177,237,318423,1,0,0:0:0:0:
228,230,318520,1,8,0:3:0:0:
264,196,318617,1,0,0:0:0:0:
314,191,318713,1,0,0:0:0:0:
358,214,318810,1,0,0:0:0:0:
431,156,318907,38,0,L|455:94,3,50,8|0|0|0,0:0|0:0|0:0|0:0,0:0:0:0:
358,214,319294,2,0,L|334:276,3,50,8|0|0|0,0:3|0:0|0:0|0:0,0:0:0:0:
376,116,319681,2,0,L|400:54,3,50,8|0|0|0,0:0|0:0|0:0|0:0,0:0:0:0:
415,253,320068,2,0,L|391:315,3,50,10|0|0|0,0:3|0:0|0:0|0:0,0:0:0:0:
478,212,320455,5,8,0:0:0:0:
488,164,320552,1,0,0:0:0:0:
482,117,320649,1,0,0:0:0:0:
463,70,320746,1,0,0:0:0:0:
420,91,320842,1,8,0:3:0:0:
373,84,320939,1,0,0:0:0:0:
328,64,321036,1,0,0:0:0:0:
286,89,321133,1,0,0:0:0:0:
290,136,321229,5,8,0:0:0:0:
285,185,321326,1,0,0:0:0:0:
242,207,321423,1,0,0:0:0:0:
194,197,321520,1,0,0:0:0:0:
160,161,321617,1,8,0:3:0:0:
113,156,321713,1,0,0:0:0:0:
72,183,321810,1,0,0:0:0:0:
52,229,321907,1,0,0:0:0:0:
58,276,322004,6,0,L|112:289,1,50,8|0,0:0|0:0,0:0:0:0:
133,207,322197,2,0,L|181:218,1,50
205,137,322391,2,0,L|259:150,1,50,8|0,0:3|0:0,0:0:0:0:
288,72,322584,2,0,L|336:83,1,50
418,52,322778,1,8,0:0:0:0:
436,81,322875,1,0,0:0:0:0:
446,113,322971,1,0,0:0:0:0:
444,148,323068,1,0,0:0:0:0:
425,178,323165,1,8,0:3:0:0:
396,198,323262,1,0,0:0:0:0:
361,204,323358,1,0,0:0:0:0:
330,221,323455,1,0,0:0:0:0:
317,253,323552,37,12,0:0:0:0:
324,259,323649,1,0,0:0:0:0:
331,265,323746,1,0,0:0:0:0:
338,271,323842,1,0,0:0:0:0:
345,277,323939,5,8,0:3:0:0:
168,246,324133,1,0,0:0:0:0:
287,345,324326,1,8,0:0:0:0:
225,177,324520,1,0,0:0:0:0:
222,171,324617,1,0,0:0:0:0:
218,164,324713,1,8,0:3:0:0:
199,329,324907,1,8,0:0:0:0:
314,192,325100,1,8,0:0:0:0:
327,185,325197,1,0,0:0:0:0:
340,178,325294,1,0,0:0:0:0:
353,171,325391,1,0,0:0:0:0:
366,164,325487,1,8,0:3:0:0:
379,157,325584,1,0,0:0:0:0:
392,150,325681,1,0,0:0:0:0:
405,143,325778,1,0,0:0:0:0:
418,135,325875,6,0,P|368:135|322:114,1,100,8|8,0:0|0:0,0:0:0:0:
218,165,326165,2,0,P|206:116|215:67,1,100
293,29,326455,1,8,0:0:0:0:
248,238,326649,5,12,0:0:0:0:
219,270,326746,1,0,0:0:0:0:
174,260,326842,1,8,0:0:0:0:
129,270,326939,1,0,0:0:0:0:
81,253,327036,1,8,0:0:0:0:
54,215,327133,1,0,0:0:0:0:
64,168,327229,1,8,0:0:0:0:
52,125,327326,1,0,0:0:0:0:
69,82,327423,38,0,L|120:70,1,50,8|0,0:0|0:0,0:0:0:0:
226,111,327617,2,0,L|175:123,1,50,8|0,0:0|0:0,0:0:0:0:
147,205,327810,2,0,L|198:193,1,50,8|0,0:0|0:0,0:0:0:0:
302,145,328004,2,0,L|353:133,1,50,8|0,0:0|0:0,0:0:0:0:
445,83,328197,53,8,0:0:0:0:
476,108,328262,1,0,0:0:0:0:
477,147,328326,1,0,0:0:0:0:
452,178,328391,1,0,0:0:0:0:
441,216,328455,1,0,0:0:0:0:
444,256,328520,1,0,0:0:0:0:
426,291,328584,1,0,0:0:0:0:
389,307,328649,1,0,0:0:0:0:
350,298,328713,1,0,0:0:0:0:
312,284,328778,1,0,0:0:0:0:
304,245,328842,5,0,0:0:0:0:
273,218,328907,1,0,0:0:0:0:
233,212,328971,1,0,0:0:0:0:
194,224,329036,1,0,0:0:0:0:
164,197,329100,1,0,0:0:0:0:
124,202,329165,1,0,0:0:0:0:
94,228,329229,1,0,0:0:0:0:
79,265,329294,1,0,0:0:0:0:
88,303,329358,1,0,0:0:0:0:
119,328,329423,1,0,0:0:0:0:
158,333,329487,2,0,P|206:313|258:320,1,100
279,336,329746,70,4,P|356:320|394:209,1,191.999994140625,12|4,0:0|0:0,0:0:0:0:
104,136,330907,37,0,0:0:0:0:
118,172,331004,1,0,0:0:0:0:
151,193,331100,1,0,0:0:0:0:
190,195,331197,1,0,0:0:0:0:
222,171,331294,2,0,L|271:160,1,40
329,184,331487,2,0,L|378:173,1,40
441,222,331681,2,0,L|392:233,1,40
346,276,331875,2,0,L|297:287,1,40
250,328,332068,5,0,0:0:0:0:
226,321,332165,1,0,0:0:0:0:
202,314,332262,1,0,0:0:0:0:
179,307,332358,1,0,0:0:0:0:
156,316,332455,1,0,0:0:0:0:
133,324,332552,1,0,0:0:0:0:
108,324,332649,1,8,0:0:0:0:
84,318,332746,1,0,0:0:0:0:
66,301,332842,6,0,L|22:283,2,26.6666666666667,8|0|0,0:0|0:0|0:0,0:0:0:0:
96,246,333036,2,0,L|126:263,2,26.6666666666667,0|0|0,0:0|0:0|0:0,0:0:0:0:
37,231,333229,1,0,0:0:0:0:
42,203,333326,1,0,0:0:0:0:
48,175,333423,1,0,0:0:0:0:
54,147,333520,1,0,0:0:0:0:
60,119,333617,1,0,0:0:0:0:
184,39,334004,22,0,L|175:84,2,26.6666666666667,0|0|0,0:0|0:0|0:0,0:0:0:0:
220,113,334197,2,0,L|231:158,2,26.6666666666667,0|0|0,0:0|0:0|0:0,0:0:0:0:
271,183,334391,2,0,L|260:227,2,26.6666666666667,0|0|0,0:0|0:0|0:0,0:0:0:0:
219,252,334584,2,0,L|225:295,2,26.6666666666667,0|0|0,0:0|0:0|0:0,0:0:0:0:
229,333,334778,69,0,0:0:0:0:
244,336,334842,1,0,0:0:0:0:
259,338,334907,1,0,0:0:0:0:
273,337,334971,1,0,0:0:0:0:
289,335,335036,1,0,0:0:0:0:
304,330,335100,1,0,0:0:0:0:
318,323,335165,1,0,0:0:0:0:
331,314,335229,1,0,0:0:0:0:
342,302,335294,1,0,0:0:0:0:
350,288,335358,6,0,L|401:293,2,26.6666666666667,8|0|0,0:0|0:0|0:0,0:0:0:0:
423,255,335552,2,0,L|461:245,2,26.6666666666667,0|0|0,0:0|0:0|0:0,0:0:0:0:
473,194,335746,2,0,L|500:172,2,26.6666666666667,8|0|0,0:0|0:0|0:0,0:0:0:0:
477,119,335939,1,12,0:0:0:0:
344,200,336326,6,0,L|376:193,2,26.6666666666667,0|0|0,0:0|0:0|0:0,0:0:0:0:
297,239,336520,2,0,L|244:228,1,40
216,235,336713,1,0,0:0:0:0:
182,210,336810,1,0,0:0:0:0:
176,166,336907,1,0,0:0:0:0:
208,136,337004,1,0,0:0:0:0:
220,95,337100,1,0,0:0:0:0:
198,56,337197,1,0,0:0:0:0:
154,45,337294,1,0,0:0:0:0:
113,62,337391,1,0,0:0:0:0:
59,95,337487,6,0,B|16:93,2,26.6666666666667,0|0|0,0:0|0:0|0:0,0:0:0:0:
100,145,337681,2,0,L|171:146,1,40
46,177,337875,2,0,B|3:175,2,26.6666666666667,0|0|0,0:0|0:0|0:0,0:0:0:0:
87,227,338069,2,0,L|158:228,1,40
185,184,338262,5,0,0:0:0:0:
202,220,338358,1,0,0:0:0:0:
197,262,338455,1,0,0:0:0:0:
169,292,338552,1,0,0:0:0:0:
105,325,338649,1,0,0:0:0:0:
72,304,338746,1,0,0:0:0:0:
63,261,338842,1,8,0:0:0:0:
87,227,338939,1,0,0:0:0:0:
140,237,339036,6,0,L|192:255,1,40,12|0,0:0|0:0,0:0:0:0:
235,283,339229,2,0,L|294:266,1,40
339,255,339423,2,0,L|382:270,1,40
443,274,339617,2,0,L|492:264,2,40,0|0|0,0:0|0:0|0:0,0:0:0:0:
324,346,340197,37,0,0:0:0:0:
280,357,340294,1,0,0:0:0:0:
236,339,340391,1,0,0:0:0:0:
218,296,340487,1,0,0:0:0:0:
246,256,340584,5,0,0:0:0:0:
263,213,340681,1,0,0:0:0:0:
248,168,340778,1,0,0:0:0:0:
205,153,340875,1,0,0:0:0:0:
167,183,340971,5,0,0:0:0:0:
122,189,341068,1,0,0:0:0:0:
77,170,341165,1,0,0:0:0:0:
57,128,341262,1,0,0:0:0:0:
73,83,341358,5,0,0:0:0:0:
120,86,341455,1,0,0:0:0:0:
166,81,341552,1,8,0:0:0:0:
205,55,341649,1,0,0:0:0:0:
234,17,341746,37,0,0:0:0:0:
280,25,341842,1,0,0:0:0:0:
318,53,341939,1,8,0:0:0:0:
362,38,342036,1,0,0:0:0:0:
408,48,342133,5,12,0:0:0:0:
318,184,342520,37,0,0:0:0:0:
318,184,342584,1,0,0:0:0:0:
318,184,342649,1,0,0:0:0:0:
318,184,342713,2,0,L|266:193,1,40
241,237,342907,54,0,L|204:224,1,40
146,240,343100,2,0,L|97:195,1,40
66,172,343294,1,0,0:0:0:0:
71,203,343391,1,0,0:0:0:0:
76,234,343487,1,0,0:0:0:0:
82,265,343584,1,0,0:0:0:0:
88,296,343681,1,0,0:0:0:0:
229,347,343875,6,0,L|277:340,2,26.6666666666667,0|0|0,0:0|0:0|0:0,0:0:0:0:
311,314,344068,2,0,L|359:307,2,26.6666666666667,0|0|0,0:0|0:0|0:0,0:0:0:0:
393,279,344262,2,0,L|441:272,2,26.6666666666667,0|0|0,0:0|0:0|0:0,0:0:0:0:
372,344,344455,1,0,0:0:0:0:
332,317,344552,1,0,0:0:0:0:
319,273,344649,1,0,0:0:0:0:
336,232,344746,1,0,0:0:0:0:
372,202,344842,37,0,0:0:0:0:
362,161,344939,1,0,0:0:0:0:
325,139,345036,1,8,0:0:0:0:
281,136,345133,1,0,0:0:0:0:
242,153,345229,5,12,0:0:0:0:
109,65,345423,53,0,0:0:0:0:
106,75,345487,1,0,0:0:0:0:
103,85,345552,1,0,0:0:0:0:
100,95,345617,1,0,0:0:0:0:
97,105,345681,1,0,0:0:0:0:
94,115,345746,1,0,0:0:0:0:
91,125,345810,1,0,0:0:0:0:
88,135,345875,1,0,0:0:0:0:
62,240,346004,1,12,0:0:0:0:
178,179,346197,69,0,0:0:0:0:
180,189,346262,1,0,0:0:0:0:
182,199,346326,1,0,0:0:0:0:
184,209,346391,1,0,0:0:0:0:
186,219,346455,1,0,0:0:0:0:
189,229,346520,1,0,0:0:0:0:
192,239,346584,1,0,0:0:0:0:
195,249,346649,1,0,0:0:0:0:
229,348,346778,1,12,0:0:0:0:
315,253,346971,6,0,L|327:216,2,26.6666666666667,0|0|0,0:0|0:0|0:0,0:0:0:0:
310,284,347165,1,0,0:0:0:0:
325,313,347229,1,0,0:0:0:0:
358,325,347294,1,0,0:0:0:0:
397,324,347358,2,0,L|415:348,2,26.6666666666667,0|0|0,0:0|0:0|0:0,0:0:0:0:
424,291,347552,1,0,0:0:0:0:
412,250,347617,1,0,0:0:0:0:
435,216,347681,1,0,0:0:0:0:
423,179,347746,2,0,L|387:169,2,26.6666666666667,0|0|0,0:0|0:0|0:0,0:0:0:0:
453,150,347939,2,0,L|486:158,2,26.6666666666667,0|0|0,0:0|0:0|0:0,0:0:0:0:
440,112,348133,1,8,0:0:0:0:
408,86,348197,1,0,0:0:0:0:
372,84,348262,1,0,0:0:0:0:
338,106,348326,69,12,0:0:0:0:
257,269,348520,1,0,0:0:0:0:
257,269,348584,2,0,L|218:280,1,26.6666666666667
186,294,348713,1,0,0:0:0:0:
186,294,348778,2,0,L|146:289,1,26.6666666666667
111,284,348907,1,0,0:0:0:0:
111,284,348971,2,0,L|82:265,1,26.6666666666667
46,245,349100,1,0,0:0:0:0:
46,245,349165,2,0,L|26:206,1,26.6666666666667
14,176,349294,1,0,0:0:0:0:
14,176,349358,2,0,L|18:135,1,26.6666666666667
22,101,349487,1,0,0:0:0:0:
22,101,349552,2,0,L|42:68,1,26.6666666666667
72,46,349681,1,8,0:0:0:0:
72,46,349746,2,0,L|111:37,1,26.6666666666667
145,29,349875,1,12,0:0:0:0:
181,167,350068,5,0,0:0:0:0:
181,167,350133,2,0,L|212:188,1,26.6666666666667
238,215,350262,1,0,0:0:0:0:
238,215,350326,2,0,L|283:222,1,26.6666666666667
307,240,350455,1,0,0:0:0:0:
307,240,350520,2,0,L|352:235,1,26.6666666666667
381,240,350649,1,0,0:0:0:0:
408,230,350713,1,0,0:0:0:0:
427,208,350778,1,0,0:0:0:0:
430,179,350842,1,0,0:0:0:0:
413,154,350907,1,0,0:0:0:0:
387,140,350971,1,0,0:0:0:0:
365,119,351036,1,0,0:0:0:0:
358,90,351100,1,0,0:0:0:0:
363,60,351165,1,0,0:0:0:0:
379,36,351229,1,12,0:0:0:0:
404,21,351294,1,0,0:0:0:0:
433,19,351358,1,0,0:0:0:0:
460,29,351423,70,0,P|502:97|479:209,1,191.999994140625,12|0,0:0|0:0,0:0:0:0:
236,238,352004,1,0,0:0:0:0:
269,109,352197,2,0,P|310:87|358:90,1,95.9999970703126,12|0,0:0|0:0,0:0:0:0:
427,275,352584,2,0,P|386:297|338:294,1,95.9999970703126
352,135,352971,5,12,0:0:0:0:
316,217,353165,1,0,0:0:0:0:
280,240,353229,1,0,0:0:0:0:
241,220,353294,1,0,0:0:0:0:
231,178,353358,1,0,0:0:0:0:
197,157,353423,1,0,0:0:0:0:
154,168,353487,1,0,0:0:0:0:
118,182,353552,1,0,0:0:0:0:
74,168,353617,1,0,0:0:0:0:
33,190,353681,1,0,0:0:0:0:
31,233,353746,1,0,0:0:0:0:
56,267,353810,1,0,0:0:0:0:
42,309,353875,1,0,0:0:0:0:
65,345,353939,69,0,0:0:0:0:
104,347,354004,1,0,0:0:0:0:
138,322,354068,1,0,0:0:0:0:
153,288,354133,1,0,0:0:0:0:
195,274,354197,1,0,0:0:0:0:
236,289,354262,1,0,0:0:0:0:
260,324,354326,1,0,0:0:0:0:
303,340,354391,1,0,0:0:0:0:
345,331,354455,1,0,0:0:0:0:
374,301,354520,5,12,0:0:0:0:
26,95,360713,6,0,P|78:84|135:105,1,106.666666666667
129,251,361875,1,0,0:0:0:0:
190,269,362068,1,0,0:0:0:0:
245,237,362262,2,0,L|306:231,3,53.3333333333333,0|0|0|0,0:0|0:0|0:0|0:0,0:0:0:0:
316,171,363810,6,0,L|407:161,2,80,0|0|0,0:0|0:0|0:0,0:0:0:0:
94,218,365358,6,0,L|3:228,1,80,0|0,0:0|0:0,0:0:0:0:
137,269,366326,1,0,0:0:0:0:
157,208,366520,1,0,0:0:0:0:
118,156,366713,1,0,0:0:0:0:
160,107,366907,2,0,P|204:90|270:110,1,106.666666666667
441,224,368068,5,0,0:0:0:0:
378,215,368262,1,0,0:0:0:0:
345,159,368455,2,0,L|350:100,1,53.3333333333333
275,206,369229,2,0,L|268:267,1,53.3333333333333
224,143,370004,2,0,P|185:126|149:133,1,80
105,176,370778,2,0,L|98:231,1,53.3333333333333
281,331,371552,38,0,P|296:298|290:248,1,80
248,208,372326,1,0,0:0:0:0:
292,160,372520,1,0,0:0:0:0:
352,184,372713,2,0,L|384:188,1,26.6666666666667
453,248,373100,6,0,P|416:261|378:251,1,80
303,218,373681,2,0,P|266:205|228:212,1,80
156,254,374262,2,0,L|99:242,1,40
77,317,374649,2,0,P|49:245|80:163,1,160
238,58,375810,6,0,L|260:102,1,40
339,125,376197,2,0,P|318:157|277:177,1,80
198,151,376778,2,0,P|174:182|178:226,1,80
246,261,377358,2,0,L|293:243,1,40
356,205,377746,2,0,P|433:197|495:255,1,160
350,347,378907,1,0,0:0:0:0:
156,264,379294,6,0,L|97:203,1,80
210,217,379875,2,0,L|152:156,1,80
37,188,380455,1,0,0:0:0:0:
79,104,380649,1,0,0:0:0:0:
154,159,380842,2,0,P|213:164|267:138,1,120
243,23,381617,2,0,P|184:17|130:43,1,120
282,78,382391,38,0,B|322:80|356:51|356:51|452:69|429:183,1,240
307,295,383939,2,0,B|248:300|208:229|239:182|239:182|322:147,1,240
481,194,385487,6,0,P|394:233|297:223,1,191.999994140625,2|0,0:0|0:0,0:0:0:0:
95,312,386649,1,2,0:0:0:0:
181,124,386842,1,2,0:0:0:0:
63,207,387036,2,0,P|108:218|153:202,1,95.9999970703126,2|2,0:0|0:0,0:0:0:0:
402,124,387810,2,0,P|344:114|306:134,1,95.9999970703126,2|2,0:0|0:0,0:0:0:0:
325,302,388584,2,0,P|402:317|462:270,2,143.999995605469,2|2|0,0:0|0:0|0:0,0:0:0:0:
49,316,391100,5,2,0:0:0:0:
133,316,391293,1,2,0:0:0:0:
198,265,391487,1,2,0:0:0:0:
276,290,391680,2,0,B|343:329|409:297|409:297|431:236,1,191.999994140625,2|0,0:0|0:0,0:0:0:0:
316,70,392842,2,0,L|296:137,1,47.9999985351563,2|2,0:0|0:0,0:0:0:0:
198,231,393229,6,0,P|194:183|216:141,1,95.9999970703126,2|2,0:0|0:0,0:0:0:0:
364,287,394004,2,0,P|324:313|277:315,1,95.9999970703126,2|2,0:0|0:0,0:0:0:0:
323,108,394778,2,0,P|381:146|397:215,1,143.999995605469,2|2,0:0|0:0,0:0:0:0:
435,106,395552,1,2,0:0:0:0:
442,268,397487,37,2,0:0:0:0:
351,243,397681,1,2,0:0:0:0:
275,306,397875,2,0,P|229:317|174:302,1,95.9999970703126,2|0,0:0|0:0,0:0:0:0:
228,228,398455,2,0,P|182:214|142:174,1,95.9999970703126,2|0,0:0|0:0,0:0:0:0:
121,89,399036,1,2,0:0:0:0:
104,73,399423,2,0,P|38:153|49:241,1,191.999994140625,2|0,0:0|0:0,0:0:0:0:
53,302,400584,5,2,0:0:0:0:
143,270,400778,1,2,0:0:0:0:
211,339,400971,2,0,P|257:350|304:344,1,95.9999970703126,2|0,0:0|0:0,0:0:0:0:
263,258,401552,2,0,P|308:245|346:216,1,95.9999970703126,2|0,0:0|0:0,0:0:0:0:
381,125,402133,1,2,0:0:0:0:
504,141,402520,1,2,0:0:0:0:
226,37,403294,5,2,0:0:0:0:
276,148,403584,1,2,0:0:0:0:
178,221,403875,1,2,0:0:0:0:
275,265,404068,2,0,P|369:275|457:240,1,191.999994140625,2|0,0:0|0:0,0:0:0:0:
340,92,405229,1,2,0:0:0:0:
197,141,405617,6,0,P|127:142|71:100,1,143.999995605469,2|0,0:0|0:0,0:0:0:0:
222,59,406391,2,0,P|269:110|269:181,1,143.999995605469,2|0,0:0|0:0,0:0:0:0:
256,192,407165,12,0,408713,3:0:0:0:
