osu file format v14

[General]
AudioFilename: audio.mp3
AudioLeadIn: 0
PreviewTime: 28019
Countdown: 0
SampleSet: Normal
StackLeniency: 0.7
Mode: 0
LetterboxInBreaks: 0
WidescreenStoryboard: 0

[Editor]
Bookmarks: 14881,213502
DistanceSpacing: 1
BeatDivisor: 4
GridSize: 8
TimelineZoom: 1.8

[Metadata]
Title:Think Of England
TitleUnicode:Think Of England
Artist:IAMX
ArtistUnicode:IAMX
Creator:PandaHero
Version:Normal
Source:
Tags:kingdom of welcome addiction chris corner synthpop dark cabaret alternative industrial electronica experimental
BeatmapID:1581885
BeatmapSetID:742442

[Difficulty]
HPDrainRate:3
CircleSize:3.5
OverallDifficulty:3
ApproachRate:5
SliderMultiplier:1
SliderTickRate:1

[Events]
//Background and Video events
0,0,"bg-06.jpg",0,0
//Break Periods
2,94528,106371
2,134053,141543
2,173771,185364
//Storyboard Layer 0 (Background)
//Storyboard Layer 1 (Fail)
//Storyboard Layer 2 (Pass)
//Storyboard Layer 3 (Foreground)
//Storyboard Sound Samples

[TimingPoints]
1640,413.793103448276,4,1,1,60,1,0
28122,-100,4,2,1,55,0,0
41364,-100,4,2,1,55,0,0
54605,-100,4,2,1,60,0,0
65777,-100,4,2,1,40,0,0
67846,-100,4,1,1,60,0,0
107571,-100,4,2,1,55,0,0
134053,-100,4,2,1,40,0,0
143984,-100,4,2,1,25,0,0
147295,-100,4,1,1,60,0,0
187019,-100,4,1,1,65,0,0
213088,-100,4,1,1,65,0,0
213502,-100,4,1,1,40,0,0

[Colours]
Combo1 : 191,179,106
Combo2 : 71,143,143
Combo3 : 112,135,69
Combo4 : 153,113,79

[HitObjects]
64,192,14881,6,2,P|88:280|104:368,2,150,4|8|8,0:0|0:0|0:0,0:2:0:0:
61,91,16536,2,0,P|129:113|226:107,1,150,4|8,0:3|0:0,0:0:0:0:
349,65,17777,1,8,0:0:0:0:
442,100,18191,5,4,0:0:0:0:
432,199,18605,1,4,0:3:0:0:
432,199,18812,2,0,P|337:214|267:270,1,150,8|8,0:0|0:0,0:0:0:0:
254,334,19846,1,4,0:0:0:0:
153,331,20260,1,4,0:3:0:0:
153,331,20467,2,0,P|147:240|131:174,1,150,8|8,0:0|0:0,0:0:0:0:
115,84,21502,6,0,P|188:101|275:94,2,150,4|8|8,0:0|0:0|0:0,0:0:0:0:
37,147,23157,2,0,L|33:321,1,150,4|8,0:3|0:0,0:0:0:0:
114,355,24191,1,4,0:3:0:0:
114,355,24398,2,0,L|202:355,1,50,8|2,0:0|0:2,0:0:0:0:
214,351,24812,6,0,P|225:256|207:174,2,150,4|8|8,1:0|0:0|0:0,0:0:0:0:
314,350,26467,1,4,0:3:0:0:
410,375,26881,1,8,0:0:0:0:
410,375,27088,2,0,P|410:316|422:246,1,100,8|2,0:0|0:3,0:0:0:0:
427,226,27708,2,0,B|353:228,1,50,8|8,0:0|0:0,0:0:0:0:
334,200,28122,5,4,1:0:0:0:
241,239,28536,1,0,3:0:0:0:
241,239,28743,2,0,L|243:384,1,100,8|2,1:3|0:0,0:0:0:0:
195,356,29364,1,8,1:3:0:0:
95,352,29777,6,2,B|72:312|72:312|93:185,2,150,4|10|8,1:3|1:3|1:3,0:0:0:0:
194,342,31433,2,0,L|377:344,1,150,4|8,1:0|1:3,0:0:0:0:
471,265,32674,1,8,0:3:0:0:
395,199,33088,2,0,L|305:199,2,50,4|2|4,1:3|0:3|0:3,0:0:0:0:
437,171,33708,2,0,P|452:108|407:2,1,150,8|8,1:3|0:3,0:0:0:0:
332,55,34743,6,0,L|266:59,1,50,4|4,1:3|0:3,0:0:0:0:
193,105,35364,2,0,P|178:168|223:274,1,150,8|8,1:3|1:3,0:0:0:0:
158,338,36398,2,0,P|103:331|24:342,1,100,4|0,1:3|3:0,0:0:0:0:
13,355,37019,2,0,L|22:183,1,150,8|8,1:3|1:3,0:0:0:0:
73,120,38053,5,4,1:2:0:0:
165,157,38467,1,4,0:3:0:0:
165,157,38674,2,0,P|250:169|330:155,1,150,8|8,1:3|1:3,0:0:0:0:
407,126,39708,1,4,0:3:0:0:
480,193,40122,2,0,L|477:314,2,100,0|2|8,1:0|0:0|1:3,0:0:0:0:
482,92,41364,6,0,B|416:109|416:109|310:80,1,150,4|8,1:2|1:3,0:0:0:0:
292,65,42191,1,4,0:3:0:0:
194,89,42605,1,8,1:3:0:0:
118,154,43019,2,0,B|105:248|105:248|128:324,2,150,4|8|8,1:3|1:3|1:3,0:0:0:0:
212,186,44674,6,0,P|282:207|380:198,1,150,4|8,1:0|1:3,0:0:0:0:
471,301,45915,1,8,1:3:0:0:
392,363,46329,2,0,L|291:365,1,100,4|4,1:3|0:3,0:0:0:0:
271,319,46950,2,0,P|198:311|124:329,1,150,8|8,1:3|1:3,0:0:0:0:
27,355,47984,5,4,1:0:0:0:
20,255,48398,1,4,0:3:0:0:
20,255,48605,2,0,P|32:184|68:90,1,150,8|8,1:3|1:3,0:0:0:0:
157,98,49640,2,0,P|177:157|184:216,1,100,4|4,1:3|0:3,0:0:0:0:
219,228,50260,2,0,B|304:204|285:264|390:233,1,150,8|8,1:3|1:3,0:0:0:0:
450,187,51295,6,0,L|452:109,1,50,4|0,1:2|0:0,0:0:0:0:
455,87,51708,1,4,0:3:0:0:
455,87,51915,2,0,P|371:83|324:16,1,150,8|8,1:3|1:3,0:0:0:0:
239,79,52950,2,0,L|144:78,2,50,4|0|4,1:2|1:0|1:3,0:0:0:0:
260,124,53571,2,0,P|272:179|250:279,1,150,8|8,1:3|0:3,0:0:0:0:
166,317,54605,5,4,1:0:0:0:
113,232,55019,1,2,1:2:0:0:
18,263,55433,2,0,B|24:303|24:303|2:386,1,100,4|8,0:3|1:0,0:0:0:0:
106,379,56260,1,6,1:2:0:0:
194,332,56674,1,2,1:2:0:0:
194,332,56881,2,0,P|273:359|360:337,1,150,8|8,0:1|1:0,0:0:0:0:
436,357,57915,5,6,1:2:0:0:
469,262,58329,1,2,1:3:0:0:
387,204,58743,2,0,B|347:210|347:210|264:188,1,100,4|8,0:3|1:0,0:0:0:0:
196,156,59571,1,6,1:2:0:0:
102,120,59984,1,2,1:2:0:0:
102,120,60191,2,0,P|87:195|95:277,1,150,8|8,0:1|1:0,0:0:0:0:
70,365,61226,6,0,P|35:355|4:353,2,50,4|4|4,1:2|0:3|0:3,0:0:0:0:
117,348,61846,2,0,L|294:342,1,150,8|8,1:0|1:0,0:0:0:0:
366,356,62881,2,0,P|353:282|392:199,2,150,4|8|8,1:2|1:0|1:0,0:0:0:0:
465,365,64536,6,0,L|466:248,1,100,4|2,1:0|1:2,0:0:0:0:
489,220,65157,2,0,L|489:115,1,100,8|0,1:0|3:0,0:0:0:0:
457,80,65777,5,8,1:0:0:0:
246,229,67846,5,6,0:0:0:0:
193,313,68260,1,2,0:0:0:0:
193,313,68467,2,0,P|142:295|52:300,1,100,10|2,0:0|0:0,0:0:0:0:
48,306,69088,1,8,0:0:0:0:
37,206,69502,2,0,L|50:85,1,100,10|2,0:0|0:0,0:0:0:0:
128,47,70329,1,2,0:0:0:0:
203,113,70743,1,10,0:0:0:0:
285,56,71157,6,0,P|336:60|415:62,1,100,6|2,0:0|0:0,0:0:0:0:
432,77,71777,1,10,0:0:0:0:
459,173,72191,1,2,0:0:0:0:
459,173,72398,2,0,L|453:304,2,100,8|10|2,0:0|0:0|0:0,0:0:0:0:
359,157,73640,1,2,0:0:0:0:
347,256,74053,1,10,0:0:0:0:
252,288,74467,6,0,P|188:264|70:252,1,150,6|10,0:0|0:0,0:0:0:0:
67,282,75295,2,0,L|63:157,1,100,0|8,0:0|0:0,0:0:0:0:
141,119,76122,2,0,P|179:146|248:154,2,100,6|10|2,0:0|0:0|0:0,0:0:0:0:
108,24,77364,1,8,0:0:0:0:
207,23,77777,6,0,L|257:22,1,50,6|10,0:0|0:0,0:0:0:0:
306,28,78191,1,2,0:0:0:0:
306,28,78398,2,0,B|342:62|342:62|343:171,1,150,10|8,0:0|0:0,0:0:0:0:
328,261,79433,2,0,L|260:256,1,50,6|10,0:0|0:0,0:0:0:0:
228,251,79846,1,2,0:0:0:0:
228,251,80053,2,0,L|224:373,1,100,10|2,0:0|0:0,0:0:0:0:
271,370,80674,1,8,0:0:0:0:
371,370,81088,5,6,0:0:0:0:
457,319,81501,1,2,0:0:0:0:
457,319,81708,2,0,P|456:242|459:196,1,100,10|2,0:0|0:0,0:0:0:0:
457,168,82329,1,8,0:0:0:0:
376,107,82743,2,0,P|325:113|256:103,1,100,10|2,0:0|0:0,0:0:0:0:
207,36,83571,1,2,0:0:0:0:
171,129,83984,1,10,0:0:0:0:
137,223,84398,6,0,L|317:240,1,150,6|10,0:0|0:0,0:0:0:0:
353,311,85433,1,2,0:0:0:0:
353,311,85640,2,0,L|468:305,2,100,8|10|2,0:0|0:0|0:0,0:0:0:0:
265,359,86881,2,0,P|212:344|142:340,1,100,2|10,0:0|0:0,0:0:0:0:
68,350,87708,6,0,P|73:295|57:169,1,150,6|10,0:0|0:0,0:0:0:0:
46,153,88536,2,0,L|158:163,1,100,0|8,0:0|0:0,0:0:0:0:
246,155,89364,1,10,0:0:0:0:
250,55,89777,1,2,0:0:0:0:
342,93,90191,2,0,L|341:214,1,100,2|8,0:0|0:0,0:0:0:0:
290,279,91019,6,0,L|221:281,1,50,6|10,0:0|0:0,0:0:0:0:
205,316,91433,1,2,0:0:0:0:
205,316,91640,2,0,L|32:313,1,150,10|8,0:0|0:0,0:0:0:0:
31,216,92674,2,0,L|31:161,1,50,6|10,0:0|0:0,0:0:0:0:
53,121,93088,1,2,0:0:0:0:
53,121,93295,2,0,L|179:122,1,100,10|10,0:0|0:0,0:0:0:0:
192,152,93915,6,0,L|250:153,2,50,8|10|6,0:0|0:0|0:0,0:0:0:0:
83,34,107571,5,4,1:0:0:0:
164,91,107984,1,0,3:0:0:0:
164,91,108191,2,0,L|319:86,1,150,8|8,1:3|1:3,0:0:0:0:
393,146,109226,2,0,P|374:220|378:313,2,150,4|8|8,1:3|1:3|1:3,0:0:0:0:
484,187,110881,6,0,L|464:369,1,150,4|8,1:2|1:3,0:0:0:0:
423,360,111708,1,4,0:3:0:0:
329,325,112122,1,8,1:3:0:0:
232,350,112536,2,0,L|227:226,1,100,4|4,1:3|0:3,0:0:0:0:
214,201,113157,2,0,P|121:210|53:194,1,150,8|8,1:3|1:3,0:0:0:0:
44,100,114191,5,4,1:0:0:0:
118,30,114605,1,0,3:0:0:0:
118,30,114812,2,0,P|194:26|283:42,1,150,8|8,1:3|1:3,0:0:0:0:
329,115,115846,2,0,P|402:126|477:122,2,150,4|8|8,1:3|1:3|1:3,0:0:0:0:
231,137,117502,5,4,1:2:0:0:
231,137,117708,2,0,P|216:204|226:267,1,100,2|8,0:0|1:3,0:0:0:0:
224,284,118329,2,0,L|104:278,1,100,4|8,0:3|1:3,0:0:0:0:
140,378,119157,2,0,L|272:380,1,100,4|4,1:3|0:3,0:0:0:0:
278,347,119777,2,0,P|346:337|438:349,1,150,8|8,1:3|1:3,0:0:0:0:
483,263,120812,6,0,P|461:203|469:97,1,150,4|8,1:0|1:3,0:0:0:0:
412,122,121640,2,0,L|290:122,1,100,4|8,0:3|1:3,0:0:0:0:
218,156,122467,1,4,1:3:0:0:
218,156,122674,2,0,P|135:172|57:155,1,150,2|4,0:0|0:3,0:0:0:0:
11,241,123708,1,8,1:3:0:0:
58,329,124122,6,0,P|122:319|229:344,2,150,4|8|8,1:2|1:3|1:3,0:0:0:0:
41,229,125777,2,0,P|140:220|180:190,1,150,4|8,1:3|1:3,0:0:0:0:
201,146,126605,2,0,L|323:148,1,100,4|8,0:3|1:3,0:0:0:0:
338,54,127433,5,4,1:0:0:0:
338,54,127640,2,0,L|460:55,1,100,2|8,0:0|1:3,0:0:0:0:
481,79,128260,1,4,0:3:0:0:
497,177,128674,1,8,1:3:0:0:
409,224,129088,1,4,1:3:0:0:
315,187,129502,1,4,0:3:0:0:
315,187,129708,2,0,P|314:272|282:348,1,150,8|8,1:3|1:3,0:0:0:0:
191,337,130743,6,0,L|76:331,1,100,4|4,1:2|0:3,0:0:0:0:
44,350,131364,2,0,L|41:182,1,150,8|8,1:3|1:3,0:0:0:0:
97,117,132398,2,0,L|189:111,1,50,4|8,1:3|1:3,0:0:0:0:
188,142,132812,1,4,1:3:0:0:
188,142,133019,2,0,L|386:140,1,150,8|8,1:3|1:0,0:0:0:0:
256,192,142743,12,0,145226,0:0:0:0:
85,86,147295,6,0,L|75:244,1,150,6|10,0:0|0:0,0:0:0:0:
73,285,148122,2,0,L|192:281,1,100,2|10,0:0|0:0,0:0:0:0:
257,335,148950,2,0,L|375:329,2,100,10|2|2,0:0|0:0|0:0,0:0:0:0:
172,281,150191,1,10,0:0:0:0:
185,181,150605,6,0,P|228:108|293:71,1,150,6|10,0:0|0:0,0:0:0:0:
332,79,151433,1,2,0:0:0:0:
388,161,151846,2,0,L|360:278,2,100,10|10|2,0:0|0:0|0:0,0:0:0:0:
475,209,153088,1,2,0:0:0:0:
457,307,153502,1,10,0:0:0:0:
361,336,153915,6,0,P|289:318|174:331,1,150,6|10,0:0|0:0,0:0:0:0:
171,347,154743,2,0,L|167:242,1,100,2|8,0:0|0:0,0:0:0:0:
167,146,155571,1,10,0:0:0:0:
70,120,155984,1,10,0:0:0:0:
65,219,156398,1,2,0:0:0:0:
161,244,156812,1,8,0:0:0:0:
254,209,157226,6,0,L|348:207,1,50,6|8,0:0|0:0,0:0:0:0:
347,232,157640,1,2,0:0:0:0:
347,232,157846,2,0,L|523:233,1,150,10|8,0:0|0:0,0:0:0:0:
501,132,158881,2,0,L|501:66,1,50,6|10,0:0|0:0,0:0:0:0:
474,39,159295,2,0,L|401:40,1,50,2|10,0:0|0:0,0:0:0:0:
388,75,159708,2,0,L|260:76,1,100,0|8,0:0|0:0,0:0:0:0:
198,120,160536,5,6,0:0:0:0:
115,63,160950,1,10,0:0:0:0:
30,115,161364,2,0,L|34:243,1,100,2|10,0:0|0:0,0:0:0:0:
120,263,162191,2,0,L|231:215,2,100,10|2|2,0:0|0:0|0:0,0:0:0:0:
38,320,163433,1,10,0:0:0:0:
132,353,163846,6,0,P|202:342|306:366,1,150,6|10,0:0|0:0,0:0:0:0:
328,367,164674,1,2,0:0:0:0:
427,356,165088,1,8,0:0:0:0:
468,264,165502,2,0,P|468:218|446:130,1,100,10|2,0:0|0:0,0:0:0:0:
363,132,166329,1,2,0:0:0:0:
290,201,166743,1,10,0:0:0:0:
191,216,167157,6,0,P|163:146|201:41,1,150,6|10,0:0|0:0,0:0:0:0:
203,32,167984,2,0,L|81:36,1,100,0|8,0:0|0:0,0:0:0:0:
25,98,168812,2,0,L|35:227,1,100,6|10,0:0|0:0,0:0:0:0:
109,262,169640,1,2,0:0:0:0:
200,222,170053,1,8,0:0:0:0:
295,250,170467,6,0,L|297:327,1,50,6|10,0:0|0:0,0:0:0:0:
301,350,170881,1,2,0:0:0:0:
301,350,171088,2,0,L|442:352,1,100,10|2,0:0|0:0,0:0:0:0:
450,358,171708,1,8,0:0:0:0:
477,261,172122,6,0,L|474:184,1,50,6|10,0:0|0:0,0:0:0:0:
435,179,172536,2,0,L|432:102,1,50,2|10,0:0|0:0,0:0:0:0:
406,86,172950,2,0,L|329:89,2,50,0|2|8,0:0|0:0|0:0,0:0:0:0:
452,66,173571,1,10,0:0:0:0:
445,77,187019,6,0,L|389:78,1,50,6|10,0:0|0:0,0:0:0:0:
346,90,187433,1,2,0:0:0:0:
346,90,187640,2,0,L|343:249,1,150,10|8,0:0|0:0,0:0:0:0:
260,296,188674,2,0,P|179:279|92:298,2,150,10|10|8,0:0|0:0|0:0,0:0:0:0:
346,345,190329,6,0,L|409:344,1,50,6|10,0:0|0:0,0:0:0:0:
445,350,190743,1,2,0:0:0:0:
445,350,190950,2,0,L|450:213,1,100,10|2,0:0|0:0,0:0:0:0:
452,199,191571,1,8,0:0:0:0:
354,177,191984,2,0,L|266:185,2,50,10|10|2,0:0|0:0|0:0,0:0:0:0:
388,140,192605,2,0,P|393:66|313:18,1,150,10|8,0:0|0:0,0:0:0:0:
239,30,193640,6,0,L|152:35,1,50,6|10,0:0|0:0,0:0:0:0:
144,54,194053,1,2,0:0:0:0:
144,54,194260,2,0,L|150:195,1,100,10|2,0:0|0:0,0:0:0:0:
154,203,194881,1,8,0:0:0:0:
86,276,195295,2,0,L|19:272,2,50,10|10|2,0:0|0:0|0:0,0:0:0:0:
115,316,195915,2,0,L|230:316,1,100,10|2,0:0|0:0,0:0:0:0:
263,329,196536,1,8,0:0:0:0:
348,276,196950,6,0,L|351:194,1,50,6|10,0:0|0:0,0:0:0:0:
349,175,197364,1,2,0:0:0:0:
349,175,197571,2,0,P|296:181|219:175,1,100,10|2,0:0|0:0,0:0:0:0:
206,154,198191,1,8,0:0:0:0:
236,58,198605,2,0,P|285:56|335:62,2,100,6|2|10,0:0|0:0|0:0,0:0:0:0:
139,85,199846,1,8,0:0:0:0:
65,153,200260,6,0,L|65:222,1,50,6|10,0:0|0:0,0:0:0:0:
69,253,200674,1,2,0:0:0:0:
69,253,200881,2,0,L|229:253,1,150,10|8,0:0|0:0,0:0:0:0:
282,330,201915,2,0,P|346:323|446:346,2,150,10|10|8,0:0|0:0|0:0,0:0:0:0:
184,353,203571,6,0,L|97:350,1,50,10|10,0:0|0:0,0:0:0:0:
84,353,203984,1,2,0:0:0:0:
84,353,204191,2,0,P|78:306|101:224,1,100,10|2,0:0|0:0,0:0:0:0:
109,209,204812,1,8,0:0:0:0:
208,225,205226,2,0,L|205:281,2,50,6|10|2,0:0|0:0|0:0,0:0:0:0:
218,175,205846,2,0,P|281:202|375:200,1,150,10|8,0:0|0:0,0:0:0:0:
443,146,206881,6,0,L|443:66,1,50,6|10,0:0|0:0,0:0:0:0:
448,45,207295,1,2,0:0:0:0:
448,45,207502,2,0,L|310:51,1,100,10|2,0:0|0:0,0:0:0:0:
304,74,208122,1,8,0:0:0:0:
211,112,208536,2,0,L|118:118,2,50,10|10|2,0:0|0:0|0:0,0:0:0:0:
249,144,209157,2,0,L|244:279,1,100,10|2,0:0|0:0,0:0:0:0:
229,291,209777,1,8,0:0:0:0:
142,340,210191,6,0,L|54:336,1,50,6|10,0:0|0:0,0:0:0:0:
41,340,210605,1,0,0:0:0:0:
41,340,210812,2,0,L|38:223,1,100,10|2,0:0|0:0,0:0:0:0:
44,190,211433,2,0,L|105:191,1,50,10|2,0:0|0:0,0:0:0:0:
135,162,211846,2,0,L|207:165,1,50,6|10,0:0|0:0,0:0:0:0:
229,186,212260,1,4,0:3:0:0:
326,161,212674,6,2,L|330:30,1,100,10|8,0:0|0:0,0:0:0:0:
