osu file format v14

[General]
AudioFilename: audio.mp3
AudioLeadIn: 0
PreviewTime: 28019
Countdown: 0
SampleSet: Normal
StackLeniency: 0.7
Mode: 0
LetterboxInBreaks: 0
WidescreenStoryboard: 0

[Editor]
Bookmarks: 14881,213502
DistanceSpacing: 1.2
BeatDivisor: 4
GridSize: 8
TimelineZoom: 1.8

[Metadata]
Title:Think Of England
TitleUnicode:Think Of England
Artist:IAMX
ArtistUnicode:IAMX
Creator:PandaHero
Version:Easy
Source:
Tags:kingdom of welcome addiction chris corner synthpop dark cabaret alternative industrial electronica experimental
BeatmapID:1585621
BeatmapSetID:742442

[Difficulty]
HPDrainRate:2
CircleSize:3
OverallDifficulty:2
ApproachRate:4
SliderMultiplier:0.7
SliderTickRate:1

[Events]
//Background and Video events
0,0,"bg-06.jpg",0,0
//Break Periods
2,94529,106251
2,134053,141423
2,173777,185364
//Storyboard Layer 0 (Background)
//Storyboard Layer 1 (Fail)
//Storyboard Layer 2 (Pass)
//Storyboard Layer 3 (Foreground)
//Storyboard Sound Samples

[TimingPoints]
1640,413.793103448276,4,1,1,60,1,0
28122,-100,4,2,1,55,0,0
41364,-100,4,2,1,55,0,0
54605,-100,4,2,1,60,0,0
65777,-100,4,2,1,40,0,0
67846,-100,4,1,1,60,0,0
107571,-100,4,2,1,55,0,0
134053,-100,4,2,1,40,0,0
143984,-100,4,2,1,25,0,0
147295,-100,4,1,1,60,0,0
187019,-100,4,1,1,65,0,0
213088,-100,4,1,1,65,0,0
213502,-100,4,1,1,40,0,0

[Colours]
Combo1 : 191,179,106
Combo2 : 71,143,143
Combo3 : 112,135,69
Combo4 : 153,113,79

[HitObjects]
360,283,14881,6,2,P|409:282|482:301,2,105,4|8|8,0:0|0:0|0:0,0:2:0:0:
295,336,16536,1,4,0:3:0:0:
177,291,17157,1,8,0:0:0:0:
212,170,17777,1,8,0:0:0:0:
164,100,18191,6,0,P|105:112|33:99,2,105,4|8|8,0:0|0:0|0:0,0:0:0:0:
227,45,19846,1,4,0:0:0:0:
337,106,20467,1,8,0:0:0:0:
292,223,21088,1,8,0:0:0:0:
257,299,21502,6,0,P|189:281|146:285,1,105,4|8,0:0|0:0,0:0:0:0:
35,324,22743,1,8,0:0:0:0:
36,239,23157,2,0,P|38:185|57:136,2,105,4|8|8,0:3|0:0|0:0,0:0:0:0:
109,279,24812,6,0,P|156:263|223:267,1,105,4|8,1:0|0:0,0:0:0:0:
317,331,26053,1,8,0:0:0:0:
393,296,26467,2,0,L|396:226,1,70,4|8,0:3|0:0,0:0:0:0:
398,141,27295,2,0,L|305:139,1,70,4|8,0:3|0:0,0:0:0:0:
245,136,28122,6,0,P|251:85|231:24,1,105,4|8,1:0|1:3,0:0:0:0:
111,48,29364,1,8,1:3:0:0:
51,107,29777,2,2,P|39:158|50:224,2,105,4|10|8,1:3|1:3|1:3,0:0:0:0:
134,100,31433,6,0,L|130:333,1,210,4|8,1:0|0:3,0:0:0:0:
204,350,33088,2,0,P|256:322|327:319,2,105,4|8|8,1:3|1:3|0:3,0:0:0:0:
119,350,34743,5,4,1:3:0:0:
34,256,35364,2,0,L|37:135,1,105,8|8,1:3|1:3,0:0:0:0:
79,77,36398,2,0,B|155:77|155:77|199:112|199:112|301:110,1,210,4|8,1:3|1:3,0:0:0:0:
360,101,38053,5,4,1:2:0:0:
439,198,38674,2,0,L|429:315,1,105,8|8,1:3|1:3,0:0:0:0:
351,332,39708,1,4,0:3:0:0:
285,280,40122,1,0,1:0:0:0:
201,287,40536,2,0,P|194:327|191:374,1,70,2|8,0:0|1:3,0:0:0:0:
110,371,41364,6,0,P|94:316|66:259,1,105,4|8,1:2|1:3,0:0:0:0:
13,162,42605,1,8,1:3:0:0:
70,100,43019,2,0,P|116:94|184:106,2,105,4|8|8,1:3|1:3|1:3,0:0:0:0:
13,162,44674,6,0,B|51:267|-24:267|17:384,1,210,4|8,1:0|1:3,0:0:0:0:
95,374,46329,1,4,1:3:0:0:
134,299,46743,1,8,0:3:0:0:
214,274,47157,2,0,P|260:278|312:293,1,70,4|8,0:3|1:3,0:0:0:0:
353,328,47984,6,0,L|477:325,1,105,4|8,1:0|1:3,0:0:0:0:
499,206,49226,1,8,1:3:0:0:
444,141,49640,2,0,L|320:146,2,105,4|8|8,1:3|1:3|1:3,0:0:0:0:
455,57,51295,6,0,P|349:35|241:35,1,210,4|8,1:2|1:3,0:0:0:0:
163,36,52950,2,0,L|163:91,1,35,0|8,1:0|1:3,0:0:0:0:
141,152,53571,2,0,P|82:143|26:149,1,105,8|8,1:3|0:3,0:0:0:0:
46,230,54605,6,0,P|84:235|145:235,1,70,4|2,1:0|1:2,0:0:0:0:
192,270,55433,1,4,0:3:0:0:
268,235,55846,1,8,1:0:0:0:
349,257,56260,2,0,P|334:323|343:383,2,105,6|8|8,1:2|0:1|1:0,0:0:0:0:
352,173,57915,6,0,L|272:142,1,70,6|2,1:2|1:3,0:0:0:0:
207,119,58743,1,4,0:3:0:0:
125,140,59157,1,8,1:0:0:0:
79,210,59571,2,0,P|77:271|86:340,2,105,6|8|8,1:2|0:1|1:0,0:0:0:0:
83,126,61226,5,4,1:2:0:0:
117,49,61640,1,4,0:3:0:0:
200,47,62053,2,0,L|289:50,1,70,0|8,1:0|1:0,0:0:0:0:
329,108,62881,2,0,L|464:97,2,105,4|8|8,1:2|1:0|1:0,0:0:0:0:
249,135,64536,6,0,P|226:231|269:352,1,210,4|8,1:0|1:0,0:0:0:0:
34,57,67846,6,0,P|118:33|256:50,1,210,6|8,0:0|0:0,0:0:0:0:
300,101,69502,2,0,P|340:97|388:88,2,70,10|2|0,0:0|0:0|0:0,0:0:0:0:
219,126,70743,1,8,0:0:0:0:
193,206,71157,6,0,P|204:266|348:290,1,210,6|8,0:0|0:0,0:0:0:0:
395,245,72812,1,10,0:0:0:0:
392,161,73226,1,2,0:0:0:0:
327,107,73640,2,0,L|243:114,1,70,0|8,0:0|0:0,0:0:0:0:
216,186,74467,6,0,L|60:189,1,140,6|0,0:0|0:0,0:0:0:0:
23,123,75708,1,8,0:0:0:0:
49,43,76122,2,0,P|88:37|132:38,1,70,6|10,0:0|0:0,0:0:0:0:
191,78,76950,2,0,P|225:77|260:71,1,70,2|8,0:0|0:0,0:0:0:0:
339,100,77777,6,0,L|329:226,2,105,6|10|8,0:0|0:0|0:0,0:0:0:0:
421,82,79433,1,6,0:0:0:0:
483,137,79846,1,2,0:0:0:0:
454,215,80260,2,0,L|366:218,1,70,2|8,0:0|0:0,0:0:0:0:
326,279,81088,6,0,P|242:255|104:272,1,210,6|8,0:0|0:0,0:0:0:0:
37,275,82743,2,0,L|30:195,1,70,10|2,0:0|0:0,0:0:0:0:
64,128,83571,1,0,0:0:0:0:
147,139,83984,1,8,0:0:0:0:
199,73,84398,6,0,P|265:54|408:84,1,210,6|8,0:0|0:0,0:0:0:0:
455,144,86053,2,0,P|443:182|431:236,1,70,10|2,0:0|0:0,0:0:0:0:
374,268,86881,1,0,0:0:0:0:
298,230,87295,1,8,0:0:0:0:
215,243,87708,6,0,P|190:308|174:380,1,140,6|0,0:0|0:0,0:0:0:0:
92,355,88950,1,8,0:0:0:0:
14,322,89364,2,0,L|21:237,1,70,10|2,0:0|0:0,0:0:0:0:
56,176,90191,1,2,0:0:0:0:
139,179,90605,1,8,0:0:0:0:
177,104,91019,6,0,P|145:66|90:34,2,105,6|10|8,0:0|0:0|0:0,0:0:0:0:
237,161,92674,2,0,P|274:152|327:155,1,70,6|2,0:0|0:0,0:0:0:0:
374,199,93502,2,0,L|366:294,2,70,0|8|6,0:0|0:0|0:0,0:0:0:0:
374,199,107571,5,4,1:0:0:0:
307,250,107984,2,0,L|227:251,1,70,0|4,3:0|0:3,0:0:0:0:
153,236,108812,1,8,1:3:0:0:
76,271,109226,2,0,P|56:319|47:371,2,105,4|8|8,1:3|1:3|1:3,0:0:0:0:
111,194,110881,5,4,1:2:0:0:
171,135,111295,2,0,L|344:141,1,140,8|8,0:3|1:3,0:0:0:0:
379,188,112536,2,0,L|508:185,2,105,4|8|0,1:3|1:3|1:3,0:0:0:0:
332,257,114191,1,4,1:0:0:0:
222,319,114812,6,0,L|222:207,1,105,8|8,1:3|1:3,0:0:0:0:
138,207,115846,2,0,P|81:218|19:211,2,105,4|8|8,1:3|1:3|1:3,0:0:0:0:
178,133,117502,6,0,P|156:89|146:32,1,105,4|8,1:2|1:3,0:0:0:0:
21,55,118743,1,8,1:3:0:0:
23,138,119157,2,0,L|27:354,1,210,4|8,1:3|1:3,0:0:0:0:
107,371,120812,5,4,1:0:0:0:
152,300,121226,1,0,3:0:0:0:
235,287,121640,2,0,P|246:320|254:370,1,70,4|8,0:3|1:3,0:0:0:0:
336,360,122467,2,0,P|388:347|481:353,1,140,4|4,1:3|0:3,0:0:0:0:
497,270,123708,1,8,1:3:0:0:
433,214,124122,6,0,P|378:226|308:218,2,105,4|8|8,1:2|1:3|1:3,0:0:0:0:
466,136,125777,2,0,P|449:86|414:45,1,105,4|8,1:3|1:3,0:0:0:0:
290,57,127019,1,8,1:3:0:0:
212,89,127433,6,0,P|158:73|99:76,2,105,4|8|8,1:0|1:3|1:3,0:0:0:0:
214,173,129088,2,0,P|204:214|215:298,1,105,4|8,1:3|1:3,0:0:0:0:
309,350,130329,1,8,1:3:0:0:
393,348,130743,6,0,P|423:272|416:224,2,105,4|8|8,1:2|1:3|1:3,0:0:0:0:
311,328,132398,2,0,L|311:281,1,35,4|0,1:3|0:0,0:0:0:0:
273,217,133019,2,0,P|221:223|153:212,1,105,4|8,0:3|1:0,0:0:0:0:
256,192,142743,12,0,145226,0:0:0:0:
478,327,147295,6,0,P|378:306|315:315,1,140,6|0,0:0|0:0,0:0:0:0:
269,353,148536,1,8,0:0:0:0:
192,316,148951,2,0,L|197:218,2,70,10|2|2,0:0|0:0|0:0,0:0:0:0:
114,347,150192,1,8,0:0:0:0:
41,304,150606,6,0,L|51:136,1,140,6|0,0:0|0:0,0:0:0:0:
97,95,151846,1,8,0:0:0:0:
180,86,152260,2,0,L|178:175,1,70,10|2,0:0|0:0,0:0:0:0:
210,233,153089,2,0,L|294:226,1,70,0|8,0:0|0:0,0:0:0:0:
327,296,153916,6,0,P|401:275|483:293,1,140,6|0,0:0|0:0,0:0:0:0:
501,209,155157,1,8,0:0:0:0:
456,137,155571,2,0,P|417:143|373:142,1,70,10|10,0:0|0:0,0:0:0:0:
315,98,156398,1,2,0:0:0:0:
233,117,156812,1,8,0:0:0:0:
223,200,157226,6,0,L|225:312,2,105,6|10|8,0:0|0:0|0:0,0:0:0:0:
145,166,158882,1,6,0:0:0:0:
73,209,159295,1,2,0:0:0:0:
72,293,159709,2,0,P|108:281|160:290,1,70,0|8,0:0|0:0,0:0:0:0:
199,342,160537,6,0,P|264:355|362:339,1,140,6|0,0:0|0:0,0:0:0:0:
391,283,161777,1,8,0:0:0:0:
351,208,162192,2,0,L|264:204,1,70,10|2,0:0|0:0,0:0:0:0:
241,130,163020,1,2,0:0:0:0:
279,55,163433,1,8,0:0:0:0:
199,28,163847,6,0,L|42:56,1,140,6|0,0:0|0:0,0:0:0:0:
23,127,165088,1,8,0:0:0:0:
63,200,165502,2,0,L|157:191,1,70,10|2,0:0|0:0,0:0:0:0:
213,217,166330,1,0,0:0:0:0:
202,300,166744,1,8,0:0:0:0:
277,336,167157,6,0,L|426:305,1,140,6|0,0:0|0:0,0:0:0:0:
464,239,168399,1,8,0:0:0:0:
424,164,168813,2,0,L|335:163,1,70,2|10,0:0|0:0,0:0:0:0:
274,132,169640,1,0,0:0:0:0:
236,207,170054,1,8,0:0:0:0:
153,222,170468,6,0,P|121:184|66:152,2,105,6|10|8,0:0|0:0|0:0,0:0:0:0:
199,291,172123,2,0,L|278:301,1,70,6|2,0:0|0:0,0:0:0:0:
351,316,172951,2,0,L|359:221,1,70,0|8,0:0|0:0,0:0:0:0:
355,245,187019,6,0,P|405:253|463:249,2,105,6|10|8,0:0|0:0|0:0,0:0:0:0:
275,272,188674,2,0,L|264:32,1,210,10|8,0:0|0:0,0:0:0:0:
184,39,190329,6,0,L|68:52,1,105,6|10,0:0|0:0,0:0:0:0:
18,161,191571,1,8,0:0:0:0:
75,222,191984,2,0,L|197:224,2,105,10|10|8,0:0|0:0|0:0,0:0:0:0:
29,292,193640,5,6,0:0:0:0:
138,354,194260,2,0,L|265:357,1,105,10|8,0:0|0:0,0:0:0:0:
298,292,195295,2,0,P|291:244|294:188,2,105,10|10|8,0:0|0:0|0:0,0:0:0:0:
368,337,196950,5,6,0:0:0:0:
460,251,197571,2,0,L|463:123,1,105,10|8,0:0|0:0,0:0:0:0:
407,82,198605,1,6,0:0:0:0:
323,94,199019,1,2,0:0:0:0:
282,167,199433,2,0,L|288:254,1,70,10|8,0:0|0:0,0:0:0:0:
287,320,200260,6,0,P|339:313|412:323,2,105,6|10|8,0:0|0:0|0:0,0:0:0:0:
205,339,201915,2,0,B|95:297|106:378|-12:343,1,210,10|8,0:0|0:0,0:0:0:0:
0,262,203571,6,0,P|9:208|42:153,1,105,6|10,0:0|0:0,0:0:0:0:
141,99,204812,1,8,0:0:0:0:
215,137,205226,2,0,P|226:193|218:268,2,105,10|10|8,0:0|0:0|0:0,0:0:0:0:
191,56,206881,5,6,0:0:0:0:
313,83,207502,2,0,L|444:87,1,105,10|8,0:0|0:0,0:0:0:0:
477,145,208536,2,0,P|467:204|475:259,2,105,10|10|8,0:0|0:0|0:0,0:0:0:0:
398,116,210191,6,0,P|341:218|316:310,1,210,6|10,0:0|0:0,0:0:0:0:
251,360,211846,2,0,P|219:334|180:316,1,70,6|4,0:0|0:3,0:0:0:0:
122,366,212674,2,0,L|45:366,1,70,10|8,0:0|0:0,0:0:0:0:
