osu file format v14

[General]
AudioFilename: audio.mp3
AudioLeadIn: 0
PreviewTime: 86475
Countdown: 0
SampleSet: Soft
StackLeniency: 0.7
Mode: 0
LetterboxInBreaks: 0
WidescreenStoryboard: 0

[Editor]
DistanceSpacing: 1.2
BeatDivisor: 3
GridSize: 8
TimelineZoom: 2.299999

[Metadata]
Title:Tear Garden
TitleUnicode:Tear Garden
Artist:IAMX
ArtistUnicode:IAMX
Creator:PandaHero
Version:Normal
Source:
Tags:IceBeam SadKangaroo Kingdom Of Welcome Addiction Chris Corner synthpop dark cabaret alternative industrial electronica experimental
BeatmapID:1465631
BeatmapSetID:690400

[Difficulty]
HPDrainRate:2
CircleSize:3
OverallDifficulty:3
ApproachRate:4
SliderMultiplier:0.9
SliderTickRate:1

[Events]
//Background and Video events
0,0,"grass_at_night-wallpaper.jpg",0,0
//Break Periods
2,124880,135668
2,232573,234130
//Storyboard Layer 0 (Background)
//Storyboard Layer 1 (Fail)
//Storyboard Layer 2 (Pass)
//Storyboard Layer 3 (Foreground)
//Storyboard Sound Samples

[TimingPoints]
1604,384.615384615385,4,3,1,50,1,0
13911,-100,4,2,1,60,0,0
38527,-100,4,2,1,65,0,0
87757,-100,4,2,1,70,0,1
88142,-100,4,2,1,70,0,0
106219,-100,4,2,1,75,0,1
106604,-100,4,2,1,75,0,0
118527,-100,4,2,1,75,0,1
118911,-100,4,2,1,75,0,0
124680,-100,4,2,1,75,0,1
124809,-100,4,2,1,75,0,0
136988,-100,4,3,1,60,0,0
149296,-100,4,2,1,65,0,0
173911,-100,4,2,1,70,0,0
198527,-100,4,2,1,75,0,1
198911,-100,4,2,1,75,0,0
216988,-100,4,2,1,80,0,1
232373,-100,4,2,1,60,0,0
235450,-100,4,3,1,50,0,1
235578,-100,4,3,1,50,0,0
260065,-100,4,3,1,50,0,1
260193,-100,4,3,1,50,0,0
284680,-100,4,3,1,50,0,1
284809,-100,4,3,1,50,0,0

[Colours]
Combo1 : 35,170,177
Combo2 : 168,192,219
Combo3 : 66,111,159
Combo4 : 149,230,234

[HitObjects]
47,249,1603,5,4,0:0:0:0:
119,329,1988,2,0,P|193:337|310:334,1,180,8|4,0:0|0:0,0:0:0:0:
348,239,3142,2,0,P|346:171|329:79,1,150,4|8,0:0|0:0,0:0:0:0:
207,18,4296,1,8,0:0:0:0:
102,45,4680,5,4,0:0:0:0:
91,152,5065,2,0,P|182:168|286:152,1,180,8|8,0:0|0:0,0:0:0:0:
346,232,6219,2,0,P|269:253|196:289,1,150,4|4,0:0|0:0,0:0:0:0:
329,356,7373,1,8,0:0:0:0:
329,356,7757,38,0,L|425:359,2,90,4|8|4,0:0|0:2|0:0,0:0:0:0:
228,316,8911,1,4,0:0:0:0:
212,208,9296,2,0,B|268:188|268:188|370:196,1,150,8|8,0:0|0:0,0:0:0:0:
468,288,10450,1,8,0:0:0:0:
485,181,10834,5,4,0:0:0:0:
427,89,11219,2,0,B|348:98|348:98|248:74,1,180,8|4,0:2|0:0,0:0:0:0:
148,37,12373,2,0,L|146:186,1,150,8|8,0:0|0:0,0:0:0:0:
67,307,13527,1,4,0:0:0:0:
27,206,13911,38,0,L|24:104,2,90,4|8|2,1:0|0:0|0:3,0:0:0:0:
67,307,15065,1,8,0:0:0:0:
173,327,15450,2,0,P|220:330|267:336,1,90,4|8,0:3|0:0,0:0:0:0:
301,234,16219,2,0,P|335:266|367:301,1,90,4|8,0:3|0:3,0:0:0:0:
469,273,16988,5,4,1:2:0:0:
488,166,17373,1,8,0:0:0:0:
383,140,17757,2,0,P|332:150|290:152,1,90,2|8,0:3|0:0,0:0:0:0:
202,210,18527,2,0,P|199:159|190:117,1,90,4|8,0:3|0:0,0:0:0:0:
127,33,19296,1,4,0:3:0:0:
28,76,19680,1,8,0:0:0:0:
58,179,20065,38,0,P|65:216|69:285,2,90,4|8|2,1:2|0:0|0:3,0:0:0:0:
28,76,21219,1,8,0:0:0:0:
130,110,21604,2,0,P|167:130|217:161,1,90,4|8,0:3|0:0,0:0:0:0:
143,241,22373,2,0,P|187:250|228:266,1,90,4|8,0:3|0:0,0:0:0:0:
308,339,23142,5,4,1:2:0:0:
414,355,23527,1,8,0:0:0:0:
471,263,23911,2,0,L|463:161,1,90,2|8,0:3|0:0,0:0:0:0:
356,167,24680,2,0,L|364:65,1,90,4|8,0:3|0:0,0:0:0:0:
263,33,25450,1,4,0:3:0:0:
239,138,25834,1,10,0:0:0:0:
208,241,26219,38,0,B|145:188|145:188|43:165,1,180,4|2,1:0|0:3,0:0:0:0:
10,267,27373,1,8,0:0:0:0:
56,364,27757,2,0,L|256:336,1,180,4|4,0:3|0:3,0:0:0:0:
317,270,28911,1,10,0:0:0:0:
407,329,29296,6,0,P|428:227|429:150,1,180,6|2,1:2|0:3,0:0:0:0:
400,47,30450,1,8,0:0:0:0:
293,33,30834,2,0,P|262:118|246:208,1,180,4|4,0:3|0:3,0:0:0:0:
353,220,31988,1,8,0:0:0:0:
385,323,32373,38,0,P|337:325|285:334,1,90,6|8,1:2|0:0,0:0:0:0:
188,348,33142,1,2,0:3:0:0:
88,306,33527,1,8,0:0:0:0:
93,198,33911,2,0,P|95:155|102:106,2,90,4|8|4,0:3|0:0|0:3,0:0:0:0:
88,306,35065,1,8,1:2:0:0:
177,245,35450,6,0,P|217:213|277:190,1,90,6|8,1:2|1:2,0:0:0:0:
346,249,36219,2,0,P|378:209|401:149,1,90,2|8,1:3|1:2,0:0:0:0:
354,73,36988,2,0,P|304:65|240:75,2,90,4|8|4,1:3|1:3|0:3,0:0:0:0:
454,112,38142,1,10,1:3:0:0:
423,215,38527,38,0,B|337:218|337:218|236:253,1,180,4|2,1:0|0:3,0:0:0:0:
181,333,39680,1,8,1:3:0:0:
77,300,40065,2,0,P|79:212|85:147,1,150,4|4,0:3|0:3,0:0:0:0:
182,45,41219,1,10,1:2:0:0:
281,87,41604,6,0,P|292:122|299:180,1,90,4|8,1:2|0:0,0:0:0:0:
299,282,42373,1,2,0:3:0:0:
403,309,42757,1,8,1:3:0:0:
470,224,43142,2,0,P|475:140|489:70,1,150,4|0,0:3|1:0,0:0:0:0:
361,145,44296,1,8,1:3:0:0:
270,202,44680,38,0,L|88:198,1,180,4|2,1:0|0:3,0:0:0:0:
20,281,45834,1,8,1:3:0:0:
114,334,46219,2,0,P|190:335|277:340,1,150,4|4,0:3|0:3,0:0:0:0:
406,358,47373,1,10,1:2:0:0:
454,261,47757,6,0,L|459:151,2,90,4|8|2,1:0|0:0|0:3,0:0:0:0:
346,267,48911,1,8,1:3:0:0:
269,190,49296,2,0,P|284:118|318:40,1,150,4|4,0:3|0:3,0:0:0:0:
184,112,50450,1,8,1:3:0:0:
82,77,50834,37,4,1:0:0:0:
75,184,51219,2,0,L|69:290,1,90,8|2,0:0|0:3,0:0:0:0:
130,363,51988,2,0,P|277:310|309:308,1,180,8|8,1:3|1:2,0:0:0:0:
405,330,53142,1,4,0:3:0:0:
463,239,53527,1,10,1:2:0:0:
391,157,53911,6,0,B|304:152|304:152|211:194,1,180,4|2,1:0|0:3,0:0:0:0:
131,253,55065,1,8,1:3:0:0:
87,154,55450,2,0,L|88:53,2,90,4|8|0,0:3|1:2|0:0,0:0:0:0:
131,253,56604,1,8,1:3:0:0:
215,185,56988,38,0,P|269:137|384:71,1,180,4|2,1:0|0:3,0:0:0:0:
465,107,58142,1,8,1:3:0:0:
439,212,58527,2,0,P|435:257|438:316,1,90,4|8,0:3|1:2,0:0:0:0:
354,372,59296,2,0,P|300:358|259:351,1,90,4|8,0:3|1:3,0:0:0:0:
218,254,60065,6,0,P|215:207|206:166,2,90,4|8|2,1:0|1:2|0:3,0:0:0:0:
140,328,61219,1,8,1:3:0:0:
46,273,61604,2,0,P|39:230|36:184,1,90,4|8,1:0|1:2,0:0:0:0:
83,86,62373,1,4,0:3:0:0:
190,80,62757,1,8,1:3:0:0:
256,165,63142,38,0,B|339:152|344:190|448:177,1,180,4|2,1:0|3:0,0:0:0:0:
490,270,64296,1,8,1:3:0:0:
410,342,64680,2,0,P|323:356|247:356,1,150,4|4,0:3|0:3,0:0:0:0:
126,306,65834,1,0,1:0:0:0:
20,328,66219,6,0,P|22:265|28:221,1,90,4|8,1:0|0:0,0:0:0:0:
86,148,66988,1,2,0:3:0:0:
188,183,67373,1,8,1:3:0:0:
260,102,67757,2,0,P|248:38|232:7,2,90,4|8|4,1:3|1:2|0:3,0:0:0:0:
305,199,68911,1,8,1:3:0:0:
393,137,69296,38,0,P|421:93|468:57,1,90,4|8,1:0|0:0,0:0:0:0:
489,168,70065,1,2,3:0:0:0:
461,272,70450,1,8,1:3:0:0:
357,242,70834,2,0,P|282:248|187:259,1,150,4|4,0:3|0:3,0:0:0:0:
88,337,71988,1,0,1:3:0:0:
43,238,72373,6,0,P|42:190|56:130,2,90,4|8|2,1:0|0:0|3:0,0:0:0:0:
150,252,73527,1,8,1:3:0:0:
210,163,73911,2,0,P|292:191|356:233,1,150,4|4,0:3|0:3,0:0:0:0:
475,287,75065,1,8,1:3:0:0:
483,179,75450,37,4,1:2:0:0:
426,86,75834,2,0,P|356:114|272:184,1,180,8|8,0:0|1:3,0:0:0:0:
235,79,76988,2,0,P|275:57|326:14,2,90,4|8|4,0:3|1:2|0:3,0:0:0:0:
127,63,78142,1,10,1:2:0:0:
38,124,78527,6,0,L|38:309,1,180,4|2,1:0|0:3,0:0:0:0:
134,356,79680,1,8,1:3:0:0:
212,282,80065,1,4,1:3:0:0:
291,209,80450,2,0,P|377:265|448:333,1,180,8|4,1:2|1:3,0:0:0:0:
494,227,81604,38,0,P|496:179|489:124,2,90,4|8|2,1:0|0:0|0:3,0:0:0:0:
436,318,82757,1,8,1:3:0:0:
331,289,83142,2,0,P|303:246|284:201,1,90,4|8,0:3|1:2,0:0:0:0:
276,103,83911,2,0,P|233:131|188:150,1,90,4|8,0:3|1:3,0:0:0:0:
91,128,84680,6,0,P|72:88|38:42,2,90,4|8|2,1:0|1:2|1:3,0:0:0:0:
142,222,85834,1,8,1:3:0:0:
248,238,86219,2,0,P|294:219|339:189,1,90,4|8,1:3|1:3,0:0:0:0:
409,126,86988,1,4,1:3:0:0:
432,231,87373,1,2,1:2:0:0:
454,336,87757,6,0,L|350:307,1,90,6|8,1:2|1:0,0:0:0:0:
266,349,88527,1,2,1:2:0:0:
260,241,88911,1,8,1:0:0:0:
154,263,89296,2,0,P|106:263|53:258,2,90,2|8|2,1:2|1:0|0:3,0:0:0:0:
260,241,90450,1,12,1:0:0:0:
293,138,90834,6,0,P|208:104|150:24,1,180,6|2,1:2|1:2,0:0:0:0:
68,100,91988,1,8,1:0:0:0:
43,205,92373,2,0,P|52:249|57:300,2,90,2|8|4,1:2|1:0|0:3,0:0:0:0:
147,177,93527,1,8,1:3:0:0:
254,185,93911,38,0,P|330:196|441:230,1,180,4|2,1:0|0:0,0:0:0:0:
480,130,95065,1,8,1:0:0:0:
386,75,95450,2,0,P|337:81|293:89,2,90,6|8|4,1:2|1:0|0:3,0:0:0:0:
480,130,96604,1,8,1:0:0:0:
428,225,96988,6,0,B|345:216|332:270|240:264,1,180,4|2,1:0|0:0,0:0:0:0:
147,278,98142,1,8,1:0:0:0:
172,172,98527,1,6,1:2:0:0:
67,147,98911,1,8,1:0:0:0:
37,251,99296,2,0,P|40:297|51:352,1,90,2|8,1:2|1:3,0:0:0:0:
152,362,100065,37,4,1:0:0:0:
260,362,100450,1,8,0:0:0:0:
318,271,100834,2,0,P|324:226|330:159,1,90,2|8,0:0|1:0,0:0:0:0:
236,124,101604,5,2,1:2:0:0:
134,161,101989,1,8,1:0:0:0:
46,97,102373,2,0,P|51:51|63:-14,1,90,4|8,0:3|1:0,0:0:0:0:
165,22,103142,38,0,P|245:31|362:24,1,180,4|2,1:0|1:2,0:0:0:0:
448,55,104296,1,8,1:0:0:0:
405,154,104680,2,0,P|393:199|386:261,2,90,4|8|4,1:3|1:0|0:3,0:0:0:0:
482,229,105834,1,8,1:3:0:0:
443,329,106219,6,0,P|353:330|251:354,1,180,4|2,1:0|3:0,0:0:0:0:
164,308,107373,1,8,0:1:0:0:
223,217,107757,2,0,P|262:201|328:182,1,90,4|8,0:3|0:1,0:0:0:0:
328,80,108527,1,4,0:3:0:0:
232,29,108911,1,8,0:1:0:0:
137,80,109296,38,0,P|137:126|134:172,2,90,0|8|2,1:0|1:0|3:0,0:0:0:0:
32,45,110450,1,8,1:0:0:0:
11,150,110834,2,0,P|12:197|21:245,1,90,4|8,1:3|1:0,0:0:0:0:
118,283,111604,1,8,1:0:0:0:
196,208,111988,1,6,1:2:0:0:
248,302,112373,6,0,P|340:304|450:295,1,180,4|8,1:0|1:3,0:0:0:0:
492,211,113527,1,4,1:3:0:0:
431,121,113911,1,4,1:3:0:0:
322,124,114296,2,0,P|327:171|330:216,2,90,8|4|8,1:3|1:3|1:0,0:0:0:0:
240,52,115450,38,0,P|198:74|140:95,1,90,4|8,1:3|1:0,0:0:0:0:
59,134,116219,2,0,P|93:166|144:201,1,90,2|4,3:0|1:3,0:0:0:0:
226,235,116988,1,4,1:3:0:0:
174,330,117373,1,8,1:0:0:0:
281,330,117757,2,0,P|314:299|342:265,1,90,2|8,1:2|1:3,0:0:0:0:
406,177,118527,5,4,1:0:0:0:
455,272,118911,1,10,1:0:0:0:
342,264,119296,1,2,3:0:0:0:
293,359,119680,1,10,1:0:0:0:
198,306,120065,2,0,L|184:141,1,150,4|4,1:3|1:3,0:0:0:0:
264,36,121219,1,8,1:0:0:0:
157,54,121604,38,0,P|105:42|55:17,2,90,4|8|2,1:0|1:0|0:3,0:0:0:0:
264,36,122757,1,8,1:0:0:0:
326,124,123142,2,0,P|329:199|324:293,1,150,4|4,1:3|1:3,0:0:0:0:
208,357,124296,1,8,1:3:0:0:
214,249,124680,1,4,1:0:0:0:
367,341,136988,22,0,L|467:341,1,90,4|8,0:1|0:0,0:0:0:0:
243,308,138142,1,10,0:0:0:0:
176,222,138527,2,0,L|191:70,1,150,4|4,0:0|0:0,0:0:0:0:
84,169,139680,1,8,0:0:0:0:
176,222,140065,6,0,L|283:224,1,90,4|8,0:0|0:0,0:0:0:0:
468,146,141219,1,8,0:0:0:0:
375,90,141604,1,4,0:0:0:0:
375,90,141988,1,8,0:0:0:0:
342,192,142373,2,0,P|330:234|320:296,1,90,4|8,0:3|0:0,0:0:0:0:
399,355,143142,38,0,L|512:350,1,90,4|8,0:0|0:0,0:0:0:0:
272,345,144296,1,8,0:0:0:0:
203,261,144680,2,0,B|189:210|189:210|216:98,1,150,4|4,0:0|0:0,0:0:0:0:
78,170,145834,1,8,0:0:0:0:
75,278,146219,6,0,L|188:279,1,90,4|8,0:0|0:0,0:0:0:0:
370,344,147373,1,8,0:0:0:0:
437,260,147757,2,0,B|463:304|463:304|475:357,2,90,4|8|4,0:0|0:0|0:3,0:0:0:0:
335,221,148911,1,8,3:0:0:0:
227,215,149296,38,0,B|138:203|138:269|42:257,1,180,4|2,1:0|0:3,0:0:0:0:
11,159,150450,1,4,0:3:0:0:
79,75,150834,2,0,P|108:133|123:251,1,180,4|4,0:3|0:3,0:0:0:0:
47,322,151988,1,8,1:3:0:0:
150,353,152373,6,0,L|249:359,1,90,4|8,1:2|0:3,0:0:0:0:
347,367,153142,1,2,0:3:0:0:
382,264,153527,1,8,0:3:0:0:
278,232,153911,2,0,P|197:233|127:245,1,150,4|4,0:3|0:3,0:0:0:0:
25,144,155065,1,8,1:3:0:0:
103,67,155450,38,0,P|123:141|128:247,1,180,4|2,1:0|0:3,0:0:0:0:
184,336,156604,1,8,0:3:0:0:
255,255,156988,2,0,B|331:240|330:288|415:273,1,150,4|4,0:3|0:3,0:0:0:0:
482,156,158142,1,8,1:3:0:0:
403,81,158527,6,0,B|362:80|362:80|308:99,2,90,4|8|2,1:0|0:3|0:3,0:0:0:0:
391,188,159680,1,8,0:3:0:0:
290,229,160065,2,0,P|277:151|245:68,1,150,4|4,0:3|0:3,0:0:0:0:
164,197,161219,1,8,0:3:0:0:
150,304,161604,38,0,L|337:317,1,180,4|2,1:0|0:3,0:0:0:0:
415,250,162757,1,8,0:3:0:0:
370,151,163142,2,0,L|200:160,1,150,4|4,0:3|0:3,0:0:0:0:
97,83,164295,1,8,1:3:0:0:
63,185,164680,1,4,1:0:0:0:
256,192,164809,12,4,166219,0:3:0:0:
280,163,167757,6,0,P|274:212|277:262,2,90,4|8|2,1:0|0:3|0:3,0:0:0:0:
375,112,168911,1,8,0:3:0:0:
447,191,169296,2,0,P|451:254|442:353,1,150,4|4,0:3|0:3,0:0:0:0:
327,256,170450,1,8,1:3:0:0:
294,151,170834,38,0,P|339:126|382:109,1,90,4|8,1:0|0:3,0:0:0:0:
309,25,171604,1,2,0:3:0:0:
212,72,171988,1,8,0:3:0:0:
116,121,172373,2,0,P|124:203|128:289,1,150,4|4,0:3|0:3,0:0:0:0:
248,192,173527,1,8,0:3:0:0:
303,284,173911,6,0,P|261:307|210:337,1,90,4|8,1:0|0:0,0:0:0:0:
123,367,174680,1,2,0:3:0:0:
44,292,175065,1,8,0:3:0:0:
98,196,175450,2,0,P|170:197|273:189,1,150,4|4,0:3|0:3,0:0:0:0:
373,122,176604,1,8,1:3:0:0:
370,229,176988,38,0,P|372:280|378:338,2,90,4|8|2,1:0|0:0|0:3,0:0:0:0:
463,174,178142,1,8,0:3:0:0:
373,122,178527,2,0,P|298:127|218:122,1,150,4|4,0:3|0:3,0:0:0:0:
99,50,179680,1,8,1:3:0:0:
55,148,180065,6,0,P|48:237|50:334,1,180,4|2,1:0|0:3,0:0:0:0:
154,352,181219,1,8,0:3:0:0:
224,270,181604,2,0,P|209:224|185:171,2,90,4|8|0,0:3|0:0|0:0,0:0:0:0:
302,344,182757,1,8,1:3:0:0:
394,287,183142,38,0,P|411:230|430:186,1,90,4|8,1:0|0:0,0:0:0:0:
477,109,183911,1,2,0:3:0:0:
404,28,184296,1,8,0:3:0:0:
296,40,184680,2,0,P|315:116|300:212,1,150,4|4,0:3|0:3,0:0:0:0:
165,208,185834,1,8,1:3:0:0:
159,315,186219,6,0,P|255:322|349:334,1,180,4|2,1:0|0:3,0:0:0:0:
438,292,187373,1,8,0:3:0:0:
417,186,187757,2,0,P|320:193|247:200,1,150,4|4,0:3|0:3,0:0:0:0:
132,148,188911,1,8,1:2:0:0:
171,47,189296,1,4,1:0:0:0:
256,192,189424,12,4,190834,0:3:0:0:
477,40,192373,38,0,P|457:122|450:235,1,180,4|2,1:0|0:3,0:0:0:0:
482,320,193527,1,8,0:3:0:0:
379,352,193911,2,0,P|345:288|328:200,1,150,4|4,0:3|0:3,0:0:0:0:
388,81,195065,1,8,1:3:0:0:
284,111,195450,6,0,P|234:92|199:64,2,90,4|8|2,1:0|0:0|0:3,0:0:0:0:
388,81,196604,1,8,1:3:0:0:
486,123,196988,1,4,1:3:0:0:
446,223,197373,1,8,1:2:0:0:
341,197,197757,2,0,L|300:296,1,90,4|8,1:3|1:3,0:0:0:0:
218,343,198527,1,4,1:0:0:0:
158,252,198911,6,0,L|158:144,2,90,10|2|10,1:0|1:0|1:0,0:0:0:0:
82,331,200065,1,4,1:3:0:0:
191,356,200450,1,10,1:0:0:0:
260,273,200834,1,2,1:0:0:0:
210,177,201219,1,10,1:0:0:0:
317,182,201604,6,0,P|405:148|433:51,1,180,4|2,1:0|1:0,0:0:0:0:
339,23,202757,1,2,1:0:0:0:
236,56,203142,2,0,P|232:100|236:167,2,90,4|10|4,1:3|1:0|1:2,0:0:0:0:
138,101,204296,1,8,1:0:0:0:
94,199,204680,38,0,P|183:231|263:292,1,180,4|4,1:0|1:3,0:0:0:0:
320,363,205834,1,8,1:3:0:0:
397,287,206219,2,0,P|399:228|395:179,1,90,4|8,1:2|1:0,0:0:0:0:
301,146,206988,1,2,1:3:0:0:
300,254,207373,1,8,1:0:0:0:
196,284,207757,6,0,P|145:282|91:287,2,90,4|8|2,1:0|1:0|1:3,0:0:0:0:
282,348,208911,1,8,1:3:0:0:
382,308,209296,2,0,P|395:273|406:214,1,90,4|8,1:3|1:0,0:0:0:0:
359,123,210065,1,2,1:2:0:0:
294,209,210450,1,8,1:3:0:0:
188,188,210834,38,0,P|197:75|252:35,1,180,4|2,1:0|1:3,0:0:0:0:
334,97,211988,1,8,1:3:0:0:
313,203,212373,2,0,P|305:246|305:306,2,90,4|8|4,1:3|1:3|1:3,0:0:0:0:
413,242,213527,1,8,1:0:0:0:
369,340,213911,6,0,P|270:335|185:355,1,180,4|2,1:0|1:3,0:0:0:0:
83,351,215065,1,8,1:3:0:0:
38,252,215450,1,4,1:3:0:0:
113,175,215834,1,8,1:0:0:0:
214,212,216219,2,0,P|259:213|316:208,1,90,4|8,1:3|1:3,0:0:0:0:
386,139,216988,37,4,1:0:0:0:
479,192,217373,2,0,P|483:236|479:307,2,90,10|2|10,1:0|1:0|1:0,0:0:0:0:
454,86,218527,2,0,P|377:99|279:104,1,150,4|2,1:3|1:0,0:0:0:0:
175,41,219680,1,8,1:3:0:0:
199,146,220065,6,0,P|205:195|209:257,1,90,4|8,1:0|1:0,0:0:0:0:
179,339,220834,1,2,1:3:0:0:
285,357,221219,1,8,1:3:0:0:
315,252,221604,2,0,P|355:268|408:296,2,90,4|8|2,1:3|1:0|1:3,0:0:0:0:
208,235,222757,1,8,1:1:0:0:
213,127,223142,38,0,P|305:111|366:29,1,180,4|2,1:0|1:3,0:0:0:0:
459,88,224296,1,8,1:0:0:0:
428,191,224680,2,0,P|385:192|321:200,2,90,4|8|4,1:3|1:0|1:3,0:0:0:0:
494,276,225834,1,8,1:0:0:0:
414,349,226219,6,0,P|334:296|334:214,1,180,4|2,1:0|1:3,0:0:0:0:
371,118,227373,1,8,1:3:0:0:
280,60,227757,2,0,P|259:114|229:157,1,90,4|8,1:3|1:0,0:0:0:0:
133,142,228527,1,2,1:0:0:0:
81,47,228911,1,8,1:0:0:0:
25,145,229296,38,0,P|32:191|31:256,2,90,4|10|2,1:0|1:0|1:3,0:0:0:0:
133,142,230450,1,10,1:0:0:0:
167,244,230834,2,0,P|119:273|73:377,1,150,4|4,1:3|1:3,0:0:0:0:
218,347,231988,1,8,1:3:0:0:
282,260,232373,1,2,1:2:0:0:
204,141,235450,21,4,1:0:0:0:
293,200,235834,2,0,P|381:196|472:201,1,180,8|8,0:2|0:0,0:0:0:0:
443,305,236988,2,0,P|376:322|284:358,1,150,4|4,0:0|0:0,0:0:0:0:
190,257,238142,1,8,0:2:0:0:
82,265,238526,6,0,P|72:310|62:380,2,90,4|8|2,0:2|0:2|0:0,0:0:0:0:
139,173,239680,1,8,0:0:0:0:
247,175,240065,2,0,B|320:163|321:203|415:189,1,150,4|4,0:0|0:0,0:0:0:0:
483,77,241219,1,8,0:2:0:0:
376,91,241603,37,4,1:0:0:0:
314,179,241988,2,0,B|297:253|297:253|316:368,1,180,8|8,0:2|0:0,0:0:0:0:
210,322,243142,2,0,B|134:314|134:314|54:337,1,150,4|4,0:0|0:0,0:0:0:0:
118,201,244296,1,8,0:2:0:0:
223,179,244680,6,0,L|317:182,1,90,4|8,0:2|0:2,0:0:0:0:
130,65,245834,1,8,0:0:0:0:
36,118,246219,2,0,P|41:189|37:288,1,150,4|8,0:0|0:0,0:0:0:0:
150,358,247373,1,8,0:2:0:0:
233,290,247757,37,4,1:0:0:0:
217,183,248142,2,0,P|121:164|55:117,1,180,8|8,0:2|0:0,0:0:0:0:
128,37,249296,2,0,P|207:43|288:37,1,150,4|4,0:0|0:0,0:0:0:0:
421,50,250450,1,8,0:2:0:0:
460,150,250834,6,0,B|469:182|469:182|463:257,2,90,4|8|2,0:2|0:2|0:0,0:0:0:0:
351,153,251988,1,8,0:0:0:0:
289,242,252373,2,0,P|331:306|386:354,1,150,4|4,0:0|0:0,0:0:0:0:
490,255,253526,1,8,0:0:0:0:
463,150,253911,38,0,P|453:95|444:49,1,90,4|8,1:0|0:2,0:0:0:0:
230,57,255065,1,8,0:0:0:0:
176,150,255450,2,0,P|103:142|15:143,1,150,4|4,0:0|0:0,0:0:0:0:
120,253,256603,1,8,0:2:0:0:
227,246,256988,6,0,L|235:290|243:334,1,90,4|8,1:0|0:2,0:0:0:0:
339,140,258142,1,8,0:0:0:0:
357,240,258526,1,4,0:0:0:0:
447,299,258911,1,8,0:2:0:0:
454,191,259296,1,4,0:0:0:0:
357,240,259680,1,8,0:2:0:0:
260,289,260065,38,0,L|159:291,1,90,4|8,1:0|0:2,0:0:0:0:
87,103,261219,1,8,0:0:0:0:
194,97,261603,2,0,P|268:100|348:110,1,150,4|4,0:0|0:0,0:0:0:0:
470,176,262757,1,8,0:2:0:0:
406,263,263142,6,0,P|411:307|411:374,2,90,4|8|2,0:2|0:2|0:0,0:0:0:0:
312,208,264296,1,8,0:0:0:0:
216,258,264680,2,0,P|141:262|58:273,1,150,4|4,0:0|0:0,0:0:0:0:
186,352,265834,1,8,0:2:0:0:
288,317,266219,37,4,1:0:0:0:
312,208,266603,1,8,0:2:0:0:
152,62,267373,1,8,0:0:0:0:
59,116,267757,2,0,P|66:193|69:280,1,150,4|4,0:0|0:0,0:0:0:0:
190,342,268911,1,8,0:2:0:0:
258,258,269296,5,4,0:2:0:0:
211,160,269680,2,0,P|285:162|402:149,1,180,8|8,0:2|0:0,0:0:0:0:
482,95,270834,2,0,P|475:162|479:264,1,150,4|4,0:0|0:0,0:0:0:0:
332,250,271988,1,8,0:2:0:0:
385,343,272373,38,0,P|436:344|500:345,1,90,4|8,1:0|0:2,0:0:0:0:
259,355,273526,1,8,0:0:0:0:
160,309,273911,2,0,P|150:237|148:144,1,150,4|4,0:0|0:0,0:0:0:0:
201,26,275065,1,8,0:2:0:0:
98,60,275450,5,4,0:2:0:0:
147,159,275834,2,0,P|236:169|336:189,1,180,8|8,0:2|0:0,0:0:0:0:
427,218,276988,2,0,P|437:167|455:126,2,90,4|8|2,0:3|0:2|0:0,0:0:0:0:
443,326,278142,1,8,0:3:0:0:
336,309,278527,38,0,P|237:309|132:322,1,180,4|2,1:0|0:0,0:0:0:0:
51,344,279680,1,8,0:0:0:0:
51,235,280065,2,0,P|46:164|33:69,1,150,4|4,0:0|0:0,0:0:0:0:
154,167,281219,1,8,0:2:0:0:
225,86,281604,6,0,P|324:86|429:99,1,180,4|2,1:0|0:0,0:0:0:0:
448,193,282757,1,8,0:0:0:0:
363,260,283142,2,0,P|285:253|208:266,1,150,4|4,0:0|0:0,0:0:0:0:
100,352,284296,1,8,0:0:0:0:
98,244,284680,1,4,1:0:0:0:
