osu file format v14

[General]
AudioFilename: audio.mp3
AudioLeadIn: 0
PreviewTime: 86475
Countdown: 0
SampleSet: Soft
StackLeniency: 0.7
Mode: 0
LetterboxInBreaks: 0
WidescreenStoryboard: 0

[Editor]
DistanceSpacing: 1.4
BeatDivisor: 6
GridSize: 4
TimelineZoom: 2.299999

[Metadata]
Title:Tear Garden
TitleUnicode:Tear Garden
Artist:IAMX
ArtistUnicode:IAMX
Creator:PandaHero
Version:Hard
Source:
Tags:IceBeam SadKangaroo Kingdom Of Welcome Addiction Chris Corner synthpop dark cabaret alternative industrial electronica experimental
BeatmapID:1461909
BeatmapSetID:690400

[Difficulty]
HPDrainRate:4
CircleSize:3.5
OverallDifficulty:6
ApproachRate:7
SliderMultiplier:1
SliderTickRate:1

[Events]
//Background and Video events
0,0,"grass_at_night-wallpaper.jpg",0,0
//Break Periods
2,124880,136089
2,232574,234551
//Storyboard Layer 0 (Background)
//Storyboard Layer 1 (Fail)
//Storyboard Layer 2 (Pass)
//Storyboard Layer 3 (Foreground)
//Storyboard Sound Samples

[TimingPoints]
1604,384.615384615385,4,3,1,50,1,0
13911,-90.9090909090909,4,2,1,60,0,0
38527,-90.9090909090909,4,2,1,65,0,0
87757,-90.9090909090909,4,2,1,70,0,1
88142,-90.9090909090909,4,2,1,70,0,0
106219,-76.9230769230769,4,2,1,75,0,1
106604,-76.9230769230769,4,2,1,75,0,0
118527,-76.9230769230769,4,2,1,75,0,1
118911,-76.9230769230769,4,2,1,75,0,0
124680,-100,4,2,1,75,0,1
124809,-100,4,2,1,75,0,0
136988,-100,4,3,1,60,0,0
149296,-90.9090909090909,4,2,1,65,0,0
173911,-90.9090909090909,4,2,1,70,0,0
198527,-76.9230769230769,4,2,1,75,0,1
198911,-76.9230769230769,4,2,1,75,0,0
216988,-76.9230769230769,4,2,1,80,0,1
232373,-90.9090909090909,4,2,1,60,0,0
235450,-100,4,3,1,50,0,1
235578,-100,4,3,1,50,0,0
260065,-100,4,3,1,50,0,1
260193,-100,4,3,1,50,0,0
284680,-100,4,3,1,50,0,1
284809,-100,4,3,1,50,0,0

[Colours]
Combo1 : 35,170,177
Combo2 : 168,192,219
Combo3 : 66,111,159
Combo4 : 149,230,234

[HitObjects]
64,128,1604,6,0,P|119:131|184:128,1,100,4|8,0:0|0:0,0:0:0:0:
291,211,2630,1,8,0:0:0:0:
291,211,2758,2,0,L|201:215,1,66.6666666666667,4|8,0:0|0:0,0:0:0:0:
204,240,3143,2,0,P|201:273|201:334,1,66.6666666666667,4|8,0:0|0:0,0:0:0:0:
228,324,3528,2,0,L|310:324,1,66.6666666666667,4|8,0:0|0:0,0:0:0:0:
472,228,4169,1,4,0:0:0:0:
472,228,4297,2,0,L|470:144,1,66.6666666666667,8|8,0:0|0:0,0:0:0:0:
403,132,4681,6,0,P|394:186|387:244,1,100,4|8,0:0|0:0,0:0:0:0:
277,71,5707,1,0,0:0:0:0:
277,71,5835,2,0,L|266:158,1,66.6666666666667,8|0,0:0|0:0,0:0:0:0:
262,170,6220,2,0,L|165:165,1,66.6666666666667,4|4,0:0|0:0,0:0:0:0:
161,166,6605,1,8,0:0:0:0:
77,128,6861,1,4,0:0:0:0:
190,271,7246,1,4,0:0:0:0:
190,271,7374,2,0,L|263:281,1,66.6666666666667,8|8,0:0|0:0,0:0:0:0:
325,298,7758,38,0,B|330:250|330:250|324:175,2,100,4|8|4,0:0|0:2|0:0,0:0:0:0:
177,342,8784,1,8,0:0:0:0:
177,342,8912,2,0,L|92:344,1,66.6666666666667,4|4,0:0|0:0,0:0:0:0:
76,344,9297,1,8,0:0:0:0:
161,216,9553,1,8,0:0:0:0:
161,216,9681,2,0,L|252:224,1,66.6666666666667,8|8,0:3|0:0,0:0:0:0:
321,65,10322,5,4,0:0:0:0:
321,65,10451,1,0,0:0:0:0:
223,73,10707,1,8,0:0:0:0:
223,73,10835,2,0,L|133:79,1,66.6666666666667,4|4,0:0|0:0,0:0:0:0:
122,77,11220,1,0,0:0:0:0:
335,177,11861,1,8,0:0:0:0:
335,177,11989,2,0,P|371:178|417:177,1,66.6666666666667,4|4,0:0|0:0,0:0:0:0:
432,189,12374,2,0,L|429:274,1,66.6666666666667,8|8,0:0|0:0,0:0:0:0:
407,280,12758,2,0,L|319:280,1,66.6666666666667,8|8,0:3|0:0,0:0:0:0:
196,336,13399,1,8,0:0:0:0:
196,336,13528,2,0,L|271:342,1,66.6666666666667,4|4,0:0|0:0,0:0:0:0:
335,357,13912,38,0,P|337:300|346:235,2,110.000003356934,4|8|2,1:0|0:0|0:3,0:0:0:0:
453,312,14938,1,4,0:3:0:0:
453,312,15066,2,0,L|459:210,1,73.3333355712891,8|8,0:0|0:3,0:0:0:0:
457,201,15451,2,0,P|405:169|348:109,1,110.000003356934,4|8,0:3|0:0,0:0:0:0:
291,40,16092,2,0,P|280:104|258:160,1,110.000003356934,4|4,0:3|0:3,0:0:0:0:
242,175,16605,2,0,L|144:167,1,73.3333355712891,8|8,0:0|1:3,0:0:0:0:
132,172,16989,6,0,P|125:226|123:281,2,110.000003356934,4|8|2,1:2|0:0|0:3,0:0:0:0:
38,75,18015,1,4,0:3:0:0:
38,75,18143,2,0,L|22:166,1,73.3333355712891,8|8,0:0|0:3,0:0:0:0:
22,185,18528,2,0,L|145:170,1,110.000003356934,4|8,0:3|0:0,0:0:0:0:
231,262,19169,2,0,L|106:284,1,110.000003356934,4|4,0:3|0:3,0:0:0:0:
87,290,19681,1,8,0:0:0:0:
237,353,19938,37,10,1:3:0:0:
237,353,20066,2,0,P|294:355|365:359,1,110.000003356934,4|8,1:2|0:0,0:0:0:0:
471,262,20835,1,2,0:3:0:0:
381,222,21092,1,4,0:3:0:0:
381,222,21220,2,0,L|385:142,1,73.3333355712891,8|8,0:0|0:3,0:0:0:0:
388,112,21605,2,0,P|330:123|244:131,1,110.000003356934,4|8,0:3|0:0,0:0:0:0:
150,59,22246,2,0,P|208:48|294:40,1,110.000003356934,4|4,0:3|0:3,0:0:0:0:
295,40,22758,1,8,0:0:0:0:
201,136,23015,5,8,1:3:0:0:
201,136,23143,2,0,P|203:195|197:270,1,110.000003356934,4|8,1:2|0:0,0:0:0:0:
33,350,23912,2,0,L|74:350|112:350,1,73.3333355712891,2|4,0:3|0:3,0:0:0:0:
130,321,24297,2,0,L|171:321|209:321,1,73.3333355712891,8|0,0:0|0:0,0:0:0:0:
238,330,24681,1,4,0:3:0:0:
361,376,24938,1,4,0:3:0:0:
361,376,25066,2,0,P|368:313|375:273,1,73.3333355712891,8|4,0:0|0:3,0:0:0:0:
470,213,25707,1,2,0:0:0:0:
470,213,25835,1,10,0:0:0:0:
397,144,26092,1,10,1:3:0:0:
397,144,26220,1,4,1:0:0:0:
276,28,26604,38,0,P|276:82|270:161,1,110.000003356934,8|2,0:0|0:3,0:0:0:0:
163,211,27246,1,4,0:3:0:0:
163,211,27374,2,0,L|150:134,1,73.3333355712891,8|8,0:0|0:3,0:0:0:0:
146,102,27758,2,0,P|83:106|20:97,1,110.000003356934,4|8,0:3|0:0,0:0:0:0:
76,18,28399,1,4,0:3:0:0:
252,102,28784,2,0,L|252:150,1,36.6666677856446,2|10,0:0|0:0,0:0:0:0:
355,59,29169,2,0,L|355:11,1,36.6666677856446,10|6,1:3|1:2,0:0:0:0:
362,165,29681,6,0,P|367:226|368:298,1,110.000003356934,8|2,0:0|0:3,0:0:0:0:
490,184,30322,1,4,0:3:0:0:
490,184,30451,2,0,L|486:81,1,73.3333355712891,8|8,0:0|0:3,0:0:0:0:
482,74,30835,2,0,P|428:81|343:71,1,110.000003356934,4|8,0:3|0:0,0:0:0:0:
250,39,31476,2,0,P|254:112|255:197,1,146.666671142578,4|8,0:3|0:0,0:0:0:0:
162,280,32246,37,8,1:3:0:0:
162,280,32374,2,0,P|216:287|301:277,2,110.000003356934,6|8|2,1:2|0:0|0:3,0:0:0:0:
41,297,33399,1,4,0:3:0:0:
41,297,33528,2,0,P|45:255|45:205,1,73.3333355712891,8|8,0:0|0:3,0:0:0:0:
74,201,33912,2,0,P|70:159|70:109,1,73.3333355712891,4|4,0:3|0:3,0:0:0:0:
49,97,34297,2,0,L|150:97,1,73.3333355712891,8|4,0:0|0:3,0:0:0:0:
268,158,34938,2,0,L|202:158,1,36.6666677856446,2|8,1:2|1:2,0:0:0:0:
310,258,35322,2,0,L|376:258,1,36.6666677856446,10|6,1:3|1:2,0:0:0:0:
482,186,35835,6,0,P|485:240|484:295,2,110.000003356934,8|2|8,1:2|1:3|1:2,0:0:0:0:
400,83,36861,1,4,1:3:0:0:
400,83,36989,2,0,L|383:173,1,73.3333355712891,4|4,1:3|1:3,0:0:0:0:
378,190,37373,1,8,1:3:0:0:
350,312,37629,2,0,B|301:297|301:297|227:302,1,110.000003356934,8|4,1:3|1:3,0:0:0:0:
206,307,38142,1,10,1:3:0:0:
170,180,38399,37,10,1:3:0:0:
170,180,38528,2,0,P|172:131|171:52,1,110.000003356934,4|8,1:0|0:0,0:0:0:0:
42,167,39297,2,0,P|38:221|33:294,1,110.000003356934,2|8,0:3|1:3,0:0:0:0:
185,337,39938,1,8,0:3:0:0:
185,337,40066,2,0,B|282:318|275:368|389:345,1,183.333338928223,4|4,0:3|0:3,0:0:0:0:
248,188,41092,1,2,1:2:0:0:
248,188,41220,2,0,P|207:188|157:193,1,73.3333355712891,10|2,1:2|1:3,0:0:0:0:
136,188,41605,6,0,P|138:128|133:64,1,110.000003356934,4|8,1:2|0:0,0:0:0:0:
280,36,42374,2,0,P|340:34|404:39,1,110.000003356934,2|8,0:3|1:3,0:0:0:0:
476,96,43015,1,8,0:3:0:0:
476,96,43143,2,0,P|425:149|471:252,1,183.333338928223,4|0,0:3|1:0,0:0:0:0:
296,228,44168,1,4,1:3:0:0:
296,228,44296,1,8,1:3:0:0:
333,128,44553,37,8,1:3:0:0:
333,128,44681,2,0,L|204:136,1,110.000003356934,4|8,1:0|0:0,0:0:0:0:
88,64,45451,1,2,0:3:0:0:
40,156,45707,1,4,0:3:0:0:
40,156,45835,2,0,P|82:170|124:189,1,73.3333355712891,8|8,1:3|0:3,0:0:0:0:
145,185,46220,2,0,P|136:270|151:383,1,183.333338928223,4|4,0:3|0:3,0:0:0:0:
282,248,47246,1,2,1:2:0:0:
282,248,47374,2,0,P|281:297|276:343,1,73.3333355712891,10|2,1:2|1:3,0:0:0:0:
279,357,47758,6,0,P|335:363|411:357,2,110.000003356934,4|8|2,1:0|0:0|0:3,0:0:0:0:
179,261,48784,1,4,0:3:0:0:
179,261,48912,2,0,P|177:220|178:178,1,73.3333355712891,8|8,1:3|0:3,0:0:0:0:
178,150,49297,2,0,P|235:142|289:122,1,110.000003356934,4|0,0:3|0:0,0:0:0:0:
367,10,49938,2,0,P|375:67|395:121,1,110.000003356934,4|4,0:3|1:3,0:0:0:0:
415,145,50451,1,8,1:3:0:0:
500,247,50707,37,8,1:3:0:0:
500,247,50835,2,0,L|372:249,1,110.000003356934,4|8,1:0|0:0,0:0:0:0:
284,124,51605,1,2,0:3:0:0:
287,226,51861,1,4,0:3:0:0:
287,226,51989,2,0,P|286:275|286:319,1,73.3333355712891,8|8,1:3|0:3,0:0:0:0:
286,336,52374,2,0,B|215:330|215:330|93:352,1,183.333338928223,4|4,0:3|0:3,0:0:0:0:
22,235,53399,2,0,L|63:225,1,36.6666677856446,2|10,1:2|1:2,0:0:0:0:
165,177,53784,2,0,L|124:167,1,36.6666677856446,6|4,1:2|1:0,0:0:0:0:
254,170,54296,6,0,P|253:228|255:315,2,110.000003356934,8|2|8,0:0|0:3|1:3,0:0:0:0:
380,146,55322,1,8,0:3:0:0:
380,146,55451,2,0,P|387:205|392:281,1,110.000003356934,4|8,0:3|1:2,0:0:0:0:
253,279,56092,2,0,P|185:273|136:259,1,110.000003356934,0|0,1:0|0:0,0:0:0:0:
111,246,56605,2,0,L|109:324,1,73.3333355712891,8|8,1:3|1:3,0:0:0:0:
80,340,56989,38,0,P|56:284|24:240,1,110.000003356934,4|8,1:0|0:0,0:0:0:0:
130,163,57758,1,2,0:3:0:0:
210,304,58015,1,4,0:3:0:0:
210,304,58143,2,0,L|292:311,1,73.3333355712891,8|8,1:3|0:3,0:0:0:0:
313,331,58528,2,0,P|309:277|312:236,1,73.3333355712891,4|8,0:3|0:3,0:0:0:0:
312,220,58912,1,8,1:2:0:0:
419,161,59169,2,0,P|436:212|454:284,1,110.000003356934,4|2,0:3|1:2,0:0:0:0:
458,302,59681,1,10,1:2:0:0:
318,224,59938,5,6,1:2:0:0:
318,224,60066,2,0,L|181:222,1,110.000003356934,4|8,1:0|1:2,0:0:0:0:
329,76,60835,2,0,L|466:74,1,110.000003356934,2|8,0:3|1:3,0:0:0:0:
504,176,61605,2,0,P|461:178|413:180,1,73.3333355712891,4|0,1:0|1:0,0:0:0:0:
400,196,61989,2,0,P|358:182|313:168,1,73.3333355712891,8|4,1:2|1:3,0:0:0:0:
296,164,62374,2,0,P|254:177|170:223,1,110.000003356934,8|8,0:3|1:3,0:0:0:0:
52,319,63015,37,8,1:3:0:0:
52,319,63143,2,0,L|44:193,1,110.000003356934,4|8,1:0|0:0,0:0:0:0:
193,253,63912,2,0,L|201:381,1,110.000003356934,2|8,3:0|1:3,0:0:0:0:
326,352,64553,1,8,0:3:0:0:
326,352,64681,2,0,P|368:268|452:220,1,183.333338928223,4|4,0:3|0:3,0:0:0:0:
278,193,65707,1,0,1:0:0:0:
278,193,65835,2,0,P|264:156|265:99,1,73.3333355712891,0|0,1:0|1:0,0:0:0:0:
260,88,66219,6,0,L|120:94,2,110.000003356934,4|8|2,1:0|0:0|0:3,0:0:0:0:
382,89,67246,1,4,0:3:0:0:
382,89,67374,2,0,P|396:126|395:183,1,73.3333355712891,8|8,1:3|0:3,0:0:0:0:
401,195,67757,2,0,P|390:268|471:355,1,183.333338928223,4|4,1:3|0:3,0:0:0:0:
268,356,68784,1,4,1:3:0:0:
268,356,68912,2,0,P|276:306|288:258,1,73.3333355712891,8|8,1:3|1:3,0:0:0:0:
284,248,69297,38,0,P|229:259|150:265,1,110.000003356934,4|8,1:0|0:0,0:0:0:0:
25,162,70066,1,2,3:0:0:0:
113,108,70322,1,4,0:3:0:0:
113,108,70451,2,0,P|110:152|105:206,1,73.3333355712891,8|8,1:3|0:3,0:0:0:0:
106,217,70834,2,0,P|185:247|251:339,1,183.333338928223,4|4,0:3|0:3,0:0:0:0:
372,363,71861,1,4,1:3:0:0:
372,363,71989,2,0,P|378:318|377:273,1,73.3333355712891,0|2,1:3|1:3,0:0:0:0:
380,252,72373,6,0,P|441:260|511:251,2,110.000003356934,4|8|2,1:0|0:0|3:0,0:0:0:0:
287,132,73399,1,4,0:3:0:0:
287,132,73528,2,0,P|286:89|290:29,1,73.3333355712891,8|8,1:3|0:3,0:0:0:0:
256,44,73912,2,0,P|210:87|203:227,1,183.333338928223,4|4,0:3|0:3,0:0:0:0:
48,348,74938,1,4,1:3:0:0:
48,348,75066,2,0,P|36:304|32:264,1,73.3333355712891,8|8,1:3|1:3,0:0:0:0:
28,240,75451,38,0,P|88:238|160:224,1,110.000003356934,4|8,1:2|0:0,0:0:0:0:
256,44,76220,2,0,P|256:97|252:175,1,110.000003356934,2|8,0:3|1:3,0:0:0:0:
216,272,76861,1,8,0:3:0:0:
216,272,76988,2,0,B|307:256|307:315|423:299,1,183.333338928223,4|4,0:3|0:3,0:0:0:0:
488,245,78015,2,0,L|494:301,1,36.6666677856446,2|10,1:2|1:2,0:0:0:0:
404,208,78399,2,0,L|397:156,1,36.6666677856446,6|4,1:2|1:0,0:0:0:0:
277,232,78912,6,0,P|277:293|272:373,1,110.000003356934,8|2,1:2|0:3,0:0:0:0:
150,346,79553,1,4,0:3:0:0:
150,346,79681,2,0,P|104:348|45:356,1,73.3333355712891,8|0,1:3|1:0,0:0:0:0:
40,349,80065,1,4,1:3:0:0:
0,236,80450,1,8,1:2:0:0:
28,148,80707,2,0,B|75:167|75:167|175:155,1,146.666671142578,4|4,0:3|1:3,0:0:0:0:
297,60,81476,37,4,1:2:0:0:
297,60,81605,2,0,P|295:117|301:194,2,110.000003356934,4|8|2,1:0|0:0|0:3,0:0:0:0:
428,34,82630,1,4,0:3:0:0:
428,34,82758,2,0,P|453:79|474:127,1,73.3333355712891,8|8,1:3|0:3,0:0:0:0:
476,132,83143,2,0,B|422:181|422:181|397:301,1,183.333338928223,4|4,0:3|0:3,0:0:0:0:
272,192,84169,1,4,1:3:0:0:
272,192,84297,2,0,L|316:114,1,73.3333355712891,8|4,1:3|1:2,0:0:0:0:
300,92,84681,5,4,1:0:0:0:
172,97,84938,1,4,1:3:0:0:
172,97,85066,2,0,L|160:228,1,110.000003356934,8|2,1:2|1:3,0:0:0:0:
73,342,85707,1,4,1:3:0:0:
73,342,85835,2,0,P|53:300|39:252,1,73.3333355712891,8|8,1:3|1:3,0:0:0:0:
56,239,86220,2,0,P|76:197|90:149,1,73.3333355712891,4|4,1:3|1:3,0:0:0:0:
88,137,86605,1,8,1:3:0:0:
209,174,86861,2,0,P|250:174|329:164,1,110.000003356934,8|0,1:3|1:2,0:0:0:0:
344,140,87374,2,0,L|363:101,2,36.6666677856446,2|2|2,1:2|1:2|1:2,0:0:0:0:
356,176,87758,6,0,P|378:237|403:288,1,110.000003356934,6|8,1:2|1:0,0:0:0:0:
483,87,88528,1,2,1:2:0:0:
356,52,88784,1,0,1:0:0:0:
356,52,88912,1,8,1:0:0:0:
200,20,89169,1,0,1:0:0:0:
200,20,89297,2,0,L|240:116,1,73.3333355712891,2|0,1:2|1:0,0:0:0:0:
211,165,89680,2,0,L|105:155,1,73.3333355712891,8|2,1:0|1:2,0:0:0:0:
60,140,90066,2,0,P|64:197|65:265,1,110.000003356934,4|12,1:2|1:0,0:0:0:0:
172,332,90707,5,2,0:0:0:0:
172,332,90835,2,0,P|231:331|302:337,1,110.000003356934,6|8,1:2|1:0,0:0:0:0:
472,353,91605,1,2,1:2:0:0:
366,291,91861,1,0,1:0:0:0:
366,291,91989,1,8,1:0:0:0:
452,243,92246,1,0,1:0:0:0:
452,243,92374,2,0,P|473:203|492:159,1,73.3333355712891,2|0,1:2|1:0,0:0:0:0:
428,125,92758,2,0,P|406:85|388:41,1,73.3333355712891,8|2,1:0|1:2,0:0:0:0:
328,16,93142,2,0,P|279:50|208:80,1,110.000003356934,8|8,1:3|1:3,0:0:0:0:
36,40,93783,37,10,1:3:0:0:
36,40,93912,2,0,L|36:179,1,110.000003356934,4|8,1:0|1:0,0:0:0:0:
274,186,94681,1,2,0:0:0:0:
178,301,94938,1,0,1:0:0:0:
178,301,95066,2,0,P|173:257|166:204,1,73.3333355712891,8|2,1:0|1:2,0:0:0:0:
91,230,95451,2,0,P|80:275|65:351,2,110.000003356934,6|8|4,1:2|1:0|1:3,0:0:0:0:
258,269,96476,1,2,1:2:0:0:
258,269,96605,2,0,L|360:274,1,73.3333355712891,8|2,1:0|1:2,0:0:0:0:
409,277,96989,6,0,P|410:217|416:144,2,110.000003356934,4|8|2,1:0|0:0|0:0,0:0:0:0:
314,365,98015,1,0,1:0:0:0:
314,365,98143,2,0,L|237:350,1,73.3333355712891,8|0,1:0|1:0,0:0:0:0:
169,321,98528,2,0,P|138:339|95:367,1,73.3333355712891,6|0,1:2|1:0,0:0:0:0:
30,352,98912,1,8,1:0:0:0:
30,352,99169,2,0,P|27:283|14:203,1,146.666671142578,6|8,1:2|1:0,0:0:0:0:
217,249,99938,37,8,1:3:0:0:
217,249,100065,2,0,P|286:244|349:229,1,110.000003356934,4|8,1:0|0:0,0:0:0:0:
487,133,100835,1,2,0:0:0:0:
350,42,101092,1,0,1:0:0:0:
350,42,101220,2,0,P|354:89|363:147,1,73.3333355712891,8|0,1:0|1:0,0:0:0:0:
358,151,101605,2,0,L|268:160,1,73.3333355712891,2|0,1:2|1:0,0:0:0:0:
248,153,101989,1,8,1:0:0:0:
136,111,102246,2,0,P|154:172|166:245,1,110.000003356934,2|2,1:2|1:2,0:0:0:0:
167,253,102758,1,8,1:0:0:0:
50,354,103015,5,4,0:0:0:0:
50,354,103143,2,0,L|27:219,1,110.000003356934,4|8,1:0|0:0,0:0:0:0:
168,348,103912,1,2,1:2:0:0:
212,188,104169,1,0,1:0:0:0:
212,188,104297,2,0,P|220:144|233:90,1,73.3333355712891,8|0,1:0|1:0,0:0:0:0:
270,49,104681,2,0,P|315:50|362:49,1,73.3333355712891,4|0,1:3|1:0,0:0:0:0:
404,99,105066,2,0,P|411:134|418:170,1,73.3333355712891,8|6,1:0|1:2,0:0:0:0:
380,241,105451,1,0,1:0:0:0:
320,356,105706,1,4,1:3:0:0:
320,356,105835,1,8,1:3:0:0:
460,360,106092,37,8,1:3:0:0:
460,360,106220,2,0,P|467:289|480:209,1,129.999994049073,4|8,1:0|0:1,0:0:0:0:
397,54,106989,1,2,3:0:0:0:
246,98,107246,1,0,1:0:0:0:
246,98,107374,2,0,P|269:143|292:203,1,86.6666626993817,8|0,0:1|1:0,0:0:0:0:
303,249,107758,1,4,0:3:0:0:
146,272,108015,1,0,1:0:0:0:
146,272,108143,1,8,0:1:0:0:
253,345,108399,2,0,B|332:322|339:375|454:346,1,173.333325398763,4|8,1:3|0:1,0:0:0:0:
303,249,109168,5,4,1:2:0:0:
303,249,109297,2,0,P|299:177|329:106,2,129.999994049073,0|8|2,1:0|1:0|3:0,0:0:0:0:
468,260,110322,1,0,1:0:0:0:
468,260,110451,1,8,1:0:0:0:
470,74,110707,1,0,1:0:0:0:
470,74,110835,2,0,P|420:89|387:111,1,86.6666626993817,4|0,1:3|1:0,0:0:0:0:
317,123,111220,2,0,P|306:81|284:43,1,86.6666626993817,8|0,1:0|1:0,0:0:0:0:
209,36,111605,2,0,B|185:92|185:92|177:188,1,129.999994049073,8|2,1:0|1:2,0:0:0:0:
38,337,112246,37,4,1:2:0:0:
38,337,112374,2,0,L|202:343,1,129.999994049073,4|8,1:0|1:0,0:0:0:0:
359,344,113143,1,8,1:3:0:0:
454,266,113399,1,8,1:3:0:0:
454,266,113528,2,0,P|453:217|447:148,1,86.6666626993817,4|0,1:3|1:0,0:0:0:0:
390,129,113912,2,0,B|330:127|330:127|250:145,2,129.999994049073,4|0|4,1:3|1:0|1:3,0:0:0:0:
257,48,114938,1,0,1:0:0:0:
257,48,115066,2,0,P|212:57|164:73,1,86.6666626993817,8|4,1:0|1:2,0:0:0:0:
92,70,115451,6,0,P|109:128|101:221,2,129.999994049073,4|8|2,1:3|1:0|3:0,0:0:0:0:
18,217,116476,1,0,1:0:0:0:
18,217,116605,2,0,L|135:240,1,86.6666626993817,4|0,1:3|1:0,0:0:0:0:
121,273,116989,2,0,P|192:271|277:275,1,129.999994049073,4|8,1:3|1:0,0:0:0:0:
356,343,117629,1,0,1:0:0:0:
356,343,117757,2,0,B|368:297|368:297|352:273|352:273|364:206,1,129.999994049073,2|8,1:2|1:3,0:0:0:0:
491,75,118399,37,8,1:3:0:0:
491,75,118528,1,4,1:0:0:0:
479,231,118912,1,10,1:0:0:0:
278,125,119297,1,2,3:0:0:0:
290,281,119552,1,0,1:0:0:0:
290,281,119681,1,10,1:0:0:0:
361,182,119938,1,0,1:0:0:0:
361,182,120066,1,4,1:3:0:0:
198,205,120322,1,0,1:0:0:0:
198,205,120450,2,0,L|195:309,1,86.6666626993817,8|4,1:0|1:3,0:0:0:0:
31,107,121092,1,2,1:3:0:0:
31,107,121220,1,8,1:0:0:0:
128,123,121476,5,4,1:2:0:0:
128,123,121605,2,0,P|105:196|87:265,2,129.999994049073,4|8|2,1:0|1:0|0:3,0:0:0:0:
249,45,122630,1,4,0:3:0:0:
249,45,122758,2,0,P|301:48|361:46,1,86.6666626993817,8|8,1:0|1:3,0:0:0:0:
414,38,123143,1,4,1:3:0:0:
351,189,123399,1,4,1:3:0:0:
351,189,123528,2,0,P|305:187|248:182,1,86.6666626993817,8|4,1:0|1:3,0:0:0:0:
40,150,124169,1,4,1:3:0:0:
40,150,124297,1,8,1:3:0:0:
130,247,124553,1,8,1:3:0:0:
130,247,124680,1,4,1:0:0:0:
309,342,136989,6,0,L|434:340,1,100,4|8,0:1|0:0,0:0:0:0:
241,230,138015,1,4,0:0:0:0:
241,230,138143,1,10,0:0:0:0:
120,273,138399,1,8,0:0:0:0:
120,273,138528,2,0,P|118:216|115:180,1,66.6666666666667,4|4,0:0|0:0,0:0:0:0:
105,175,138912,1,8,0:0:0:0:
133,64,139169,2,0,B|188:65|188:65|288:90,1,133.333333333333,4|0,0:0|0:0,0:0:0:0:
410,152,139938,5,2,0:0:0:0:
410,152,140066,2,0,L|402:25,1,100,4|8,0:0|0:0,0:0:0:0:
470,286,141092,1,4,0:0:0:0:
470,286,141220,2,0,L|381:283,1,66.6666666666667,8|8,0:0|0:0,0:0:0:0:
378,306,141605,2,0,L|266:307,1,100,4|0,0:0|0:0,0:0:0:0:
339,198,142246,2,0,L|451:197,1,100,8|0,0:0|0:0,0:0:0:0:
472,198,142758,1,8,0:0:0:0:
351,68,143015,37,2,0:0:0:0:
351,68,143143,2,0,P|351:121|349:172,1,100,4|8,0:0|0:0,0:0:0:0:
132,40,144169,1,4,0:0:0:0:
132,40,144297,1,8,0:0:0:0:
42,130,144553,1,8,0:0:0:0:
42,130,144681,2,0,L|114:131,1,66.6666666666667,4|0,0:0|0:0,0:0:0:0:
142,132,145066,1,8,0:0:0:0:
249,203,145322,2,0,P|193:225|124:297,1,133.333333333333,4|8,0:0|0:0,0:0:0:0:
32,367,146092,5,2,0:0:0:0:
32,367,146220,2,0,L|33:254,1,100,4|8,0:0|0:0,0:0:0:0:
267,349,147246,1,4,0:0:0:0:
267,349,147374,2,0,L|343:349,1,66.6666666666667,8|8,0:0|0:0,0:0:0:0:
408,320,147758,2,0,P|410:284|419:243,1,66.6666666666667,4|4,0:0|0:0,0:0:0:0:
477,198,148143,1,8,0:0:0:0:
417,115,148399,2,0,B|360:100|357:134|291:120,1,100,8|4,0:0|3:0,0:0:0:0:
290,141,148912,1,8,3:0:0:0:
193,135,149169,1,8,3:0:0:0:
194,171,149296,38,0,L|194:296,1,110.000003356934,4|8,1:0|0:3,0:0:0:0:
32,265,150066,1,2,0:3:0:0:
28,144,150322,1,4,0:3:0:0:
28,144,150451,2,0,P|22:96|24:49,1,73.3333355712891,8|8,0:3|0:3,0:0:0:0:
21,34,150835,2,0,B|102:17|102:63|209:49,1,183.333338928223,4|4,0:3|0:3,0:0:0:0:
352,85,151861,1,4,1:3:0:0:
352,85,151989,1,8,1:3:0:0:
251,164,152246,5,4,1:2:0:0:
251,164,152374,2,0,P|263:217|275:293,1,110.000003356934,4|8,1:2|0:3,0:0:0:0:
453,353,153143,2,0,P|462:317|468:255,1,73.3333355712891,2|4,0:3|0:3,0:0:0:0:
445,251,153528,2,0,P|406:253|356:259,1,73.3333355712891,8|8,0:3|0:3,0:0:0:0:
349,285,153912,2,0,P|256:295|151:286,1,183.333338928223,4|4,0:3|0:3,0:0:0:0:
50,186,154938,1,4,1:3:0:0:
50,186,155066,2,0,L|59:97,1,73.3333355712891,8|4,1:3|1:2,0:0:0:0:
61,65,155450,38,0,P|120:71|197:68,1,110.000003356934,4|8,1:3|0:3,0:3:0:0:
325,26,156220,2,0,P|325:69|324:102,1,73.3333355712891,2|4,0:3|0:3,0:0:0:0:
325,136,156605,1,8,0:3:0:0:
329,247,156861,1,8,0:3:0:0:
329,247,156989,2,0,P|387:245|446:236,1,110.000003356934,4|8,0:3|0:3,0:0:0:0:
370,348,157630,2,0,P|312:346|195:322,1,146.666671142578,4|8,0:3|1:3,0:0:0:0:
114,257,158399,5,4,1:2:0:0:
114,257,158528,2,0,L|105:367,2,110.000003356934,4|8|2,1:0|0:3|0:3,0:0:0:0:
133,125,159553,1,4,0:3:0:0:
133,125,159681,1,8,0:3:0:0:
225,160,159938,1,8,0:3:0:0:
225,160,160066,2,0,L|223:267,1,73.3333355712891,4|4,0:3|0:3,0:0:0:0:
223,270,160451,1,8,0:3:0:0:
331,348,160707,2,0,P|346:261|377:177,1,146.666671142578,4|8,0:3|0:3,0:0:0:0:
452,102,161476,37,4,0:0:0:0:
452,102,161605,2,0,P|390:109|318:109,1,110.000003356934,4|8,1:0|0:3,0:0:0:0:
203,39,162373,2,0,P|214:92|206:165,1,110.000003356934,2|8,0:3|0:3,0:0:0:0:
146,269,163015,1,8,0:3:0:0:
146,269,163143,2,0,P|181:279|267:288,1,110.000003356934,4|8,0:3|0:3,0:0:0:0:
358,207,163784,2,0,P|338:276|345:339,1,110.000003356934,4|4,0:3|1:3,0:0:0:0:
345,349,164297,2,0,L|442:346,1,73.3333355712891,8|4,1:3|1:2,0:0:0:0:
453,355,164681,6,0,P|467:298|467:224,2,110.000003356934,4|8|2,1:0|0:3|0:3,0:0:0:0:
348,348,165707,1,4,0:3:0:0:
348,348,165835,1,8,0:3:0:0:
240,274,166092,1,8,0:3:0:0:
240,274,166220,2,0,P|240:219|246:174,1,73.3333355712891,4|4,0:3|0:3,0:0:0:0:
322,149,166605,1,8,0:3:0:0:
322,149,166861,2,0,P|396:154|493:151,1,146.666671142578,4|8,0:3|1:3,0:0:0:0:
395,50,167630,37,4,1:2:0:0:
395,50,167758,2,0,P|338:51|275:47,1,110.000003356934,4|8,1:0|0:3,0:0:0:0:
120,24,168528,1,2,0:3:0:0:
102,118,168784,1,4,0:3:0:0:
102,118,168912,2,0,L|84:202,1,73.3333355712891,8|8,0:3|0:3,0:0:0:0:
85,226,169297,2,0,L|172:236,1,73.3333355712891,4|4,0:3|0:3,0:0:0:0:
194,237,169681,1,8,0:3:0:0:
291,184,169938,2,0,L|304:322,1,110.000003356934,4|4,0:3|1:3,0:0:0:0:
308,329,170451,2,0,L|209:322,1,73.3333355712891,8|4,1:3|1:2,0:0:0:0:
198,327,170835,6,0,P|143:337|81:359,2,110.000003356934,4|8|2,1:0|0:3|0:3,0:0:0:0:
335,351,171861,1,4,0:3:0:0:
335,351,171989,2,0,P|343:306|348:255,1,73.3333355712891,8|8,0:3|0:3,0:0:0:0:
323,236,172374,2,0,P|320:197|319:129,1,73.3333355712891,4|4,0:3|0:3,0:0:0:0:
330,128,172758,1,8,0:3:0:0:
207,167,173015,2,0,P|150:172|88:164,1,110.000003356934,4|0,0:3|0:0,0:0:0:0:
62,177,173528,1,8,0:3:0:0:
139,317,173784,37,8,0:3:0:0:
139,317,173912,2,0,L|265:317,1,110.000003356934,4|8,1:0|0:0,0:0:0:0:
373,295,174681,1,2,0:3:0:0:
395,201,174938,1,4,0:3:0:0:
395,201,175066,2,0,P|394:148|386:112,1,73.3333355712891,8|8,0:3|0:3,0:0:0:0:
297,59,175451,2,0,B|312:159|263:145|283:251,1,183.333338928223,4|4,0:3|0:3,0:0:0:0:
135,284,176476,1,4,1:3:0:0:
135,284,176605,2,0,P|130:239|137:185,1,73.3333355712891,8|4,1:3|1:2,0:0:0:0:
128,174,176989,6,0,P|73:177|13:172,1,110.000003356934,4|8,1:0|0:0,0:0:0:0:
66,331,177758,1,2,0:3:0:0:
167,360,178015,1,4,0:3:0:0:
167,360,178143,1,8,0:3:0:0:
225,278,178399,1,8,0:3:0:0:
225,278,178528,2,0,P|236:226|240:180,1,73.3333355712891,4|4,0:3|0:3,0:0:0:0:
245,170,178912,1,8,0:0:0:0:
363,203,179169,2,0,P|358:273|363:358,1,146.666671142578,4|8,0:3|0:3,0:0:0:0:
479,282,179938,37,8,1:3:0:0:
479,282,180066,2,0,P|482:218|479:142,1,110.000003356934,4|8,1:0|0:0,0:0:0:0:
380,52,180835,2,0,L|330:127,1,73.3333355712891,2|4,0:3|0:3,0:0:0:0:
321,145,181220,1,8,0:3:0:0:
204,186,181476,1,8,0:3:0:0:
204,186,181605,2,0,B|106:164|105:220|-3:195,1,183.333338928223,4|4,0:3|0:3,0:0:0:0:
116,333,182630,1,4,1:3:0:0:
116,333,182758,2,0,P|154:333|208:335,1,73.3333355712891,8|4,1:3|1:2,0:0:0:0:
221,352,183143,6,0,L|357:351,2,110.000003356934,4|8|2,1:0|0:0|0:3,0:0:0:0:
188,252,184169,1,4,0:3:0:0:
188,252,184297,2,0,L|189:155,1,73.3333355712891,8|8,0:3|0:3,0:0:0:0:
195,142,184681,2,0,B|293:120|294:176|402:151,1,183.333338928223,4|4,0:3|0:3,0:0:0:0:
223,38,185707,1,4,1:3:0:0:
223,38,185835,1,8,1:3:0:0:
101,89,186092,37,8,1:3:0:0:
101,89,186220,2,0,P|101:147|102:226,1,110.000003356934,4|8,1:0|0:0,0:0:0:0:
48,320,186988,2,0,P|118:320|181:331,1,110.000003356934,2|8,0:3|0:3,0:0:0:0:
321,354,187758,2,0,P|335:294|366:222,1,110.000003356934,4|8,0:3|0:0,0:0:0:0:
408,141,188399,2,0,P|338:141|246:125,1,146.666671142578,4|8,0:3|1:2,0:0:0:0:
256,192,189297,12,4,190451,1:0:0:0:
41,265,190835,6,0,L|134:278,1,73.3333355712891,4|8,0:3|0:3,0:0:0:0:
149,283,191220,1,8,0:0:0:0:
268,351,191476,2,0,P|266:271|268:202,1,146.666671142578,4|8,0:3|1:3,0:0:0:0:
403,128,192246,37,8,1:3:0:0:
403,128,192374,2,0,P|406:188|410:246,2,110.000003356934,4|8|2,1:0|0:0|0:3,0:0:0:0:
308,42,193399,1,4,0:3:0:0:
308,42,193528,2,0,L|203:65,1,73.3333355712891,8|8,0:3|0:3,0:0:0:0:
212,85,193912,2,0,P|154:88|70:77,1,110.000003356934,4|8,0:3|0:0,0:0:0:0:
34,192,194553,2,0,L|49:327,1,110.000003356934,4|4,0:3|1:3,0:0:0:0:
52,337,195066,2,0,L|147:332,1,73.3333355712891,8|4,1:3|1:2,0:0:0:0:
154,355,195450,6,8,L|284:362,1,110.000003356934,4|8,1:0|0:0,0:0:0:0:
426,369,196220,1,2,0:3:0:0:
466,280,196476,1,4,1:3:0:0:
466,280,196605,2,0,P|466:233|471:191,1,73.3333355712891,8|8,1:3|1:3,0:0:0:0:
472,172,196989,2,0,P|425:172|383:167,1,73.3333355712891,4|4,1:3|1:3,0:0:0:0:
376,140,197374,2,0,P|329:140|287:145,1,73.3333355712891,8|4,1:2|1:3,0:0:0:0:
268,128,197757,2,0,P|271:186|268:265,1,110.000003356934,4|8,1:3|1:3,0:0:0:0:
39,255,198399,5,8,1:3:0:0:
39,255,198527,2,0,P|39:186|36:115,2,129.999994049073,4|2|2,1:0|1:0|1:0,0:0:0:0:
139,353,199553,1,0,1:0:0:0:
139,353,199681,1,10,1:0:0:0:
262,316,199938,1,4,1:2:0:0:
262,316,200066,2,0,P|262:247|265:176,2,129.999994049073,4|10|2,1:3|1:0|1:0,0:0:0:0:
388,348,201092,1,6,1:2:0:0:
388,348,201219,2,0,P|395:295|394:240,1,86.6666626993817,10|2,1:0|1:2,0:0:0:0:
394,186,201604,6,0,L|254:185,2,129.999994049073,4|10|2,1:0|1:0|1:0,0:0:0:0:
456,48,202630,1,0,1:0:0:0:
456,48,202758,2,0,P|405:30|373:22,1,86.6666626993817,6|4,1:0|1:2,0:0:0:0:
296,24,203143,2,0,P|279:88|269:154,1,129.999994049073,4|10,1:3|1:0,0:0:0:0:
112,216,203784,1,8,1:3:0:0:
112,216,203912,2,0,P|164:214|208:220,1,86.6666626993817,4|4,1:2|1:3,0:0:0:0:
196,88,204296,2,0,P|152:92|103:90,1,86.6666626993817,10|4,1:0|1:2,0:0:0:0:
40,52,204681,38,0,P|28:108|16:196,1,129.999994049073,4|8,1:0|1:0,0:0:0:0:
32,348,205451,1,4,1:3:0:0:
160,328,205707,1,4,1:3:0:0:
160,328,205835,2,0,P|209:332|260:339,1,86.6666626993817,8|8,1:3|1:3,0:0:0:0:
324,348,206220,2,0,P|320:292|320:244,1,86.6666626993817,4|0,1:2|1:0,0:0:0:0:
312,184,206605,1,8,1:0:0:0:
464,136,206861,2,0,P|472:203|483:270,1,129.999994049073,0|4,1:0|1:3,0:0:0:0:
488,344,207374,1,8,1:0:0:0:
324,348,207630,5,4,1:2:0:0:
324,348,207758,2,0,L|169:346,2,129.999994049073,4|8|2,1:0|1:0|1:3,0:0:0:0:
414,251,208784,1,4,1:3:0:0:
414,251,208912,2,0,L|397:150,1,86.6666626993817,8|8,1:3|1:3,0:0:0:0:
384,124,209297,2,0,P|318:128|243:127,1,129.999994049073,4|0,1:3|1:0,0:0:0:0:
176,32,209938,2,0,P|242:36|317:35,1,129.999994049073,4|4,1:3|1:3,0:0:0:0:
349,35,210451,1,8,1:3:0:0:
475,73,210707,37,10,1:3:0:0:
475,73,210835,2,0,L|469:234,1,129.999994049073,4|8,1:0|1:0,0:0:0:0:
332,348,211605,1,2,1:3:0:0:
217,285,211861,1,4,1:3:0:0:
217,285,211989,2,0,L|216:189,1,86.6666626993817,8|8,1:3|1:3,0:0:0:0:
235,159,212374,2,0,L|237:63,1,86.6666626993817,4|4,1:3|1:3,0:0:0:0:
209,39,212758,1,8,1:3:0:0:
90,93,213015,2,0,P|71:146|55:218,1,129.999994049073,4|4,1:3|1:3,0:0:0:0:
44,260,213528,1,8,1:3:0:0:
196,307,213783,5,4,1:2:0:0:
196,307,213912,2,0,L|352:308,2,129.999994049073,4|8|2,1:0|1:0|1:3,0:0:0:0:
76,364,214938,1,4,1:3:0:0:
76,364,215066,2,0,P|72:309|66:272,1,86.6666626993817,8|8,1:3|1:3,0:0:0:0:
57,235,215451,1,4,1:3:0:0:
160,157,215707,1,4,1:3:0:0:
160,157,215835,2,0,P|215:161|252:167,1,86.6666626993817,8|4,1:0|1:3,0:0:0:0:
281,191,216220,2,0,L|422:198,1,129.999994049073,8|8,0:3|1:3,0:0:0:0:
355,46,216861,1,10,1:3:0:0:
319,70,216989,38,0,P|247:77|171:77,2,129.999994049073,4|10|2,1:0|1:0|1:0,0:0:0:0:
482,82,218015,1,0,1:0:0:0:
482,82,218143,2,0,P|484:129|482:196,1,86.6666626993817,10|8,1:0|1:3,0:0:0:0:
456,244,218528,2,0,B|410:235|408:256|354:244,1,86.6666626993817,4|0,1:3|1:0,0:0:0:0:
312,196,218912,1,10,1:0:0:0:
176,112,219169,2,2,B|149:210|212:185|180:304,1,173.333325398763,2|8,1:0|1:3,0:1:0:0:
28,244,219938,5,10,1:3:0:0:
28,244,220066,2,0,P|23:174|24:93,1,129.999994049073,4|8,1:0|1:0,0:0:0:0:
120,247,220835,1,2,1:3:0:0:
239,194,221092,1,4,1:3:0:0:
239,194,221220,2,0,P|254:144|273:103,1,86.6666626993817,8|8,1:3|1:3,0:0:0:0:
316,48,221605,2,0,P|382:55|458:49,1,129.999994049073,4|8,1:3|1:0,0:0:0:0:
325,200,222246,1,0,1:0:0:0:
325,200,222374,2,0,P|273:198|224:191,1,86.6666626993817,2|2,1:3|1:2,0:0:0:0:
160,172,222758,2,0,P|162:219|163:270,1,86.6666626993817,8|6,1:1|1:2,0:0:0:0:
164,340,223143,38,0,L|25:341,1,129.999994049073,4|8,1:0|1:0,0:0:0:0:
264,360,223912,1,2,1:3:0:0:
396,327,224169,1,0,1:0:0:0:
396,327,224297,2,0,P|404:279|405:215,1,86.6666626993817,8|8,1:0|1:3,0:0:0:0:
340,192,224681,2,0,P|384:132|432:92,1,129.999994049073,4|8,1:3|1:0,0:0:0:0:
276,33,225322,1,4,1:3:0:0:
276,33,225450,2,0,P|216:40|136:36,1,129.999994049073,8|8,0:3|1:3,0:0:0:0:
40,112,226092,5,6,1:2:0:0:
40,112,226220,2,0,L|35:269,2,129.999994049073,4|8|2,1:0|1:0|1:3,0:0:0:0:
148,192,227246,1,4,1:3:0:0:
148,192,227374,1,8,1:3:0:0:
236,100,227630,1,8,1:3:0:0:
236,100,227758,2,0,P|282:51|313:29,1,86.6666626993817,4|0,1:3|1:0,0:0:0:0:
338,25,228143,1,8,1:0:0:0:
440,96,228399,2,0,P|447:156|446:269,1,173.333325398763,6|8,1:2|1:0,0:0:0:0:
314,335,229169,1,6,1:2:0:0:
351,355,229297,38,0,L|483:355,1,129.999994049073,4|8,1:0|1:0,0:0:0:0:
372,176,230066,1,2,1:3:0:0:
256,120,230322,1,0,1:0:0:0:
256,120,230450,2,0,L|157:120,1,86.6666626993817,8|8,1:0|1:3,0:0:0:0:
72,144,230835,2,0,P|76:201|77:246,1,86.6666626993817,4|0,1:3|1:0,0:0:0:0:
76,274,231220,1,8,1:0:0:0:
180,360,231476,1,4,1:3:0:0:
235,204,231861,1,4,1:3:0:0:
235,204,231989,2,0,P|250:140|262:92,1,86.6666626993817,8|10,1:3|1:3,0:0:0:0:
274,70,232374,1,2,1:2:0:0:
274,70,235451,22,0,L|274:198,1,100,4|8,1:0|0:2,0:0:0:0:
472,267,236476,1,4,0:0:0:0:
472,267,236604,2,0,P|487:213|490:188,1,66.6666666666667,8|8,0:0|0:0,0:0:0:0:
466,176,236989,2,0,P|451:122|448:97,1,66.6666666666667,4|4,0:0|0:0,0:0:0:0:
464,81,237374,1,8,0:2:0:0:
345,131,237630,2,0,P|339:187|341:276,1,133.333333333333,4|8,0:0|0:2,0:0:0:0:
356,357,238399,5,2,0:0:0:0:
356,357,238527,2,0,P|298:356|237:357,1,100,4|8,0:2|0:2,0:0:0:0:
42,349,239553,1,4,0:0:0:0:
42,349,239681,2,0,P|41:289|44:262,1,66.6666666666667,8|8,0:0|0:0,0:0:0:0:
45,249,240066,1,4,0:0:0:0:
127,182,240322,1,4,0:0:0:0:
127,182,240451,2,0,P|133:144|135:111,1,66.6666666666667,8|4,0:2|0:0,0:0:0:0:
314,211,241092,1,4,0:0:0:0:
314,211,241220,2,0,P|315:253|311:298,1,66.6666666666667,8|2,0:2|0:0,0:0:0:0:
312,310,241604,38,0,L|434:304,1,100,4|8,1:0|0:2,0:0:0:0:
219,247,242630,1,4,0:0:0:0:
219,247,242758,1,8,0:0:0:0:
230,144,243015,1,8,0:0:0:0:
230,144,243143,2,0,L|324:119,1,66.6666666666667,4|4,0:0|0:0,0:0:0:0:
326,117,243527,1,8,0:2:0:0:
396,183,243784,2,0,P|399:255|395:342,1,133.333333333333,4|8,0:0|0:2,0:0:0:0:
491,282,244553,5,2,0:0:0:0:
491,282,244681,2,0,L|493:173,1,100,4|8,0:2|0:2,0:0:0:0:
353,43,245707,1,4,0:0:0:0:
353,43,245835,2,0,L|282:47,1,66.6666666666667,8|8,0:0|0:0,0:0:0:0:
260,67,246220,2,0,L|256:138,1,66.6666666666667,4|4,0:0|0:0,0:0:0:0:
257,166,246604,1,8,0:2:0:0:
137,198,246861,2,0,P|135:143|127:82,1,100,8|4,0:0|0:0,0:0:0:0:
102,78,247374,2,0,L|6:86,1,66.6666666666667,8|2,0:2|0:0,0:0:0:0:
21,113,247758,38,0,L|21:230,1,100,4|8,1:0|0:2,0:0:0:0:
157,356,248784,1,4,0:0:0:0:
157,356,248912,2,0,P|162:309|162:282,1,66.6666666666667,8|8,0:0|0:0,0:0:0:0:
160,256,249297,2,0,L|243:261,1,66.6666666666667,4|4,0:0|0:0,0:0:0:0:
259,260,249681,1,8,0:2:0:0:
244,154,249938,2,0,P|192:158|101:156,1,133.333333333333,4|8,0:0|0:2,0:0:0:0:
105,54,250707,5,2,0:0:0:0:
105,54,250835,1,4,0:2:0:0:
244,154,251220,1,8,0:2:0:0:
424,102,251861,1,4,0:0:0:0:
424,102,251989,1,8,0:0:0:0:
344,160,252245,1,8,0:0:0:0:
344,160,252374,2,0,L|349:250,1,66.6666666666667,4|4,0:0|0:0,0:0:0:0:
351,259,252758,1,8,0:2:0:0:
474,299,253015,2,0,P|488:242|494:198,1,100,4|0,0:0|0:0,0:0:0:0:
492,167,253527,1,8,0:0:0:0:
355,265,253784,37,10,0:0:0:0:
355,265,253911,2,0,L|265:331,2,100,4|8|2,1:0|0:2|0:0,0:0:0:0:
361,161,254938,1,4,0:0:0:0:
361,161,255066,2,0,L|279:179,1,66.6666666666667,8|8,0:0|0:0,0:0:0:0:
262,169,255451,1,4,0:0:0:0:
199,92,255707,1,4,0:0:0:0:
199,92,255835,1,8,0:2:0:0:
105,112,256092,2,0,P|114:175|116:245,1,133.333333333333,4|8,0:0|0:2,0:0:0:0:
217,269,256861,1,2,0:0:0:0:
236,295,256989,6,0,L|353:292,2,100,4|8|0,1:0|0:2|0:0,0:0:0:0:
104,338,258015,1,4,0:0:0:0:
104,338,258143,2,0,P|97:291|84:252,1,66.6666666666667,8|8,0:0|0:0,0:0:0:0:
74,196,258527,2,0,L|153:192,1,66.6666666666667,4|4,0:0|0:0,0:0:0:0:
172,202,258912,1,8,0:2:0:0:
310,274,259168,2,0,B|378:252|383:296|460:268,1,133.333333333333,4|8,0:0|0:2,0:0:0:0:
492,193,259938,37,2,0:0:0:0:
492,193,260066,2,0,L|481:318,1,100,4|8,1:0|0:2,0:0:0:0:
362,356,260835,1,2,0:0:0:0:
265,324,261092,1,4,0:0:0:0:
265,324,261220,2,0,P|273:277|276:246,1,66.6666666666667,8|8,0:0|0:0,0:0:0:0:
261,227,261604,2,0,P|253:180|250:149,1,66.6666666666667,4|4,0:0|0:0,0:0:0:0:
250,127,261989,2,0,P|211:115|177:94,1,66.6666666666667,8|4,0:2|0:0,0:0:0:0:
46,52,262630,1,4,0:0:0:0:
46,52,262758,2,0,L|48:147,1,66.6666666666667,8|2,0:2|0:0,0:0:0:0:
47,152,263142,6,0,P|94:158|170:177,1,100,4|8,0:2|0:2,0:0:0:0:
104,286,263911,1,2,0:0:0:0:
198,311,264168,1,4,0:0:0:0:
198,311,264297,2,0,P|215:263|222:233,1,66.6666666666667,8|8,0:0|0:0,0:0:0:0:
227,215,264681,1,4,0:0:0:0:
145,169,264938,1,4,0:0:0:0:
145,169,265066,1,8,0:2:0:0:
309,260,265322,2,0,L|409:261,1,100,4|4,0:0|0:0,0:0:0:0:
442,263,265835,2,0,L|451:182,1,66.6666666666667,8|2,0:2|0:0,0:0:0:0:
456,163,266220,37,4,1:0:0:0:
313,116,266604,2,0,L|310:242,1,100,8|2,0:2|0:0,0:0:0:0:
299,322,267245,1,4,0:0:0:0:
299,322,267374,2,0,P|266:304|226:289,1,66.6666666666667,8|8,0:0|0:0,0:0:0:0:
206,288,267758,1,4,0:0:0:0:
98,347,268015,1,4,0:0:0:0:
98,347,268143,1,0,0:2:0:0:
31,278,268399,2,0,P|25:212|29:136,1,133.333333333333,4|8,0:0|0:2,0:0:0:0:
115,200,269168,5,2,0:0:0:0:
115,200,269297,2,0,L|238:202,1,100,4|8,0:2|0:2,0:0:0:0:
352,110,270065,1,2,0:0:0:0:
270,50,270322,1,4,0:0:0:0:
270,50,270451,2,0,L|175:71,1,66.6666666666667,8|8,0:0|0:0,0:0:0:0:
174,78,270835,2,0,L|88:76,1,66.6666666666667,4|4,0:0|0:0,0:0:0:0:
77,91,271220,1,8,0:2:0:0:
200,201,271476,2,0,P|265:203|341:211,1,133.333333333333,4|8,0:0|0:2,0:0:0:0:
421,263,272245,37,2,0:0:0:0:
421,263,272374,2,0,P|408:308|398:370,2,100,4|8|2,1:0|0:2|0:0,0:0:0:0:
455,168,273399,1,4,0:0:0:0:
455,168,273527,2,0,P|453:128|449:79,1,66.6666666666667,8|8,0:0|0:0,0:0:0:0:
445,68,273912,1,4,0:0:0:0:
354,84,274168,1,4,0:0:0:0:
354,84,274297,1,8,0:2:0:0:
243,30,274553,2,0,P|226:80|219:177,1,133.333333333333,4|8,0:0|0:2,0:0:0:0:
290,245,275322,5,2,0:0:0:0:
290,245,275450,2,0,L|166:247,2,100,4|8|2,0:2|0:2|0:0,0:0:0:0:
383,300,276476,1,4,0:0:0:0:
383,300,276604,1,8,0:0:0:0:
306,353,276861,1,8,0:0:0:0:
306,353,276989,2,0,L|226:332,1,66.6666666666667,4|4,0:3|0:3,0:0:0:0:
209,327,277374,1,8,0:2:0:0:
167,232,277630,2,0,P|180:176|201:108,1,100,4|4,0:3|0:0,0:0:0:0:
205,104,278143,1,8,0:3:0:0:
350,180,278399,37,10,0:0:0:0:
350,180,278527,2,0,P|406:180|478:177,1,100,4|8,1:0|0:2,0:0:0:0:
338,289,279297,1,2,0:0:0:0:
256,243,279553,1,4,0:0:0:0:
256,243,279681,2,0,P|258:194|259:146,1,66.6666666666667,8|8,0:0|0:0,0:0:0:0:
258,138,280066,2,0,P|218:137|169:133,1,66.6666666666667,4|4,0:0|0:0,0:0:0:0:
157,133,280451,1,8,0:2:0:0:
43,64,280707,2,0,P|32:141|30:195,1,100,4|4,0:0|0:0,0:0:0:0:
28,196,281220,1,8,0:2:0:0:
127,321,281476,5,2,0:0:0:0:
127,321,281604,2,0,P|183:321|255:318,1,100,4|8,1:0|0:2,0:0:0:0:
384,346,282374,2,0,P|394:307|400:274,1,66.6666666666667,2|4,0:0|0:0,0:0:0:0:
374,237,282758,2,0,P|364:198|358:165,1,66.6666666666667,8|8,0:0|0:0,0:0:0:0:
385,129,283143,1,4,0:0:0:0:
481,154,283399,1,4,0:0:0:0:
481,154,283527,1,8,0:2:0:0:
374,237,283784,2,0,P|316:230|267:231,1,100,4|4,0:0|0:0,0:0:0:0:
226,244,284297,1,8,0:0:0:0:
302,346,284553,1,10,0:0:0:0:
302,346,284681,1,4,1:0:0:0:
