osu file format v14

[General]
AudioFilename: audio.mp3
AudioLeadIn: 0
PreviewTime: 86475
Countdown: 0
SampleSet: Soft
StackLeniency: 0.7
Mode: 0
LetterboxInBreaks: 0
WidescreenStoryboard: 0

[Editor]
Bookmarks: 38527,63142,87757,106219,124680,149296,173911,198527,216988,235450,260065,284680
DistanceSpacing: 0.5
BeatDivisor: 6
GridSize: 4
TimelineZoom: 2.299999

[Metadata]
Title:Tear Garden
TitleUnicode:Tear Garden
Artist:IAMX
ArtistUnicode:IAMX
Creator:PandaHero
Version:Collab Insane
Source:
Tags:IceBeam SadKangaroo Kingdom Of Welcome Addiction Chris Corner synthpop dark cabaret alternative industrial electronica experimental
BeatmapID:1461203
BeatmapSetID:690400

[Difficulty]
HPDrainRate:6
CircleSize:4
OverallDifficulty:7
ApproachRate:8
SliderMultiplier:1.2
SliderTickRate:1

[Events]
//Background and Video events
0,0,"grass_at_night-wallpaper.jpg",0,0
//Break Periods
2,124880,136238
//Storyboard Layer 0 (Background)
//Storyboard Layer 1 (Fail)
//Storyboard Layer 2 (Pass)
//Storyboard Layer 3 (Foreground)
//Storyboard Sound Samples

[TimingPoints]
1604,384.615384615385,4,3,1,50,1,0
13911,-76.9230769230769,4,2,1,60,0,0
38527,-76.9230769230769,4,2,1,65,0,0
87757,-76.9230769230769,4,2,1,70,0,1
88142,-76.9230769230769,4,2,1,70,0,0
106219,-66.6666666666667,4,2,1,75,0,1
106604,-66.6666666666667,4,2,1,75,0,0
118527,-66.6666666666667,4,2,1,75,0,1
118911,-66.6666666666667,4,2,1,75,0,0
124680,-100,4,2,1,75,0,1
124809,-100,4,2,1,75,0,0
136988,-100,4,3,1,60,0,0
149296,-76.9230769230769,4,2,1,65,0,0
173911,-76.9230769230769,4,2,1,70,0,0
198527,-66.6666666666667,4,2,1,75,0,1
198911,-66.6666666666667,4,2,1,75,0,0
216988,-58.8235294117647,4,2,1,80,0,1
232373,-76.9230769230769,4,2,1,60,0,0
235450,-100,4,3,1,50,0,1
235578,-100,4,3,1,50,0,0
260065,-100,4,3,1,50,0,1
260193,-100,4,3,1,50,0,0
284680,-100,4,3,1,50,0,1
284809,-100,4,3,1,50,0,0

[Colours]
Combo1 : 35,170,177
Combo2 : 168,192,219
Combo3 : 66,111,159
Combo4 : 149,230,234

[HitObjects]
43,40,1603,5,4,0:0:0:0:
117,91,1988,2,0,L|258:91,1,120,8|2,0:0|0:0,0:0:0:0:
388,142,2629,1,8,0:0:0:0:
388,142,2757,2,0,L|391:240,1,80,4|8,0:0|0:0,0:0:0:0:
319,260,3142,2,0,L|322:358,1,80,4|8,0:0|0:0,0:0:0:0:
399,361,3527,1,4,0:0:0:0:
492,233,3783,1,8,0:0:0:0:
197,350,4168,5,4,0:0:0:0:
197,350,4296,1,8,0:0:0:0:
69,253,4552,1,8,0:0:0:0:
69,253,4680,1,4,0:0:0:0:
143,202,5065,2,0,L|284:202,1,120,8|2,0:0|0:0,0:0:0:0:
406,273,5706,37,0,0:0:0:0:
406,273,5834,2,0,L|409:175,1,80,8|0,0:0|0:0,0:0:0:0:
337,155,6219,2,0,L|340:57,1,80,4|4,0:0|0:0,0:0:0:0:
417,54,6604,1,8,0:0:0:0:
510,182,6860,1,4,0:0:0:0:
43,190,7245,5,4,0:0:0:0:
43,190,7373,1,8,0:0:0:0:
190,252,7629,1,8,0:0:0:0:
190,252,7757,2,0,L|210:122,1,120,4|8,0:0|0:2,0:0:0:0:
169,348,8527,1,4,0:0:0:0:
487,346,8783,37,8,0:0:0:0:
487,346,8911,1,4,0:0:0:0:
360,350,9168,1,4,0:0:0:0:
360,350,9296,1,8,0:0:0:0:
303,233,9552,1,8,0:0:0:0:
303,233,9680,1,8,0:3:0:0:
430,229,9937,1,8,0:0:0:0:
25,346,10321,5,4,0:0:0:0:
25,346,10449,1,8,0:0:0:0:
152,350,10706,1,8,0:0:0:0:
152,350,10834,1,4,0:0:0:0:
209,233,11090,1,4,0:0:0:0:
209,233,11218,1,8,0:2:0:0:
209,233,11860,37,8,0:0:0:0:
209,233,11988,1,4,0:0:0:0:
400,217,12245,1,4,0:0:0:0:
400,217,12373,1,8,0:0:0:0:
287,171,12629,1,8,0:0:0:0:
287,171,12757,1,8,0:3:0:0:
309,350,13014,1,8,0:0:0:0:
486,124,13398,5,8,0:0:0:0:
486,124,13527,1,4,0:0:0:0:
400,217,13783,1,4,0:0:0:0:
400,217,13911,2,0,L|394:94,1,103.999995239258,4|0,1:0|0:0,0:0:0:0:
290,190,14296,2,0,L|284:313,1,103.999995239258,8|0,0:0|0:0,0:0:0:0:
284,293,14680,1,2,0:3:0:0:
476,281,14937,37,4,0:3:0:0:
476,281,15065,1,8,0:0:0:0:
356,362,15321,1,8,0:3:0:0:
356,362,15450,1,4,0:3:0:0:
194,178,15706,1,4,0:3:0:0:
194,178,15834,1,8,0:0:0:0:
282,203,16091,2,0,P|254:269|227:357,1,155.999992858887,4|4,0:3|0:3,0:0:0:0:
228,349,16604,1,8,0:0:0:0:
70,268,16860,5,8,1:3:0:0:
70,268,16988,1,4,1:2:0:0:
33,141,17245,1,0,0:3:0:0:
33,141,17373,2,0,L|39:18,1,103.999995239258,8|0,0:0|0:0,0:0:0:0:
143,114,17758,2,0,L|149:237,1,103.999995239258,2|4,0:3|0:3,0:0:0:0:
148,217,18142,1,8,0:0:0:0:
272,129,18398,37,8,0:3:0:0:
272,129,18527,2,0,L|381:106,1,103.999995239258,4|4,0:3|0:3,0:0:0:0:
374,107,18911,1,8,0:0:0:0:
473,253,19168,2,0,P|391:253|311:267,1,155.999992858887,4|4,0:3|0:3,0:0:0:0:
318,265,19680,1,8,0:0:0:0:
463,357,19937,5,10,1:3:0:0:
463,357,20065,2,0,P|472:304|472:224,1,103.999995239258,4|0,1:2|0:0,0:0:0:0:
388,212,20450,2,0,P|379:159|379:79,1,103.999995239258,8|0,0:0|0:0,0:0:0:0:
377,108,20834,1,2,0:3:0:0:
488,36,21091,37,4,0:3:0:0:
488,36,21219,1,8,0:0:0:0:
280,116,21475,1,8,0:3:0:0:
280,116,21604,1,4,0:3:0:0:
264,281,21860,1,4,0:3:0:0:
264,281,21988,1,8,0:0:0:0:
57,191,22245,2,0,P|129:175|217:183,1,155.999992858887,4|4,0:3|0:3,0:0:0:0:
210,181,22757,1,8,0:0:0:0:
118,354,23014,5,8,1:3:0:0:
118,354,23142,2,0,P|124:298|122:226,1,103.999995239258,4|0,1:2|0:0,0:0:0:0:
57,191,23527,2,0,P|51:135|53:63,1,103.999995239258,8|0,0:0|0:0,0:0:0:0:
51,88,23911,1,2,0:3:0:0:
244,198,24168,37,4,0:3:0:0:
244,198,24296,1,8,0:0:0:0:
281,46,24551,1,8,0:3:0:0:
281,46,24680,2,0,P|321:97|342:135,1,103.999995239258,4|4,0:3|0:3,0:0:0:0:
339,131,25065,1,8,0:0:0:0:
225,304,25321,2,0,P|314:305|396:326,1,155.999992858887,4|2,0:3|0:0,0:0:0:0:
378,319,25834,1,10,0:0:0:0:
493,179,26091,5,10,1:3:0:0:
483,208,26219,2,0,P|423:209|354:222,1,103.999995239258,4|0,1:0|0:0,0:0:0:0:
282,257,26604,2,0,P|289:205|289:153,1,103.999995239258,8|0,0:0|0:0,0:0:0:0:
287,123,26988,1,2,0:3:0:0:
219,26,27245,37,4,0:3:0:0:
219,26,27373,1,8,0:0:0:0:
32,142,27629,1,8,0:3:0:0:
32,142,27757,2,0,P|85:138|150:126,1,103.999995239258,4|4,0:3|0:3,0:0:0:0:
151,156,28142,1,8,0:0:0:0:
304,228,28398,2,0,P|251:232|138:257,1,155.999992858887,4|2,0:3|0:0,0:0:0:0:
137,281,28911,1,10,0:0:0:0:
284,362,29168,5,10,1:3:0:0:
294,332,29296,2,0,P|304:268|302:206,1,103.999995239258,6|0,1:2|0:0,0:0:0:0:
251,155,29680,2,0,P|179:177|128:180,1,103.999995239258,8|0,0:0|0:0,0:0:0:0:
119,181,30065,1,2,0:3:0:0:
25,282,30321,37,4,0:3:0:0:
25,282,30450,1,8,0:0:0:0:
27,41,30706,1,8,0:3:0:0:
27,41,30834,2,0,P|114:89|144:95,1,103.999995239258,4|4,0:3|0:3,0:0:0:0:
117,89,31219,1,8,0:0:0:0:
298,28,31475,2,0,P|283:82|283:208,1,155.999992858887,4|0,0:3|0:0,0:0:0:0:
279,181,31988,1,8,0:0:0:0:
499,150,32245,5,8,1:3:0:0:
468,153,32373,2,0,P|419:144|354:96,1,103.999995239258,6|0,1:2|0:0,0:0:0:0:
384,209,32757,2,0,P|396:279|396:331,1,103.999995239258,8|2,0:0|0:0,0:0:0:0:
395,343,33142,1,2,0:3:0:0:
292,217,33398,37,4,0:3:0:0:
292,217,33527,1,8,0:0:0:0:
151,343,33783,1,8,0:3:0:0:
151,343,33911,2,0,P|125:288|84:229,1,103.999995239258,4|4,0:3|0:3,0:0:0:0:
101,251,34296,1,8,0:0:0:0:
219,176,34552,2,0,P|251:95|262:3,1,155.999992858887,4|2,0:3|1:2,0:0:0:0:
261,27,35065,1,8,1:2:0:0:
13,150,35321,5,10,1:3:0:0:
44,153,35449,2,0,P|93:144|158:96,1,103.999995239258,6|2,1:2|0:0,0:0:0:0:
121,213,35834,2,0,P|104:259|113:340,1,103.999995239258,8|2,1:2|0:0,0:0:0:0:
186,367,36219,2,0,P|235:358|300:310,1,103.999995239258,2|0,1:3|1:0,0:0:0:0:
371,359,36604,2,0,P|387:312|378:231,1,103.999995239258,8|4,1:2|1:3,0:0:0:0:
479,179,36988,37,4,1:3:0:0:
445,139,37116,1,8,1:3:0:0:
399,115,37244,1,4,1:3:0:0:
347,109,37373,1,8,1:3:0:0:
37,171,37629,2,0,P|127:133|163:49,1,155.999992858887,8|0,1:3|0:0,0:0:0:0:
158,33,38142,1,10,1:3:0:0:
392,152,38398,1,10,1:3:0:0:
316,190,38527,6,0,L|292:18,1,155.999992858887,4|8,1:0|0:0,0:0:0:0:
100,176,39296,1,2,0:3:0:0:
88,192,39552,1,4,0:3:0:0:
88,192,39680,2,0,L|200:184,1,103.999995239258,8|8,1:3|0:3,0:0:0:0:
256,232,40065,2,0,P|236:192|248:128,1,103.999995239258,4|4,0:3|0:3,0:0:0:0:
272,96,40450,1,8,1:2:0:0:
416,192,40706,2,0,P|440:268|400:344,1,155.999992858887,4|2,0:3|1:2,0:0:0:0:
332,304,41219,2,0,P|276:316|216:328,1,103.999995239258,10|2,1:2|1:3,0:0:0:0:
88,236,41604,38,0,B|68:184|68:184|76:164|84:144|84:144|64:76,2,155.999992858887,4|8|2,1:2|0:0|0:3,0:0:0:0:
276,212,42629,1,4,0:3:0:0:
276,212,42757,2,0,P|324:192|348:140,1,103.999995239258,8|8,1:3|0:3,0:0:0:0:
348,64,43142,2,0,L|464:84,1,103.999995239258,4|4,0:3|0:3,0:0:0:0:
480,120,43527,1,8,1:2:0:0:
416,260,43783,2,0,B|364:228|364:228|268:252,1,155.999992858887,0|4,1:0|1:3,0:0:0:0:
240,288,44296,1,8,1:3:0:0:
208,280,44424,1,4,1:3:0:0:
176,272,44552,1,8,1:3:0:0:
144,264,44680,5,4,1:0:0:0:
240,124,44937,1,0,0:0:0:0:
240,124,45065,2,0,P|232:76|236:16,1,103.999995239258,8|0,0:0|0:0,0:0:0:0:
336,48,45450,2,0,P|344:96|340:156,1,103.999995239258,2|4,0:3|0:3,0:0:0:0:
268,212,45834,1,8,1:3:0:0:
408,328,46091,1,8,0:3:0:0:
408,328,46219,1,4,0:3:0:0:
444,168,46475,1,4,0:3:0:0:
444,168,46604,1,8,1:2:0:0:
268,212,46860,2,0,P|204:180|192:92,1,155.999992858887,4|2,0:3|1:2,0:0:0:0:
212,72,47373,2,0,L|100:92,1,103.999995239258,10|2,1:2|1:3,0:0:0:0:
44,256,47757,38,0,L|156:236,1,103.999995239258,4|0,1:0|0:0,0:0:0:0:
172,268,48142,1,8,0:0:0:0:
352,228,48398,1,0,0:0:0:0:
352,228,48527,2,0,L|344:336,1,103.999995239258,2|4,0:3|0:3,0:0:0:0:
364,360,48911,1,8,1:3:0:0:
496,228,49168,1,8,0:3:0:0:
496,228,49296,2,0,L|476:120,1,103.999995239258,4|4,0:3|0:3,0:0:0:0:
492,88,49680,1,8,1:2:0:0:
312,44,49937,2,0,B|236:28|236:28|168:72,1,155.999992858887,4|4,0:3|1:3,0:0:0:0:
120,72,50450,5,8,1:3:0:0:
124,104,50578,1,4,1:3:0:0:
128,136,50706,1,8,1:3:0:0:
132,168,50834,37,4,1:0:0:0:
320,336,51219,1,8,0:0:0:0:
328,348,51604,2,0,P|348:300|336:240,1,103.999995239258,2|4,0:3|0:3,0:0:0:0:
256,184,51988,2,0,P|304:208|352:204,1,103.999995239258,8|8,1:3|0:3,0:0:0:0:
476,192,52373,2,0,P|420:200|384:236,1,103.999995239258,4|4,0:3|0:3,0:0:0:0:
400,268,52757,1,8,1:2:0:0:
252,336,53014,2,0,L|92:324,1,155.999992858887,4|2,0:3|1:2,0:0:0:0:
64,292,53527,1,10,1:2:0:0:
188,152,53783,1,6,1:2:0:0:
112,192,53911,6,0,P|88:128|104:44,1,155.999992858887,4|8,1:0|0:0,0:0:0:0:
268,216,54680,2,0,P|280:272|264:320,1,103.999995239258,2|4,0:3|0:3,0:0:0:0:
360,344,55065,2,0,L|472:328,1,103.999995239258,8|8,1:3|0:3,0:0:0:0:
496,232,55450,2,0,L|384:248,1,103.999995239258,4|0,0:3|1:0,0:0:0:0:
348,164,55834,1,8,1:2:0:0:
188,276,56091,1,0,1:0:0:0:
188,276,56475,1,4,1:3:0:0:
180,236,56604,1,8,1:3:0:0:
172,196,56732,1,4,1:3:0:0:
164,156,56860,1,8,1:3:0:0:
156,116,56988,38,0,L|48:96,1,103.999995239258,4|0,1:0|0:0,0:0:0:0:
96,16,57373,2,0,L|204:36,1,103.999995239258,8|0,0:0|0:0,0:0:0:0:
224,64,57757,1,2,0:3:0:0:
400,44,58014,1,4,0:3:0:0:
388,84,58142,1,8,1:3:0:0:
300,236,58398,1,8,0:3:0:0:
288,200,58527,1,4,0:3:0:0:
472,264,58783,1,8,0:3:0:0:
464,300,58911,1,8,1:2:0:0:
296,352,59168,2,0,B|248:320|248:320|152:344,1,155.999992858887,4|2,0:3|1:2,0:0:0:0:
124,360,59680,2,0,P|148:316|140:264,1,103.999995239258,10|6,1:2|1:2,0:0:0:0:
32,136,60065,6,0,L|140:112,1,103.999995239258,4|0,1:0|0:0,0:0:0:0:
160,108,60450,1,8,1:2:0:0:
288,36,60706,1,0,0:0:0:0:
288,36,60834,1,2,0:3:0:0:
296,176,61091,1,0,1:0:0:0:
292,200,61219,2,0,L|400:180,1,103.999995239258,8|8,1:3|0:3,0:0:0:0:
456,268,61604,2,0,L|348:288,1,103.999995239258,4|0,1:0|1:0,0:0:0:0:
336,312,61988,1,8,1:2:0:0:
159,271,62245,2,0,P|107:219|115:127,1,155.999992858887,4|4,1:3|1:3,0:0:0:0:
88,84,62757,1,8,1:3:0:0:
128,72,62886,1,4,1:3:0:0:
168,60,63014,1,8,1:3:0:0:
208,48,63142,38,2,P|260:100|252:192,1,155.999992858887,4|8,1:0|0:0,0:0:0:0:
180,180,63911,1,2,3:0:0:0:
398,248,64168,1,4,0:3:0:0:
405,207,64296,2,0,P|413:154|442:85,1,103.999995239258,8|8,1:3|0:3,0:0:0:0:
484,44,64680,2,0,P|435:61|383:69,1,103.999995239258,4|4,0:3|0:3,0:0:0:0:
342,66,65065,1,8,1:2:0:0:
188,21,65321,2,0,P|202:92|188:192,1,155.999992858887,4|0,0:3|1:0,0:0:0:0:
193,174,65834,1,0,1:0:0:0:
50,218,66091,5,0,1:0:0:0:
28,182,66219,1,4,1:0:0:0:
206,284,66604,1,8,0:0:0:0:
38,345,66988,2,0,P|88:323|156:323,1,103.999995239258,2|4,0:3|0:3,0:0:0:0:
203,360,67373,2,0,P|254:356|301:334,1,103.999995239258,8|8,1:3|0:3,0:0:0:0:
333,308,67757,1,4,1:3:0:0:
297,190,68014,1,4,1:3:0:0:
297,190,68142,1,8,1:2:0:0:
458,353,68398,1,4,0:3:0:0:
423,176,68783,37,4,1:3:0:0:
381,180,68911,1,8,1:3:0:0:
339,185,69039,1,4,1:3:0:0:
297,190,69168,1,8,1:3:0:0:
256,196,69296,6,0,L|153:250,1,103.999995239258,4|0,1:0|0:0,0:0:0:0:
67,302,69680,2,0,L|31:179,1,103.999995239258,8|0,0:0|0:0,0:0:0:0:
24,162,70065,1,2,3:0:0:0:
137,20,70321,1,4,0:3:0:0:
173,41,70450,2,0,L|179:173,1,103.999995239258,8|8,1:3|0:3,0:0:0:0:
177,144,70834,1,4,0:3:0:0:
304,127,71091,1,4,0:3:0:0:
304,127,71219,1,8,1:2:0:0:
427,202,71475,2,0,P|359:206|279:248,1,155.999992858887,4|4,0:3|1:3,0:0:0:0:
254,277,71988,1,0,1:3:0:0:
466,360,72245,37,2,1:3:0:0:
466,360,72373,2,0,P|478:305|480:226,1,103.999995239258,4|0,1:0|0:0,0:0:0:0:
484,216,72757,1,8,0:0:0:0:
254,277,73142,1,2,3:0:0:0:
342,357,73398,1,4,0:3:0:0:
342,357,73527,1,8,1:3:0:0:
141,319,73783,1,8,0:3:0:0:
141,319,73911,1,4,0:3:0:0:
338,203,74168,1,4,0:3:0:0:
338,203,74296,1,8,1:2:0:0:
64,144,74552,2,0,P|48:209|33:320,1,155.999992858887,4|4,0:3|1:3,0:0:0:0:
72,312,75065,5,8,1:3:0:0:
112,324,75193,1,4,1:3:0:0:
152,336,75321,1,8,1:3:0:0:
192,348,75450,2,0,P|199:272|197:183,1,155.999992858887,4|8,1:2|0:0,0:0:0:0:
36,28,76219,1,2,0:3:0:0:
199,115,76475,1,4,0:3:0:0:
199,115,76604,2,0,P|250:95|290:46,1,103.999995239258,8|8,1:3|0:3,0:0:0:0:
347,16,76988,2,0,P|338:70|361:129,1,103.999995239258,4|4,0:3|0:3,0:0:0:0:
382,146,77373,1,8,1:2:0:0:
476,255,77629,2,0,P|421:246|319:288,1,155.999992858887,4|2,0:3|1:2,0:0:0:0:
300,311,78142,1,10,1:2:0:0:
182,350,78398,37,6,1:2:0:0:
182,350,78527,2,0,B|164:292|164:292|185:183,1,155.999992858887,4|8,1:0|1:2,0:0:0:0:
366,353,79296,1,2,0:3:0:0:
95,367,79552,1,4,0:3:0:0:
95,367,79680,1,8,1:3:0:0:
62,257,79937,1,0,1:0:0:0:
62,257,80065,2,0,P|63:202|78:142,1,103.999995239258,4|4,1:3|0:3,0:0:0:0:
115,82,80450,1,8,1:2:0:0:
308,253,80706,1,4,0:3:0:0:
231,70,81091,1,0,1:0:0:0:
204,102,81219,2,0,P|180:155|172:227,1,103.999995239258,4|4,1:3|1:2,0:0:0:0:
205,264,81604,6,0,P|263:253|329:254,1,103.999995239258,4|0,1:0|0:0,0:0:0:0:
365,312,81988,2,0,P|384:256|418:199,1,103.999995239258,8|0,0:0|0:0,0:0:0:0:
475,170,82373,1,2,0:3:0:0:
473,279,82629,1,4,0:3:0:0:
473,279,82757,1,8,1:3:0:0:
485,79,83014,1,8,0:3:0:0:
456,91,83142,1,4,0:3:0:0:
335,19,83398,1,4,0:3:0:0:
343,49,83527,1,8,1:2:0:0:
370,142,83783,2,0,P|285:148|211:119,1,155.999992858887,4|4,0:3|1:3,0:0:0:0:
219,124,84296,1,8,1:3:0:0:
57,175,84552,37,4,1:2:0:0:
57,175,84680,1,4,1:0:0:0:
195,211,84937,1,4,1:3:0:0:
195,211,85065,2,0,P|176:276|179:330,1,103.999995239258,8|0,1:2|1:0,0:0:0:0:
240,365,85450,1,2,1:3:0:0:
38,304,85706,1,4,1:3:0:0:
37,262,85834,1,8,1:3:0:0:
158,115,86091,5,8,1:3:0:0:
198,123,86219,1,4,1:3:0:0:
238,132,86347,1,8,1:3:0:0:
278,140,86475,1,4,1:3:0:0:
318,151,86604,1,8,1:3:0:0:
331,322,86860,1,8,1:3:0:0:
368,338,86988,1,0,1:0:0:0:
491,252,87245,1,0,1:2:0:0:
485,210,87373,1,2,1:2:0:0:
328,88,87629,1,2,1:2:0:0:
344,128,87757,6,0,L|188:136,1,155.999992858887,6|8,1:2|1:0,0:0:0:0:
52,324,88527,2,0,L|168:316,1,103.999995239258,2|0,1:2|1:0,0:0:0:0:
204,344,88911,2,0,P|244:312|248:256,1,103.999995239258,8|0,1:0|1:0,0:0:0:0:
300,188,89296,2,0,L|272:84,1,103.999995239258,2|0,1:2|1:0,0:0:0:0:
292,44,89680,1,8,1:0:0:0:
448,92,89937,2,0,P|464:164|416:228,1,155.999992858887,6|2,1:2|1:2,0:0:0:0:
364,292,90450,2,0,P|336:252|340:196,1,103.999995239258,12|2,1:0|0:0,0:0:0:0:
312,68,90834,6,0,B|252:40|252:40|148:80,1,155.999992858887,6|8,1:2|1:0,0:0:0:0:
144,328,91604,2,0,P|164:280|144:232,1,103.999995239258,2|0,1:2|1:0,0:0:0:0:
76,188,91988,2,0,P|56:236|76:284,1,103.999995239258,8|0,1:0|1:0,0:0:0:0:
160,356,92373,2,0,L|272:340,1,103.999995239258,2|0,1:2|1:0,0:0:0:0:
296,336,92757,1,8,1:0:0:0:
312,208,93014,2,0,P|388:228|432:296,1,155.999992858887,6|2,1:2|1:2,0:0:0:0:
460,304,93527,1,8,1:3:0:0:
468,276,93655,1,4,1:3:0:0:
476,248,93783,1,10,1:3:0:0:
484,220,93911,37,4,1:0:0:0:
372,108,94168,1,0,1:0:0:0:
372,108,94296,1,8,1:0:0:0:
332,248,94552,1,0,0:0:0:0:
332,248,94680,1,2,0:0:0:0:
480,120,94937,1,0,1:0:0:0:
480,120,95065,1,8,1:0:0:0:
292,56,95321,1,0,1:0:0:0:
304,80,95450,2,0,P|240:68|208:32,1,103.999995239258,6|0,1:2|1:0,0:0:0:0:
176,48,95834,1,8,1:0:0:0:
112,152,96091,2,0,L|140:328,1,155.999992858887,6|2,1:2|1:2,0:0:0:0:
232,328,96604,2,0,L|216:224,1,103.999995239258,8|0,1:0|0:0,0:0:0:0:
240,124,96988,5,4,1:0:0:0:
393,98,97245,1,0,0:0:0:0:
393,98,97373,1,8,0:0:0:0:
418,251,97629,1,0,0:0:0:0:
418,251,97757,1,2,0:0:0:0:
264,276,98014,1,0,1:0:0:0:
276,296,98142,2,0,L|172:280,1,103.999995239258,8|0,1:0|1:0,0:0:0:0:
136,176,98527,2,0,L|240:192,1,103.999995239258,6|0,1:2|1:0,0:0:0:0:
264,200,98911,1,8,1:0:0:0:
416,272,99168,2,0,P|448:208|424:132,1,155.999992858887,6|2,1:2|1:2,0:0:0:0:
388,96,99680,1,8,1:3:0:0:
352,100,99809,1,4,1:3:0:0:
316,104,99937,1,8,1:3:0:0:
280,108,100065,37,4,1:0:0:0:
72,208,100450,2,0,P|72:280|140:344,1,155.999992858887,8|2,0:0|0:0,0:0:0:0:
264,276,101091,1,0,1:0:0:0:
276,296,101219,2,0,B|320:272|320:272|380:284,1,103.999995239258,8|0,1:0|1:0,0:0:0:0:
452,276,101604,2,0,L|480:172,1,103.999995239258,2|0,1:2|1:0,0:0:0:0:
468,144,101988,1,8,1:0:0:0:
316,60,102245,1,2,1:2:0:0:
324,96,102629,1,6,1:2:0:0:
324,96,102757,2,0,P|276:80|244:36,1,103.999995239258,8|4,1:0|0:0,0:0:0:0:
144,92,103142,6,2,B|68:108|68:108|24:188,1,155.999992858887,4|10,1:0|0:0,0:0:0:0:
212,332,103911,1,2,1:2:0:0:
284,248,104168,1,0,1:0:0:0:
284,248,104296,1,8,1:0:0:0:
324,348,104552,1,0,1:0:0:0:
324,348,104680,1,4,1:3:0:0:
180,236,104937,1,0,1:0:0:0:
180,236,105065,1,8,1:0:0:0:
356,176,105321,1,6,1:2:0:0:
368,192,105706,1,4,1:3:0:0:
376,160,105834,1,8,1:3:0:0:
384,128,105962,1,4,1:3:0:0:
392,96,106091,1,8,1:3:0:0:
400,64,106219,38,0,B|317:64|317:64|220:132,1,180.000006866455,4|8,1:0|0:1,0:0:0:0:
415,296,106988,1,2,3:0:0:0:
477,232,107245,1,0,1:0:0:0:
477,232,107373,2,0,B|490:196|490:196|476:100,1,120.000004577637,8|0,0:1|1:0,0:0:0:0:
384,206,107757,2,0,B|336:215|336:215|259:205,1,120.000004577637,4|0,0:3|1:0,0:0:0:0:
172,180,108142,1,8,0:1:0:0:
35,99,108398,2,0,P|49:161|47:310,1,180.000006866455,4|0,1:3|1:0,0:0:0:0:
48,308,108911,1,8,0:1:0:0:
196,344,109168,1,4,1:2:0:0:
224,352,109296,6,0,P|223:261|251:144,1,180.000006866455,0|8,1:0|1:0,0:0:0:0:
482,353,110065,1,2,3:0:0:0:
465,189,110321,1,0,1:0:0:0:
445,211,110450,2,0,P|363:217|311:203,1,120.000004577637,8|0,1:0|1:0,0:0:0:0:
316,237,110834,1,4,1:3:0:0:
311,326,111091,1,0,1:0:0:0:
328,350,111219,1,8,1:0:0:0:
201,326,111476,1,0,1:0:0:0:
184,350,111604,2,0,P|143:316|106:251,1,120.000004577637,8|0,1:0|0:0,0:0:0:0:
86,141,111988,2,0,P|56:192|10:231,1,120.000004577637,6|4,1:2|1:2,0:0:0:0:
158,193,112373,38,2,B|246:175|246:231|348:205,1,180.000006866455,4|8,1:0|1:0,0:0:0:0:
478,339,113142,1,8,1:3:0:0:
447,339,113270,1,4,1:3:0:0:
417,338,113398,1,8,1:3:0:0:
386,338,113527,1,4,1:3:0:0:
239,352,113783,5,0,1:0:0:0:
238,322,113911,2,0,P|224:264|195:193,1,120.000004577637,4|2,1:3|1:2,0:0:0:0:
104,149,114296,2,0,P|162:135|233:106,1,120.000004577637,0|2,1:0|1:2,0:0:0:0:
263,28,114680,1,4,1:3:0:0:
49,83,114937,1,0,1:0:0:0:
49,83,115065,1,8,1:0:0:0:
35,271,115321,37,4,1:2:0:0:
61,284,115450,2,0,B|126:286|126:286|154:320|154:320|253:318,2,180.000006866455,4|8|2,1:3|1:0|3:0,0:0:0:0:
202,207,116475,1,0,1:0:0:0:
232,208,116604,1,4,1:3:0:0:
359,340,116860,1,0,1:0:0:0:
364,310,116988,2,0,P|366:257|361:167,1,120.000004577637,4|0,1:3|1:0,0:0:0:0:
480,149,117373,2,0,P|478:202|483:292,1,120.000004577637,8|0,1:0|1:0,0:0:0:0:
384,89,117757,2,0,B|325:98|325:98|264:89,1,120.000004577637,2|4,1:2|1:3,0:0:0:0:
166,28,118142,1,8,1:3:0:0:
163,57,118270,1,4,1:3:0:0:
161,86,118398,1,8,1:3:0:0:
145,111,118527,6,2,B|140:160|140:160|146:259,1,120.000004577637,4|0,1:0|0:0,0:0:0:0:
39,157,118911,1,10,1:0:0:0:
361,212,119168,1,0,0:3:0:0:
381,234,119296,2,0,B|386:283|386:283|380:382,1,120.000004577637,2|0,3:0|1:0,0:0:0:0:
481,262,119680,1,10,1:0:0:0:
151,212,119937,1,0,1:0:0:0:
131,234,120065,2,0,B|126:283|126:283|132:382,1,120.000004577637,4|0,1:3|1:0,0:0:0:0:
226,356,120449,1,8,1:0:0:0:
250,230,120706,2,0,P|272:148|313:60,1,180.000006866455,4|2,1:3|1:3,0:0:0:0:
330,38,121219,1,8,1:0:0:0:
486,111,121475,1,4,1:2:0:0:
422,156,121604,38,0,P|431:228|423:359,1,180.000006866455,4|8,1:0|1:0,0:0:0:0:
79,42,122373,1,2,0:3:0:0:
228,147,122629,1,4,0:3:0:0:
228,147,122757,1,8,1:0:0:0:
31,148,123014,1,8,1:3:0:0:
31,148,123142,1,4,1:3:0:0:
190,46,123398,1,4,1:3:0:0:
190,46,123527,1,8,1:0:0:0:
134,222,123783,1,4,1:3:0:0:
134,222,124168,5,4,1:3:0:0:
134,222,124296,1,8,1:3:0:0:
308,93,124552,1,8,1:3:0:0:
312,132,124680,1,4,1:0:0:0:
160,148,136988,5,4,0:1:0:0:
168,160,137373,1,8,0:0:0:0:
408,284,138014,1,4,0:0:0:0:
392,296,138142,2,0,L|404:200,1,80,10|8,0:0|0:0,0:0:0:0:
348,208,138527,2,0,L|360:112,1,80,4|4,0:0|0:0,0:0:0:0:
328,80,138911,1,8,0:0:0:0:
196,136,139168,1,4,0:0:0:0:
204,148,139552,1,4,0:0:0:0:
144,208,139680,2,0,P|104:196|60:204,1,80,8|2,0:0|0:0,0:0:0:0:
156,328,140065,6,0,P|228:328|284:284,1,120,4|8,0:0|0:0,0:0:0:0:
296,312,141091,1,4,0:0:0:0:
308,328,141219,2,0,L|296:236,1,80,8|8,0:0|0:0,0:0:0:0:
322,207,141604,1,4,0:0:0:0:
264,52,141860,1,4,0:0:0:0:
241,61,141988,2,0,P|197:49|165:21,1,80,8|8,0:0|0:0,0:0:0:0:
52,164,142629,1,4,0:0:0:0:
44,184,142757,2,0,L|60:272,1,80,8|2,0:0|0:0,0:0:0:0:
162,324,143142,37,4,0:0:0:0:
170,340,143527,1,8,0:0:0:0:
416,152,144168,1,4,0:0:0:0:
428,168,144296,2,0,L|412:72,1,80,8|8,0:0|0:0,0:0:0:0:
380,64,144680,2,0,P|340:52|316:20,1,80,4|0,0:0|0:0,0:0:0:0:
274,44,145065,1,8,0:0:0:0:
68,24,145321,2,0,L|92:160,1,120,4|4,0:0|0:0,0:0:0:0:
80,168,145834,1,8,0:0:0:0:
181,323,146091,1,2,0:0:0:0:
199,349,146219,6,0,B|235:317|235:317|331:333,1,120,4|8,0:0|0:0,0:0:0:0:
456,132,147245,1,4,0:0:0:0:
464,108,147373,1,8,0:0:0:0:
272,40,147629,1,8,0:0:0:0:
284,72,147757,1,4,0:0:0:0:
320,248,148014,1,4,0:0:0:0:
340,288,148142,2,0,L|248:276,1,80,8|8,0:0|0:0,0:0:0:0:
96,204,148783,1,4,3:0:0:0:
104,168,148911,1,8,3:0:0:0:
112,132,149039,1,4,3:0:0:0:
120,96,149168,1,8,3:0:0:0:
128,60,149296,37,4,1:0:0:0:
467,125,149680,1,8,0:3:0:0:
384,176,150065,2,0,P|311:171|259:153,1,103.999995239258,2|4,0:3|0:3,0:0:0:0:
254,146,150450,1,8,0:3:0:0:
131,65,150706,1,8,0:3:0:0:
131,65,150834,2,0,L|124:180,1,103.999995239258,4|4,0:3|0:3,0:0:0:0:
124,168,151219,1,8,0:3:0:0:
203,289,151475,2,0,P|135:287|44:335,1,155.999992858887,4|4,0:3|1:3,0:0:0:0:
39,361,151988,1,8,1:3:0:0:
28,245,152245,5,4,1:2:0:0:
28,245,152373,1,4,1:2:0:0:
332,330,152757,1,8,0:3:0:0:
425,353,153142,2,0,B|437:311|437:311|439:236,1,103.999995239258,2|4,0:3|0:3,0:0:0:0:
428,210,153527,1,8,0:3:0:0:
290,220,153783,1,8,0:3:0:0:
279,179,153911,2,0,B|267:137|267:137|265:62,1,103.999995239258,4|4,0:3|0:3,0:0:0:0:
265,76,154296,1,8,0:3:0:0:
188,183,154552,2,0,P|111:196|33:191,1,155.999992858887,4|4,0:3|1:3,0:0:0:0:
51,289,155065,2,0,P|102:290|165:282,1,103.999995239258,8|4,1:3|1:2,0:0:0:0:
194,274,155450,37,4,1:0:0:0:
17,97,155834,1,8,0:3:0:0:
119,88,156219,2,0,P|190:118|216:171,1,103.999995239258,2|4,0:3|0:3,0:0:0:0:
204,137,156604,1,8,0:3:0:0:
272,279,156860,1,8,0:3:0:0:
283,239,156988,2,0,P|319:202|368:189,1,103.999995239258,4|4,0:3|0:3,0:0:0:0:
410,185,157373,1,8,0:3:0:0:
483,357,157629,2,0,L|500:184,1,155.999992858887,4|4,0:3|1:3,0:0:0:0:
504,160,158142,1,8,1:3:0:0:
359,46,158398,5,4,1:2:0:0:
326,72,158527,2,0,P|245:69|162:83,2,155.999992858887,4|8|2,1:0|0:3|0:3,0:0:0:0:
420,157,159552,1,4,0:3:0:0:
397,191,159680,2,0,P|388:256|392:311,1,103.999995239258,8|8,0:3|0:3,0:0:0:0:
405,332,160065,2,0,P|344:324|271:337,1,103.999995239258,4|4,0:3|0:3,0:0:0:0:
260,335,160450,1,8,0:3:0:0:
110,200,160706,2,0,P|138:267|130:369,1,155.999992858887,4|4,0:3|0:3,0:0:0:0:
136,349,161219,1,8,0:3:0:0:
40,347,161475,1,4,0:0:0:0:
40,347,161604,37,4,1:0:0:0:
375,354,161988,1,8,0:3:0:0:
281,242,162373,1,2,0:3:0:0:
366,192,162629,1,4,0:3:0:0:
366,192,162757,2,0,L|485:207,1,103.999995239258,8|8,0:3|0:3,0:0:0:0:
469,205,163142,1,4,0:3:0:0:
338,93,163398,1,4,0:3:0:0:
338,93,163527,1,8,0:3:0:0:
267,166,163783,2,0,P|261:247|271:353,1,155.999992858887,4|4,0:3|1:3,0:0:0:0:
302,341,164296,1,8,1:3:0:0:
109,364,164552,5,4,1:2:0:0:
109,364,164680,1,4,1:0:0:0:
45,115,165065,1,8,0:3:0:0:
93,287,165450,1,2,0:3:0:0:
184,238,165706,1,4,0:3:0:0:
188,196,165834,2,0,P|190:139|185:80,1,103.999995239258,8|8,0:3|0:3,0:0:0:0:
186,92,166219,1,4,0:3:0:0:
283,111,166475,1,4,0:3:0:0:
283,111,166604,1,8,0:3:0:0:
349,41,166860,2,0,B|405:36|405:36|516:73,1,155.999992858887,4|4,0:3|1:3,0:0:0:0:
485,106,167373,2,0,B|465:158|465:158|468:248,1,103.999995239258,8|4,1:3|1:2,0:0:0:0:
474,247,167757,38,0,P|403:267|333:339,1,155.999992858887,4|8,1:0|0:3,0:0:0:0:
434,359,168527,1,2,0:3:0:0:
263,358,168783,1,4,0:3:0:0:
263,358,168911,1,8,0:3:0:0:
258,252,169168,1,8,0:3:0:0:
258,252,169296,2,0,P|268:189|288:131,1,103.999995239258,4|4,0:3|0:3,0:0:0:0:
279,150,169680,1,8,0:3:0:0:
114,77,169937,2,0,P|186:84|274:63,1,155.999992858887,4|4,0:3|1:3,0:0:0:0:
286,29,170450,1,8,1:3:0:0:
40,160,170706,5,4,1:2:0:0:
40,160,170834,2,0,L|59:359,2,155.999992858887,4|8|2,1:0|0:3|0:3,0:0:0:0:
23,36,171860,1,4,0:3:0:0:
48,51,171988,1,8,0:3:0:0:
187,79,172245,1,8,0:3:0:0:
162,94,172373,1,4,0:3:0:0:
315,40,172629,1,4,0:3:0:0:
340,55,172757,1,8,0:3:0:0:
467,45,173014,1,4,0:3:0:0:
377,225,173398,37,4,0:3:0:0:
337,238,173527,1,8,0:3:0:0:
303,262,173655,1,4,0:3:0:0:
288,300,173783,1,8,0:3:0:0:
284,341,173911,5,4,1:0:0:0:
96,232,174296,1,8,0:0:0:0:
104,248,174680,2,0,P|84:196|96:132,1,103.999995239258,2|4,0:3|0:3,0:0:0:0:
156,100,175065,2,0,B|200:72|200:72|212:16,1,103.999995239258,8|8,0:3|0:3,0:0:0:0:
300,24,175450,2,0,L|276:148,1,103.999995239258,4|4,0:3|0:3,0:0:0:0:
300,160,175834,1,8,0:0:0:0:
432,216,176091,2,0,P|424:288|352:348,1,155.999992858887,4|4,0:3|1:3,0:0:0:0:
328,316,176604,2,0,P|284:292|232:296,1,103.999995239258,8|4,1:3|1:2,0:0:0:0:
84,272,176988,38,0,L|72:100,2,155.999992858887,4|8|2,1:0|0:0|0:3,0:0:0:0:
232,344,178014,1,4,0:3:0:0:
224,312,178142,1,8,0:3:0:0:
312,188,178398,1,8,0:3:0:0:
304,224,178527,1,4,0:3:0:0:
160,160,178783,1,4,0:3:0:0:
156,128,178911,1,8,0:0:0:0:
280,44,179168,1,4,0:3:0:0:
276,60,179552,1,4,1:3:0:0:
312,56,179680,1,8,1:3:0:0:
348,52,179809,1,4,1:3:0:0:
384,48,179937,1,8,1:3:0:0:
420,44,180065,6,0,L|388:164,1,103.999995239258,4|0,1:0|0:0,0:0:0:0:
404,172,180450,2,0,P|360:148|300:156,1,103.999995239258,8|0,0:0|0:0,0:0:0:0:
244,216,180834,2,0,P|288:240|348:232,1,103.999995239258,2|4,0:3|0:3,0:0:0:0:
216,244,181219,2,0,L|196:140,1,103.999995239258,8|8,0:3|0:3,0:0:0:0:
88,116,181604,2,0,L|104:220,1,103.999995239258,4|4,0:3|0:3,0:0:0:0:
92,256,181988,1,8,0:0:0:0:
216,352,182245,2,0,B|264:316|264:316|384:344,1,155.999992858887,4|4,0:3|1:3,0:0:0:0:
432,300,182757,1,8,1:3:0:0:
452,136,183014,1,4,1:2:0:0:
372,160,183142,38,0,P|308:144|248:136,1,103.999995239258,4|0,1:0|0:0,0:0:0:0:
244,120,183527,2,0,P|256:176|232:228,1,103.999995239258,8|0,0:0|0:0,0:0:0:0:
180,276,183911,1,2,0:3:0:0:
56,136,184168,1,4,0:3:0:0:
64,156,184296,2,0,L|40:44,1,103.999995239258,8|8,0:3|0:3,0:0:0:0:
120,16,184680,2,0,L|144:120,1,103.999995239258,4|4,0:3|0:3,0:0:0:0:
176,148,185065,1,8,0:3:0:0:
312,84,185321,2,0,P|392:80|460:128,1,155.999992858887,4|4,0:3|1:3,0:0:0:0:
416,168,185834,1,8,1:3:0:0:
420,204,185962,1,4,1:3:0:0:
424,240,186091,1,8,1:3:0:0:
428,276,186219,5,4,1:0:0:0:
208,328,186604,1,8,0:0:0:0:
216,348,186988,1,2,0:3:0:0:
116,272,187245,1,4,0:3:0:0:
132,248,187373,2,0,P|112:200|128:144,1,103.999995239258,8|8,0:3|0:3,0:0:0:0:
192,108,187757,2,0,B|240:88|240:88|264:36,1,103.999995239258,4|4,0:3|0:3,0:0:0:0:
344,24,188142,1,8,0:0:0:0:
452,124,188398,1,4,0:3:0:0:
460,140,188783,1,4,1:3:0:0:
416,212,188911,2,0,P|432:256|404:328,1,103.999995239258,8|4,1:2|1:2,0:0:0:0:
240,252,189296,38,0,P|216:184|240:96,1,155.999992858887,4|8,1:0|0:0,0:0:0:0:
80,24,190065,1,2,0:3:0:0:
88,36,190321,1,4,0:3:0:0:
176,48,190450,2,0,P|224:28|284:40,1,103.999995239258,8|8,0:3|0:3,0:0:0:0:
292,48,190834,2,0,P|336:56|396:36,1,103.999995239258,4|8,0:3|0:3,0:0:0:0:
412,48,191219,1,8,0:0:0:0:
464,164,191475,1,4,0:3:0:0:
364,312,191860,1,4,1:3:0:0:
328,316,191988,1,8,1:3:0:0:
292,320,192116,1,4,1:3:0:0:
256,324,192245,1,8,1:3:0:0:
220,328,192373,6,0,L|112:300,1,103.999995239258,4|0,1:0|0:0,0:0:0:0:
104,208,192757,2,0,L|216:236,1,103.999995239258,8|0,0:0|0:0,0:0:0:0:
256,220,193142,2,0,P|300:192|308:136,1,103.999995239258,2|4,0:3|0:3,0:0:0:0:
276,60,193527,2,0,P|232:88|224:144,1,103.999995239258,8|8,0:3|0:3,0:0:0:0:
192,160,193911,1,4,0:3:0:0:
128,272,194168,1,4,0:3:0:0:
144,304,194296,1,8,0:0:0:0:
304,280,194552,2,0,B|356:244|356:244|460:268,1,155.999992858887,4|4,0:3|1:3,0:0:0:0:
464,292,195065,2,0,P|484:244|468:188,1,103.999995239258,8|4,1:3|1:2,0:0:0:0:
368,44,195450,38,0,L|476:64,1,103.999995239258,4|0,1:0|0:0,0:0:0:0:
492,168,195834,2,0,L|376:144,1,103.999995239258,8|0,0:0|0:0,0:0:0:0:
304,112,196219,1,2,0:3:0:0:
160,36,196475,1,4,1:3:0:0:
160,36,196604,1,8,1:3:0:0:
168,192,196860,1,8,1:3:0:0:
168,192,196988,1,4,1:3:0:0:
304,272,197245,1,4,1:3:0:0:
304,272,197373,1,8,1:2:0:0:
304,112,197629,1,4,1:3:0:0:
40,164,198014,5,4,1:3:0:0:
48,200,198142,1,8,1:3:0:0:
56,236,198270,1,4,1:3:0:0:
64,272,198398,1,8,1:3:0:0:
76,312,198527,6,0,P|141:293|221:293,1,120.000004577637,4|0,1:0|0:0,0:0:0:0:
238,306,198911,1,10,1:0:0:0:
439,351,199168,1,0,1:0:0:0:
439,351,199296,1,2,1:0:0:0:
389,225,199552,1,0,1:0:0:0:
389,225,199680,1,10,1:0:0:0:
128,354,199937,5,4,1:2:0:0:
128,354,200065,1,4,1:3:0:0:
51,246,200321,1,0,1:0:0:0:
51,246,200450,2,0,P|49:187|54:117,1,120.000004577637,10|0,1:0|1:0,0:0:0:0:
129,48,200834,2,0,P|152:133|158:178,1,120.000004577637,2|0,1:0|1:0,0:0:0:0:
248,226,201219,2,0,P|296:202|370:188,1,120.000004577637,10|4,1:0|0:0,0:0:0:0:
474,221,201604,38,0,P|465:142|434:36,1,180.000006866455,4|10,1:0|1:0,0:0:0:0:
281,76,202245,1,0,1:0:0:0:
281,76,202373,1,2,1:0:0:0:
360,188,202629,1,0,1:0:0:0:
360,188,202757,2,0,P|382:238|403:320,1,120.000004577637,2|4,1:0|1:2,0:0:0:0:
466,360,203142,2,0,P|488:296|495:217,1,120.000004577637,4|4,1:3|1:3,0:0:0:0:
300,256,203527,1,10,1:0:0:0:
301,347,203783,1,8,1:3:0:0:
301,347,203911,2,0,P|208:326|170:309,1,120.000004577637,4|4,1:2|1:3,0:0:0:0:
90,351,204296,2,0,P|85:293|90:215,1,120.000004577637,8|4,1:0|1:2,0:0:0:0:
239,102,204680,6,2,P|146:118|51:95,1,180.000006866455,4|8,1:0|1:0,0:0:0:0:
249,205,205450,1,4,1:3:0:0:
284,204,205578,1,8,1:3:0:0:
319,204,205706,1,4,1:3:0:0:
354,204,205834,1,8,1:3:0:0:
465,325,206091,1,8,1:3:0:0:
465,325,206219,2,0,P|466:261|478:186,1,120.000004577637,4|0,1:2|1:0,0:0:0:0:
363,85,206604,2,0,P|362:149|350:224,1,120.000004577637,8|0,1:0|1:0,0:0:0:0:
242,326,206988,2,0,P|243:262|255:187,1,120.000004577637,2|4,1:3|1:3,0:0:0:0:
256,170,207373,1,8,1:0:0:0:
54,38,207629,37,4,1:2:0:0:
88,48,207757,2,0,P|130:100|105:216,1,180.000006866455,4|8,1:0|1:0,0:0:0:0:
35,270,208398,1,0,1:3:0:0:
35,270,208527,1,2,1:3:0:0:
236,257,208783,1,4,1:3:0:0:
236,257,208911,1,8,1:3:0:0:
88,362,209168,1,8,1:3:0:0:
88,362,209296,1,4,1:3:0:0:
201,356,209552,1,0,1:3:0:0:
201,356,209680,1,8,1:0:0:0:
137,192,209937,2,0,P|176:102|236:11,1,180.000006866455,4|4,1:3|1:3,0:0:0:0:
246,56,210450,1,8,1:3:0:0:
268,83,210578,1,4,1:3:0:0:
291,109,210706,1,10,1:3:0:0:
314,135,210834,6,0,P|362:106|457:8,2,180.000006866455,4|8|2,1:0|1:0|1:3,0:0:0:0:
79,59,211860,1,4,1:3:0:0:
79,59,211988,2,0,P|96:110|101:186,1,120.000004577637,8|8,1:3|1:3,0:0:0:0:
107,211,212373,1,4,1:3:0:0:
208,200,212629,1,4,1:3:0:0:
190,231,212757,1,8,1:3:0:0:
48,321,213014,2,0,P|129:319|228:354,1,180.000006866455,4|4,1:3|1:3,0:0:0:0:
254,366,213526,1,8,1:0:0:0:
432,222,213783,37,4,1:2:0:0:
356,186,213911,2,0,P|358:280|357:378,2,180.000006866455,4|8|2,1:0|1:0|1:3,0:0:0:0:
186,45,214937,1,4,1:3:0:0:
186,45,215065,1,8,1:3:0:0:
137,127,215321,1,8,1:3:0:0:
137,127,215450,1,4,1:3:0:0:
72,56,215706,1,4,1:3:0:0:
72,56,215834,1,8,1:0:0:0:
252,111,216091,2,0,L|272:298,1,180.000006866455,4|4,1:3|1:3,0:0:0:0:
238,305,216604,1,8,1:3:0:0:
205,321,216732,1,4,1:3:0:0:
172,336,216860,1,10,1:3:0:0:
132,352,216988,5,4,1:0:0:0:
60,168,217245,1,0,1:0:0:0:
72,88,217373,1,10,1:0:0:0:
272,40,217629,1,0,1:0:0:0:
260,120,217757,1,2,1:0:0:0:
240,312,218014,1,0,1:0:0:0:
232,340,218142,2,0,P|284:304|372:316,1,136.000002593994,10|8,1:0|1:3,0:0:0:0:
448,264,218527,38,0,B|480:220|480:220|460:132,1,136.000002593994,4|0,1:3|1:0,0:0:0:0:
408,72,218911,1,10,1:0:0:0:
204,220,219168,2,2,P|116:184|96:76,1,204.000003890991,2|4,1:0|1:3,0:1:0:0:
128,40,219680,1,8,1:3:0:0:
172,48,219809,1,4,1:3:0:0:
216,56,219937,1,10,1:3:0:0:
256,64,220065,6,0,L|400:48,1,136.000002593994,4|0,1:0|1:0,0:0:0:0:
472,160,220450,2,0,L|328:176,1,136.000002593994,8|0,1:0|1:0,0:0:0:0:
312,208,220834,1,2,1:3:0:0:
108,320,221091,1,4,1:3:0:0:
100,272,221219,1,8,1:3:0:0:
92,224,221347,1,4,1:3:0:0:
84,176,221475,1,8,1:3:0:0:
76,128,221604,37,4,1:3:0:0:
264,32,221860,1,0,1:0:0:0:
276,60,221988,1,8,1:0:0:0:
224,216,222245,1,0,1:0:0:0:
232,188,222373,1,2,1:3:0:0:
408,120,222629,1,2,1:2:0:0:
424,144,222757,2,0,P|452:80|432:16,1,136.000002593994,8|6,1:1|1:2,0:0:0:0:
268,180,223142,6,0,P|260:252|316:316,1,136.000002593994,4|0,1:0|0:0,0:0:0:0:
160,324,223527,2,0,L|16:356,1,136.000002593994,8|0,1:0|2:0,0:0:0:0:
32,228,223911,2,0,L|196:192,1,136.000002593994,2|0,1:3|1:0,0:0:0:0:
176,120,224296,1,8,1:0:0:0:
320,120,224552,1,8,1:3:0:0:
352,192,224680,38,0,B|408:168|408:168|504:200,1,136.000002593994,4|0,1:3|1:0,0:0:0:0:
484,228,225065,1,8,1:0:0:0:
328,344,225321,2,0,P|232:324|184:212,1,204.000003890991,4|2,1:3|1:2,0:0:0:0:
104,184,225834,2,0,L|84:108,2,68.0000012969971,8|2|6,1:0|0:0|1:2,0:0:0:0:
88,224,226219,5,4,1:0:0:0:
224,344,226475,1,0,1:0:0:0:
300,324,226604,1,8,1:0:0:0:
452,212,226860,1,0,1:0:0:0:
376,192,226988,1,2,1:3:0:0:
256,48,227245,1,4,1:3:0:0:
220,56,227373,1,8,1:3:0:0:
184,64,227501,1,4,1:3:0:0:
148,72,227629,1,8,1:3:0:0:
112,84,227757,38,0,P|104:156|148:212,1,136.000002593994,4|0,1:3|1:0,0:0:0:0:
224,296,228142,2,0,B|280:268|280:268|300:192,1,136.000002593994,8|2,1:0|1:2,0:0:0:0:
288,88,228527,2,0,L|432:108,1,136.000002593994,2|0,1:0|1:0,0:0:0:0:
468,224,228911,2,0,L|324:204,1,136.000002593994,8|6,1:0|1:2,0:0:0:0:
148,344,229296,6,0,P|108:284|124:208,1,136.000002593994,4|0,1:0|0:0,0:0:0:0:
104,188,229680,1,8,1:0:0:0:
168,40,229937,1,0,1:0:0:0:
164,68,230065,2,0,L|304:44,1,136.000002593994,2|0,1:3|1:0,0:0:0:0:
368,120,230450,2,0,L|224:148,1,136.000002593994,8|8,1:0|1:3,0:0:0:0:
224,176,230834,37,4,1:3:0:0:
152,308,231091,1,0,1:0:0:0:
160,336,231219,1,8,1:0:0:0:
336,276,231475,2,0,P|372:196|340:88,1,204.000003890991,4|4,1:3|1:3,0:0:0:0:
336,48,231988,1,8,1:3:0:0:
304,44,232116,1,4,1:3:0:0:
272,40,232245,1,10,1:3:0:0:
240,36,232373,37,2,1:2:0:0:
116,144,232757,1,8,0:1:0:0:
116,144,233398,1,4,0:3:0:0:
116,176,233527,2,0,P|188:156|216:108,1,103.999995239258,8|8,0:3|0:3,0:0:0:0:
252,112,233911,2,0,L|356:144,1,103.999995239258,4|4,1:3|0:3,0:0:0:0:
364,172,234296,1,8,0:1:0:0:
348,292,234552,1,4,0:3:0:0:
348,292,234937,1,4,0:3:0:0:
320,320,235065,2,0,P|260:308|224:260,1,103.999995239258,8|4,0:1|0:2,0:0:0:0:
153,188,235450,37,4,1:0:0:0:
151,344,235834,1,8,0:2:0:0:
158,191,236476,1,4,0:0:0:0:
158,191,236604,1,8,0:0:0:0:
58,212,236860,1,8,0:0:0:0:
58,212,236988,2,0,P|61:254|57:322,1,80,4|4,0:0|0:0,0:0:0:0:
57,323,237373,1,8,0:2:0:0:
157,351,237629,1,4,0:0:0:0:
157,351,238014,1,4,0:0:0:0:
157,351,238142,1,8,0:2:0:0:
245,294,238398,5,2,0:0:0:0:
245,294,238527,2,0,P|259:217|257:155,1,120,4|8,0:2|0:2,0:0:0:0:
266,181,239552,1,4,0:0:0:0:
266,181,239680,1,8,0:0:0:0:
364,213,239937,1,8,0:0:0:0:
364,213,240065,2,0,P|406:188|438:141,1,80,4|4,0:0|0:0,0:0:0:0:
435,87,240450,1,8,0:2:0:0:
266,181,240706,2,0,P|272:267|271:324,1,120,4|4,0:0|0:0,0:0:0:0:
269,332,241219,1,8,0:2:0:0:
189,348,241475,37,2,0:0:0:0:
189,348,241604,1,4,1:0:0:0:
365,355,241988,1,8,0:2:0:0:
365,355,242629,1,4,0:0:0:0:
365,355,242757,1,8,0:0:0:0:
459,312,243014,1,8,0:0:0:0:
459,312,243142,1,4,0:0:0:0:
372,259,243398,1,4,0:0:0:0:
372,259,243526,1,8,0:2:0:0:
268,337,243783,2,0,B|203:320|204:354|121:335,1,120,4|4,0:0|0:0,0:0:0:0:
118,348,244296,1,8,0:2:0:0:
30,349,244552,5,2,0:0:0:0:
30,349,244680,2,0,P|32:285|28:221,1,120,4|8,0:2|0:2,0:0:0:0:
29,232,245706,1,4,0:0:0:0:
29,232,245834,1,8,0:0:0:0:
110,175,246091,1,8,0:0:0:0:
110,175,246219,2,0,P|153:186|204:191,1,80,4|4,0:0|0:0,0:0:0:0:
248,232,246604,2,0,P|246:194|251:125,1,80,8|8,0:2|0:0,0:0:0:0:
472,232,247245,1,4,0:0:0:0:
472,232,247373,2,0,P|474:275|473:341,1,80,8|2,0:2|0:0,0:0:0:0:
404,348,247757,37,4,1:0:0:0:
402,190,248142,1,8,0:2:0:0:
408,353,248783,1,4,0:0:0:0:
408,353,248911,1,8,0:0:0:0:
317,254,249168,1,8,0:0:0:0:
317,254,249296,2,0,P|274:270|220:303,1,80,4|4,0:0|0:0,0:0:0:0:
219,306,249680,1,8,0:2:0:0:
62,267,249937,2,0,P|54:192|59:136,1,120,4|4,0:0|0:0,0:0:0:0:
57,147,250450,1,8,0:2:0:0:
168,211,250706,5,2,0:0:0:0:
157,241,250834,1,4,0:2:0:0:
229,96,251219,1,8,0:2:0:0:
229,96,251860,1,4,0:0:0:0:
229,96,251988,2,0,P|174:97|116:92,1,80,8|8,0:0|0:0,0:0:0:0:
117,89,252373,1,4,0:0:0:0:
287,180,252629,1,4,0:0:0:0:
287,180,252757,1,8,0:2:0:0:
380,222,253014,1,4,0:0:0:0:
191,255,253398,37,4,0:0:0:0:
160,244,253527,1,8,0:0:0:0:
129,234,253655,1,4,0:0:0:0:
98,225,253783,1,10,0:0:0:0:
52,240,253911,6,0,P|52:306|49:393,1,120,4|8,1:0|0:2,0:0:0:0:
56,365,254937,1,4,0:0:0:0:
56,365,255065,2,0,P|92:324|135:297,1,80,8|8,0:0|0:0,0:0:0:0:
138,290,255450,1,4,0:0:0:0:
233,316,255706,1,4,0:0:0:0:
233,316,255834,1,8,0:2:0:0:
354,353,256091,2,0,P|385:282|397:216,1,120,4|4,0:0|0:0,0:0:0:0:
364,229,256604,1,8,0:2:0:0:
445,356,256860,37,2,0:0:0:0:
445,356,256988,1,4,1:0:0:0:
268,361,257373,1,8,0:2:0:0:
273,365,258014,1,4,0:0:0:0:
273,365,258142,1,8,0:0:0:0:
236,243,258398,1,8,0:0:0:0:
236,243,258527,2,0,P|225:196|224:139,1,80,4|4,0:0|0:0,0:0:0:0:
234,134,258911,1,8,0:2:0:0:
436,53,259167,2,0,P|378:62|292:44,1,120,4|4,0:0|0:0,0:0:0:0:
245,34,259680,1,8,0:2:0:0:
313,154,259937,1,2,0:0:0:0:
305,178,260065,5,4,1:0:0:0:
148,312,260450,1,8,0:2:0:0:
148,312,261091,1,4,0:0:0:0:
120,280,261219,2,0,L|108:184,1,80,8|8,0:0|0:0,0:0:0:0:
84,176,261604,2,0,P|128:144|140:100,1,80,4|4,0:0|0:0,0:0:0:0:
172,96,261988,1,8,0:2:0:0:
272,160,262245,2,0,B|312:136|312:136|412:160,1,120,4|4,0:0|0:0,0:0:0:0:
404,164,262757,2,0,P|416:132|400:76,1,80,8|2,0:2|0:0,0:0:0:0:
316,28,263142,37,4,0:2:0:0:
324,44,263527,1,8,0:2:0:0:
168,124,264168,1,4,0:0:0:0:
168,124,264296,1,8,0:0:0:0:
124,244,264552,1,8,0:0:0:0:
124,244,264680,1,4,0:0:0:0:
256,224,264937,1,4,0:0:0:0:
256,224,265065,1,8,0:2:0:0:
184,104,265321,2,0,P|120:88|76:28,1,120,4|4,0:0|0:0,0:0:0:0:
56,56,265834,1,8,0:2:0:0:
72,184,266091,1,2,0:0:0:0:
116,200,266219,6,0,P|132:256|100:332,1,120,4|8,1:0|0:2,0:0:0:0:
136,336,267245,1,4,0:0:0:0:
136,336,267373,2,0,L|224:324,1,80,8|8,0:0|0:0,0:0:0:0:
248,284,267757,2,0,B|232:252|232:252|240:208,1,80,4|4,0:0|0:0,0:0:0:0:
228,184,268142,1,0,0:2:0:0:
344,140,268398,2,0,P|388:124|420:44,1,120,4|4,0:0|0:0,0:0:0:0:
396,32,268911,2,0,L|488:48,1,80,8|2,0:2|0:0,0:0:0:0:
496,148,269296,37,4,0:2:0:0:
488,168,269680,1,8,0:2:0:0:
360,300,270321,1,4,0:0:0:0:
360,300,270450,1,8,0:0:0:0:
241,317,270706,1,8,0:0:0:0:
241,317,270834,1,4,0:0:0:0:
223,198,271091,1,4,0:0:0:0:
223,198,271219,1,8,0:2:0:0:
341,180,271475,1,4,0:0:0:0:
216,336,271860,1,4,0:0:0:0:
204,352,271988,2,0,P|160:336|140:288,1,80,8|2,0:2|0:0,0:0:0:0:
64,256,272373,6,0,B|96:220|96:220|176:216,1,120,4|8,1:0|0:2,0:0:0:0:
320,64,273398,1,4,0:0:0:0:
320,64,273527,2,0,L|228:60,1,80,8|8,0:0|0:0,0:0:0:0:
224,152,273911,2,0,L|312:148,1,80,4|4,0:0|0:0,0:0:0:0:
328,164,274296,1,8,0:2:0:0:
436,240,274552,2,0,P|428:300|372:348,1,120,4|4,0:0|0:0,0:0:0:0:
360,352,275065,2,0,P|324:332|280:336,1,80,8|2,0:2|0:0,0:0:0:0:
188,288,275450,37,4,0:2:0:0:
196,300,275834,1,8,0:2:0:0:
96,160,276475,1,4,0:0:0:0:
96,160,276603,2,0,P|80:120|88:80,1,80,8|8,0:0|0:0,0:0:0:0:
172,116,276988,2,0,P|188:156|180:196,1,80,4|4,0:3|0:3,0:0:0:0:
172,216,277373,1,8,0:2:0:0:
220,328,277629,2,0,L|344:312,1,120,4|4,0:3|0:0,0:0:0:0:
372,296,278142,2,0,L|388:344,2,40,8|4|10,0:3|0:0|0:0,0:0:0:0:
372,244,278526,5,4,1:0:0:0:
400,84,278911,1,8,0:2:0:0:
400,84,279552,1,4,0:0:0:0:
368,56,279680,2,0,P|328:44|272:56,1,80,8|8,0:0|0:0,0:0:0:0:
264,72,280065,2,0,P|216:72|172:40,1,80,4|4,0:0|0:0,0:0:0:0:
148,56,280450,1,8,0:2:0:0:
56,144,280706,2,0,P|48:208|76:256,1,120,4|4,0:0|0:0,0:0:0:0:
60,296,281219,2,0,L|156:280,1,80,8|2,0:2|0:0,0:0:0:0:
216,320,281604,37,4,1:0:0:0:
224,332,281988,1,8,0:2:0:0:
356,188,282629,1,4,0:0:0:0:
356,188,282757,1,8,0:0:0:0:
464,232,283014,1,8,0:0:0:0:
464,232,283142,1,4,0:0:0:0:
452,116,283398,1,4,0:0:0:0:
452,116,283527,1,8,0:2:0:0:
340,80,283783,1,4,0:0:0:0:
164,148,284168,1,4,0:0:0:0:
172,172,284296,1,8,0:0:0:0:
180,196,284424,1,4,0:0:0:0:
188,220,284552,1,10,0:0:0:0:
196,244,284680,5,4,1:0:0:0:
