osu file format v14

[General]
AudioFilename: IAHN - Transform.mp3
AudioLeadIn: 0
PreviewTime: -1
Countdown: 1
SampleSet: None
StackLeniency: 0.7
Mode: 3
LetterboxInBreaks: 1
SpecialStyle: 0
WidescreenStoryboard: 0

[Editor]
DistanceSpacing: 2.3
BeatDivisor: 8
GridSize: 16
TimelineZoom: 1

[Metadata]
Title:Transform (Original MIX)
TitleUnicode:Transform (Original MIX)
Artist:IAHN
ArtistUnicode:IAHN
Creator:Riutz
Version:TranSVorm
Source:
Tags:
BeatmapID:1172390
BeatmapSetID:553715

[Difficulty]
HPDrainRate:9
CircleSize:7
OverallDifficulty:8
ApproachRate:5
SliderMultiplier:1.4
SliderTickRate:1

[Events]
//Background and Video events
0,0,"8a0aa5a4e60981f8f247664536717c1c.jpg",0,0
//Break Periods
//Storyboard Layer 0 (Background)
//Storyboard Layer 1 (Fail)
//Storyboard Layer 2 (Pass)
//Storyboard Layer 3 (Foreground)
//Storyboard Sound Samples

[TimingPoints]
-31,344.827586206897,4,1,0,100,1,0
12037,-166.666666666667,4,1,0,100,0,0
12210,-125,4,1,0,100,0,0
12296,-100,4,1,0,100,0,0
12382,-80,4,1,0,100,0,0
12469,-75.187969924812,4,1,0,100,0,0
12555,-66.6666666666667,4,1,0,100,0,0
12598,-83.3333333333333,4,1,0,100,0,0
12641,-100,4,1,0,100,0,0
22727,-100,4,2,0,100,0,0
22727,-100,4,2,0,100,0,0
28589,-200,4,2,0,100,0,0
28719,-142.857142857143,4,2,0,100,0,0
28762,-133.333333333333,4,2,0,100,0,0
28805,-125,4,2,0,100,0,0
28934,-123.456790123457,4,2,0,100,0,0
29280,-121.951219512195,4,2,0,100,0,0
29626,-120.481927710843,4,2,0,100,0,0
29969,-119.047619047619,4,2,0,100,0,0
30313,-117.647058823529,4,2,0,100,0,0
30658,-116.279069767442,4,2,0,100,0,0
31003,-114.942528735632,4,2,0,100,0,0
31348,-113.636363636364,4,2,0,100,0,0
31693,-112.359550561798,4,2,0,100,0,0
32037,-111.111111111111,4,2,0,100,0,0
32382,-109.89010989011,4,2,0,100,0,0
32727,-108.695652173913,4,2,0,100,0,0
33072,-107.52688172043,4,2,0,100,0,0
33417,-106.382978723404,4,2,0,100,0,0
33762,-105.263157894737,4,2,0,100,0,0
34106,-104.166666666667,4,2,0,100,0,0
34451,-111.111111111111,4,2,0,100,0,0
34796,-109.89010989011,4,2,0,100,0,0
35141,-108.695652173913,4,2,0,100,0,0
35486,-107.52688172043,4,2,0,100,0,0
35831,-106.382978723404,4,2,0,100,0,0
36175,-105.263157894737,4,2,0,100,0,0
36520,-104.166666666667,4,2,0,100,0,0
36865,-103.092783505155,4,2,0,100,0,0
37210,-102.040816326531,4,2,0,100,0,0
37555,-100,4,2,0,100,0,0
37555,-101.010101010101,4,2,0,100,0,0
37900,-99.009900990099,4,2,0,100,0,0
38244,-98.0392156862745,4,2,0,100,0,0
38589,-97.0873786407767,4,2,0,100,0,0
38934,-96.1538461538461,4,2,0,100,0,0
39279,-95.2380952380952,4,2,0,100,0,0
39624,-200,4,2,0,100,0,0
39753,-142.857142857143,4,2,0,100,0,0
39796,-125,4,2,0,100,0,0
39839,-111.111111111111,4,2,0,100,0,0
39882,-106.382978723404,4,2,0,100,0,0
39969,-105.263157894737,4,2,0,100,0,0
40313,-104.166666666667,4,2,0,100,0,0
40658,-103.092783505155,4,2,0,100,0,0
41003,-102.040816326531,4,2,0,100,0,0
41348,-101.010101010101,4,2,0,100,0,0
41693,-100,4,2,0,100,0,0
41951,-99.009900990099,4,2,0,100,0,0
42037,-98.0392156862745,4,2,0,100,0,0
42124,-97.0873786407767,4,2,0,100,0,0
42210,-96.1538461538461,4,2,0,100,0,0
42296,-95.2380952380952,4,2,0,100,0,0
42382,-94.3396226415094,4,2,0,100,0,0
42469,-93.4579439252336,4,2,0,100,0,0
42555,-92.5925925925926,4,2,0,100,0,0
42641,-91.743119266055,4,2,0,100,0,0
42727,-90.9090909090909,4,2,0,100,0,0
42813,-89.2857142857143,4,2,0,100,0,0
42900,-87.719298245614,4,2,0,100,0,0
42986,-86.2068965517241,4,2,0,100,0,0
43072,-84.7457627118644,4,2,0,100,0,0
43158,-83.3333333333333,4,2,0,100,0,0
43244,-81.9672131147541,4,2,0,100,0,0
43331,-80.6451612903226,4,2,0,100,0,0
43417,-79.3650793650794,4,2,0,100,0,0
43503,-78.125,4,2,0,100,0,0
43589,-76.9230769230769,4,2,0,100,0,0
43675,-75.7575757575758,4,2,0,100,0,0
43762,-74.6268656716418,4,2,0,100,0,0
43848,-73.5294117647059,4,2,0,100,0,0
43934,-72.463768115942,4,2,0,100,0,0
44020,-71.4285714285714,4,2,0,100,0,0
44106,-100,4,2,0,100,0,0
45486,-333.333333333333,4,2,0,100,0,0
45658,-250,4,2,0,100,0,0
45831,-200,4,2,0,100,0,0
45917,-133.333333333333,4,2,0,100,0,0
46003,-100,4,2,0,100,0,0
46175,-100,4,2,0,100,0,1
47900,-250,4,2,0,100,0,1
47986,-133.333333333333,4,2,0,100,0,1
48072,-100,4,2,0,100,0,1
49624,-133.333333333333,4,2,0,100,0,1
49796,-100,4,2,0,100,0,1
49969,-83.3333333333333,4,2,0,100,0,1
50141,-75.187969924812,4,2,0,100,0,1
50227,-100,4,2,0,100,0,1
50658,-200,4,2,0,100,0,1
50744,-133.333333333333,4,2,0,100,0,1
50831,-100,4,2,0,100,0,1
53417,-151.515151515152,4,2,0,100,0,1
53589,-100,4,2,0,100,0,1
53675,-75.187969924812,4,2,0,100,0,1
53762,-50,4,2,0,100,0,1
53848,-75.187969924812,4,2,0,100,0,1
53934,-86.9565217391304,4,2,0,100,0,1
54106,-100,4,2,0,100,0,1
56520,-60.2409638554217,4,2,0,100,0,1
56693,-66.6666666666667,4,2,0,100,0,1
56865,-100,4,2,0,100,0,1
56951,-133.333333333333,4,2,0,100,0,1
57210,-250,4,2,0,100,0,1
57382,-200,4,2,0,100,0,1
57555,-151.515151515152,4,2,0,100,0,1
57641,-133.333333333333,4,2,0,100,0,1
57727,-100,4,2,0,100,0,1
58934,-80,4,2,0,100,0,1
59279,-117.647058823529,4,2,0,100,0,1
59624,-80,4,2,0,100,0,1
59969,-100,4,2,0,100,0,1
61693,-60.2409638554217,4,2,0,100,0,1
61865,-66.6666666666667,4,2,0,100,0,1
61951,-83.3333333333333,4,2,0,100,0,1
62037,-100,4,2,0,100,0,1
66175,-100,4,2,0,100,0,0
67296,-50,4,2,0,100,0,0
67339,-1000,4,2,0,100,0,0
67555,-33.3333333333333,4,2,0,100,0,0
67598,-1000,4,2,0,100,0,0
67900,-33.3333333333333,4,2,0,100,0,0
67943,-1000,4,2,0,100,0,0
68244,-100,4,2,0,100,0,0
74451,-125,4,2,0,100,0,0
85486,-121.951219512195,4,2,0,100,0,0
86520,-119.047619047619,4,2,0,100,0,0
87210,-116.279069767442,4,2,0,100,0,0
88244,-113.636363636364,4,2,0,100,0,0
89279,-111.111111111111,4,2,0,100,0,0
90313,-108.695652173913,4,2,0,100,0,0
92554,-106.382978723404,4,2,0,100,0,0
93762,-104.166666666667,4,2,0,100,0,0
98589,-10,4,2,0,100,0,0
98762,-10000,4,2,0,100,0,0
98934,-1000,4,2,0,100,0,0
99106,-400,4,2,0,100,0,0
99150,-133.333333333333,4,2,0,100,0,0
99193,-100,4,2,0,100,0,0
100658,-100,4,2,0,100,0,1
111003,-100,4,2,0,100,0,0
111693,-95.2380952380952,4,2,0,100,0,1
122813,-100,4,2,0,100,0,0

[HitObjects]
64,192,313,128,0,1348:0:0:0:0:
192,192,658,1,0,0:0:0:0:
256,192,773,1,0,0:0:0:0:
448,192,831,1,0,0:0:0:0:
320,192,1003,1,0,0:0:0:0:
448,192,1175,1,0,0:0:0:0:
256,192,1262,1,0,0:0:0:0:
192,192,1348,1,0,0:0:0:0:
320,192,1348,1,0,0:0:0:0:
448,192,1434,1,0,0:0:0:0:
402,192,1477,1,0,0:0:0:0:
320,192,1520,1,0,0:0:0:0:
256,192,1563,1,0,0:0:0:0:
192,192,1606,1,0,0:0:0:0:
109,192,1650,1,0,0:0:0:0:
64,192,1693,1,0,0:0:0:0:
320,192,1865,1,0,0:0:0:0:
192,192,1865,1,0,0:0:0:0:
256,192,1865,1,0,0:0:0:0:
64,192,2037,1,0,0:0:0:0:
256,192,2124,1,0,0:0:0:0:
448,192,2210,1,0,0:0:0:0:
320,192,2382,1,0,0:0:0:0:
192,192,2382,1,0,0:0:0:0:
64,192,2382,1,0,0:0:0:0:
109,192,2382,1,0,0:0:0:0:
256,192,2382,1,0,0:0:0:0:
64,192,2555,1,0,0:0:0:0:
192,192,2727,1,0,0:0:0:0:
320,192,2727,1,0,0:0:0:0:
448,192,2727,1,0,0:0:0:0:
256,192,2727,1,0,0:0:0:0:
402,192,2727,1,0,0:0:0:0:
320,192,2900,1,0,0:0:0:0:
182,192,2986,1,0,0:0:0:0:
64,192,3072,1,0,0:0:0:0:
320,192,3244,1,0,0:0:0:0:
192,192,3244,1,0,0:0:0:0:
402,192,3244,1,0,0:0:0:0:
256,192,3244,1,0,0:0:0:0:
475,192,3244,1,0,0:0:0:0:
64,192,3417,1,0,0:0:0:0:
109,192,3589,1,0,0:0:0:0:
448,192,3762,1,0,0:0:0:0:
320,192,3762,1,0,0:0:0:0:
192,192,3762,1,0,0:0:0:0:
256,192,3762,1,0,0:0:0:0:
402,192,3762,1,0,0:0:0:0:
320,192,3934,1,0,0:0:0:0:
192,192,4106,1,0,0:0:0:0:
448,192,4106,1,0,0:0:0:0:
64,192,4106,1,0,0:0:0:0:
109,192,4106,1,0,0:0:0:0:
402,192,4150,1,0,0:0:0:0:
320,192,4193,1,0,0:0:0:0:
256,192,4236,1,0,0:0:0:0:
192,192,4279,1,0,0:0:0:0:
109,192,4322,1,0,0:0:0:0:
64,192,4365,1,0,0:0:0:0:
448,192,4451,1,0,0:0:0:0:
192,192,4624,1,0,0:0:0:0:
256,192,4624,1,0,0:0:0:0:
448,192,4624,1,0,0:0:0:0:
402,192,4624,1,0,0:0:0:0:
329,192,4624,1,0,0:0:0:0:
64,192,4796,1,0,0:0:0:0:
256,192,4882,1,0,0:0:0:0:
448,192,4969,1,0,0:0:0:0:
320,192,5141,1,0,0:0:0:0:
192,192,5141,1,0,0:0:0:0:
64,192,5141,1,0,0:0:0:0:
109,192,5141,1,0,0:0:0:0:
256,192,5141,1,0,0:0:0:0:
182,192,5313,1,0,0:0:0:0:
192,192,5486,1,0,0:0:0:0:
320,192,5486,1,0,0:0:0:0:
448,192,5486,1,0,0:0:0:0:
256,192,5486,1,0,0:0:0:0:
402,192,5486,1,0,0:0:0:0:
64,192,5658,1,0,0:0:0:0:
109,192,5831,1,0,0:0:0:0:
448,192,6003,1,0,0:0:0:0:
320,192,6003,1,0,0:0:0:0:
192,192,6003,1,0,0:0:0:0:
256,192,6003,1,0,0:0:0:0:
402,192,6003,1,0,0:0:0:0:
64,192,6175,1,0,0:0:0:0:
109,192,6348,1,0,0:0:0:0:
320,192,6520,1,0,0:0:0:0:
192,192,6520,1,0,0:0:0:0:
448,192,6520,1,0,0:0:0:0:
256,192,6520,1,0,0:0:0:0:
402,192,6520,1,0,0:0:0:0:
192,192,6693,1,0,0:0:0:0:
320,192,6865,1,0,0:0:0:0:
448,192,6865,1,0,0:0:0:0:
64,192,6865,1,0,0:0:0:0:
256,192,6865,1,0,0:0:0:0:
402,192,6865,1,0,0:0:0:0:
192,192,6951,1,0,0:0:0:0:
448,192,7037,1,0,0:0:0:0:
320,192,7124,1,0,0:0:0:0:
64,192,7210,1,0,0:0:0:0:
256,192,7210,1,0,0:0:0:0:
320,192,7382,1,0,0:0:0:0:
192,192,7382,1,0,0:0:0:0:
36,192,7382,1,0,0:0:0:0:
109,192,7382,1,0,0:0:0:0:
256,192,7382,1,0,0:0:0:0:
448,192,7727,1,0,0:0:0:0:
402,192,7813,1,0,0:0:0:0:
320,192,7900,1,0,0:0:0:0:
192,192,7900,1,0,0:0:0:0:
64,192,7900,1,0,0:0:0:0:
256,192,7900,1,0,0:0:0:0:
109,192,7900,1,0,0:0:0:0:
64,192,8072,1,0,0:0:0:0:
109,192,8158,1,0,0:0:0:0:
192,192,8244,1,0,0:0:0:0:
320,192,8244,1,0,0:0:0:0:
448,192,8244,1,0,0:0:0:0:
256,192,8244,1,0,0:0:0:0:
402,192,8244,1,0,0:0:0:0:
64,192,8589,1,0,0:0:0:0:
109,192,8675,1,0,0:0:0:0:
320,192,8762,1,0,0:0:0:0:
192,192,8762,1,0,0:0:0:0:
448,192,8762,1,0,0:0:0:0:
256,192,8762,1,0,0:0:0:0:
402,192,8762,1,0,0:0:0:0:
64,192,8934,1,0,0:0:0:0:
109,192,9106,1,0,0:0:0:0:
448,192,9279,1,0,0:0:0:0:
320,192,9279,1,0,0:0:0:0:
192,192,9279,1,0,0:0:0:0:
256,192,9279,1,0,0:0:0:0:
402,192,9279,1,0,0:0:0:0:
448,192,9451,1,0,0:0:0:0:
192,192,9624,1,0,0:0:0:0:
320,192,9624,1,0,0:0:0:0:
256,192,9624,1,0,0:0:0:0:
109,192,9624,1,0,0:0:0:0:
402,192,9624,1,0,0:0:0:0:
448,192,9710,1,0,0:0:0:0:
402,192,9753,1,0,0:0:0:0:
320,192,9796,1,0,0:0:0:0:
256,192,9839,1,0,0:0:0:0:
192,192,9882,1,0,0:0:0:0:
109,192,9925,1,0,0:0:0:0:
64,192,9969,1,0,0:0:0:0:
320,192,10141,1,0,0:0:0:0:
192,192,10141,1,0,0:0:0:0:
256,192,10141,1,0,0:0:0:0:
402,192,10141,1,0,0:0:0:0:
475,192,10141,1,0,0:0:0:0:
64,192,10313,1,0,0:0:0:0:
256,192,10400,1,0,0:0:0:0:
448,192,10486,1,0,0:0:0:0:
320,192,10658,1,0,0:0:0:0:
192,192,10658,1,0,0:0:0:0:
64,192,10658,1,0,0:0:0:0:
109,192,10658,1,0,0:0:0:0:
256,192,10658,1,0,0:0:0:0:
64,192,10831,1,0,0:0:0:0:
109,192,10917,1,0,0:0:0:0:
192,192,11003,1,0,0:0:0:0:
320,192,11003,1,0,0:0:0:0:
448,192,11003,1,0,0:0:0:0:
256,192,11003,1,0,0:0:0:0:
402,192,11003,1,0,0:0:0:0:
64,192,11089,1,0,0:0:0:0:
109,192,11132,1,0,0:0:0:0:
192,192,11175,1,0,0:0:0:0:
64,192,11262,1,0,0:0:0:0:
109,192,11305,1,0,0:0:0:0:
192,192,11348,1,0,0:0:0:0:
256,192,11391,1,0,0:0:0:0:
320,192,11434,1,0,0:0:0:0:
402,192,11477,1,0,0:0:0:0:
448,192,11520,1,0,0:0:0:0:
402,192,11563,1,0,0:0:0:0:
320,192,11606,1,0,0:0:0:0:
256,192,11650,1,0,0:0:0:0:
64,192,11693,1,0,0:0:0:0:
448,192,11693,1,0,0:0:0:0:
192,192,11693,1,0,0:0:0:0:
109,192,11693,1,0,0:0:0:0:
402,192,11693,1,0,0:0:0:0:
448,192,11865,1,0,0:0:0:0:
192,192,11865,1,0,0:0:0:0:
329,192,11865,1,0,0:0:0:0:
256,192,11908,1,0,0:0:0:0:
320,192,11951,1,0,0:0:0:0:
64,192,11951,1,0,0:0:0:0:
402,192,11994,1,0,0:0:0:0:
448,192,12037,1,0,0:0:0:0:
192,192,12037,128,0,12382:0:0:0:0:
109,192,12037,1,0,0:0:0:0:
256,192,12037,1,0,0:0:0:0:
448,192,12382,128,0,12727:0:0:0:0:
320,192,12382,1,0,0:0:0:0:
64,192,12382,1,0,0:0:0:0:
109,192,12382,1,0,0:0:0:0:
256,192,12382,1,0,0:0:0:0:
320,192,12727,1,0,0:0:0:0:
192,192,12727,1,0,0:0:0:0:
256,192,12727,1,0,0:0:0:0:
402,192,12727,1,0,0:0:0:0:
192,192,12900,1,0,0:0:0:0:
64,192,12900,1,0,0:0:0:0:
109,192,12900,1,0,0:0:0:0:
192,192,13244,1,0,0:0:0:0:
109,192,13287,1,0,0:0:0:0:
64,192,13331,1,0,0:0:0:0:
192,192,13417,1,0,0:0:0:0:
320,192,13417,1,0,0:0:0:0:
448,192,13417,1,0,0:0:0:0:
256,192,13417,1,0,0:0:0:0:
402,192,13417,1,0,0:0:0:0:
182,192,13589,1,0,0:0:0:0:
402,192,13675,1,0,0:0:0:0:
64,192,13762,1,0,0:0:0:0:
192,192,13762,1,0,0:0:0:0:
320,192,13762,1,0,0:0:0:0:
109,192,13762,1,0,0:0:0:0:
256,192,13762,1,0,0:0:0:0:
448,192,13934,1,0,0:0:0:0:
329,192,13977,1,0,0:0:0:0:
109,192,14020,1,0,0:0:0:0:
182,192,14106,1,0,0:0:0:0:
320,192,14106,1,0,0:0:0:0:
448,192,14106,1,0,0:0:0:0:
256,192,14106,1,0,0:0:0:0:
402,192,14106,1,0,0:0:0:0:
192,192,14279,1,0,0:0:0:0:
64,192,14279,1,0,0:0:0:0:
109,192,14279,1,0,0:0:0:0:
320,192,14451,1,0,0:0:0:0:
448,192,14451,1,0,0:0:0:0:
402,192,14451,1,0,0:0:0:0:
192,192,14624,1,0,0:0:0:0:
64,192,14624,1,0,0:0:0:0:
109,192,14624,1,0,0:0:0:0:
256,192,14710,1,0,0:0:0:0:
402,192,14796,1,0,0:0:0:0:
320,192,14796,1,0,0:0:0:0:
448,192,14796,1,0,0:0:0:0:
64,192,15141,1,0,0:0:0:0:
448,192,15141,1,0,0:0:0:0:
320,192,15141,1,0,0:0:0:0:
256,192,15141,1,0,0:0:0:0:
402,192,15141,1,0,0:0:0:0:
192,192,15227,1,0,0:0:0:0:
448,192,15313,1,0,0:0:0:0:
256,192,15313,1,0,0:0:0:0:
320,192,15400,1,0,0:0:0:0:
192,192,15486,1,0,0:0:0:0:
64,192,15486,1,0,0:0:0:0:
448,192,15486,1,0,0:0:0:0:
109,192,15486,1,0,0:0:0:0:
64,192,15658,1,0,0:0:0:0:
320,192,15658,1,0,0:0:0:0:
192,192,15658,1,0,0:0:0:0:
256,192,15658,1,0,0:0:0:0:
320,192,16003,1,0,0:0:0:0:
256,192,16046,1,0,0:0:0:0:
192,192,16089,1,0,0:0:0:0:
109,192,16132,1,0,0:0:0:0:
320,192,16175,1,0,0:0:0:0:
448,192,16175,1,0,0:0:0:0:
64,192,16175,1,0,0:0:0:0:
402,192,16175,1,0,0:0:0:0:
64,192,16520,1,0,0:0:0:0:
192,192,16520,1,0,0:0:0:0:
320,192,16520,1,0,0:0:0:0:
448,192,16520,1,0,0:0:0:0:
256,192,16520,1,0,0:0:0:0:
64,192,16865,1,0,0:0:0:0:
448,192,16865,1,0,0:0:0:0:
256,192,16865,1,0,0:0:0:0:
192,192,17037,1,0,0:0:0:0:
320,192,17037,1,0,0:0:0:0:
256,192,17037,1,0,0:0:0:0:
64,192,17210,128,0,22037:0:0:0:0:
192,192,17382,1,0,0:0:0:0:
448,192,17469,1,0,0:0:0:0:
320,192,17555,1,0,0:0:0:0:
192,192,17555,1,0,0:0:0:0:
256,192,17684,1,0,0:0:0:0:
192,192,17900,1,0,0:0:0:0:
448,192,17900,1,0,0:0:0:0:
320,192,17900,1,0,0:0:0:0:
402,192,17900,1,0,0:0:0:0:
109,192,17900,1,0,0:0:0:0:
192,192,18244,1,0,0:0:0:0:
448,192,18244,1,0,0:0:0:0:
256,192,18244,1,0,0:0:0:0:
320,192,18417,1,0,0:0:0:0:
192,192,18589,1,0,0:0:0:0:
320,192,18589,1,0,0:0:0:0:
448,192,18589,1,0,0:0:0:0:
402,192,18589,1,0,0:0:0:0:
109,192,18589,1,0,0:0:0:0:
192,192,18934,1,0,0:0:0:0:
320,192,18934,1,0,0:0:0:0:
448,192,18934,1,0,0:0:0:0:
256,192,18934,1,0,0:0:0:0:
448,192,19279,1,0,0:0:0:0:
320,192,19279,1,0,0:0:0:0:
192,192,19279,1,0,0:0:0:0:
402,192,19279,1,0,0:0:0:0:
109,192,19279,1,0,0:0:0:0:
320,192,19624,1,0,0:0:0:0:
448,192,19624,1,0,0:0:0:0:
402,192,19624,1,0,0:0:0:0:
320,192,19796,1,0,0:0:0:0:
192,192,19796,1,0,0:0:0:0:
256,192,19796,1,0,0:0:0:0:
192,192,19969,1,0,0:0:0:0:
320,192,19969,1,0,0:0:0:0:
448,192,19969,1,0,0:0:0:0:
402,192,19969,1,0,0:0:0:0:
109,192,19969,1,0,0:0:0:0:
320,192,20313,1,0,0:0:0:0:
448,192,20313,1,0,0:0:0:0:
192,192,20313,1,0,0:0:0:0:
256,192,20313,1,0,0:0:0:0:
402,192,20313,1,0,0:0:0:0:
320,192,20658,1,0,0:0:0:0:
448,192,20658,1,0,0:0:0:0:
192,192,20658,1,0,0:0:0:0:
402,192,20658,1,0,0:0:0:0:
109,192,20658,1,0,0:0:0:0:
320,192,20831,1,0,0:0:0:0:
448,192,20831,1,0,0:0:0:0:
402,192,20831,1,0,0:0:0:0:
192,192,21003,1,0,0:0:0:0:
320,192,21003,1,0,0:0:0:0:
448,192,21003,1,0,0:0:0:0:
256,192,21003,1,0,0:0:0:0:
320,192,21175,1,0,0:0:0:0:
192,192,21175,1,0,0:0:0:0:
402,192,21175,1,0,0:0:0:0:
109,192,21219,1,0,0:0:0:0:
402,192,21305,1,0,0:0:0:0:
192,192,21348,1,0,0:0:0:0:
320,192,21348,1,0,0:0:0:0:
448,192,21348,1,0,0:0:0:0:
256,192,21348,1,0,0:0:0:0:
448,192,21520,1,0,0:0:0:0:
320,192,21520,1,0,0:0:0:0:
402,192,21520,1,0,0:0:0:0:
192,192,21693,1,0,0:0:0:0:
320,192,21693,1,0,0:0:0:0:
448,192,21693,1,0,0:0:0:0:
256,192,21693,1,0,0:0:0:0:
320,192,21865,1,0,0:0:0:0:
192,192,21865,1,0,0:0:0:0:
256,192,21865,1,0,0:0:0:0:
320,192,21951,1,0,0:0:0:0:
448,192,21951,1,0,0:0:0:0:
402,192,21951,1,0,0:0:0:0:
192,192,22037,1,0,0:0:0:0:
448,192,22037,128,0,22124:0:0:0:0:
109,192,22037,1,0,0:0:0:0:
256,192,22081,1,0,0:0:0:0:
448,192,22210,128,0,22296:0:0:0:0:
320,192,22210,1,0,0:0:0:0:
64,192,22296,1,0,0:0:0:0:
182,192,22296,1,0,0:0:0:0:
448,192,22382,128,0,22469:0:0:0:0:
320,192,22382,1,0,0:0:0:0:
64,192,22469,1,0,0:0:0:0:
256,192,22469,1,0,0:0:0:0:
448,192,22555,128,0,22641:0:0:0:0:
320,192,22555,1,0,0:0:0:0:
64,192,22641,1,0,0:0:0:0:
256,192,22641,1,0,0:0:0:0:
448,192,22727,128,0,22813:0:0:0:0:
320,192,22727,1,0,0:0:0:0:
192,192,22727,1,0,0:0:0:0:
109,192,22813,1,0,0:0:0:0:
448,192,22900,128,0,22986:0:0:0:0:
192,192,22900,1,0,0:0:0:0:
320,192,22986,128,0,23072:0:0:0:0:
64,192,22986,1,0,0:0:0:0:
402,192,22986,1,0,0:0:0:0:
448,192,23072,128,0,23158:0:0:0:0:
192,192,23072,1,0,0:0:0:0:
256,192,23158,1,0,0:0:0:0:
448,192,23244,128,0,23331:0:0:0:0:
109,192,23244,1,0,0:0:0:0:
320,192,23417,128,0,23589:0:0:0:0:
192,192,23417,1,0,0:0:0:0:
64,192,23417,1,0,0:0:0:0:
448,192,23417,128,0,23589:0:0:0:0:
256,192,23417,1,0,0:0:0:0:
402,192,23417,1,0,0:0:0:0:
192,192,23589,128,0,23675:0:0:0:0:
256,192,23589,128,0,24106:0:0:0:0:
109,192,23589,1,0,0:0:0:0:
402,192,23589,1,0,0:0:0:0:
192,192,23762,128,0,23934:0:0:0:0:
64,192,23934,128,0,24020:0:0:0:0:
192,192,24020,128,0,24106:0:0:0:0:
320,192,24106,128,0,24279:0:0:0:0:
64,192,24279,128,0,24451:0:0:0:0:
256,192,24279,128,0,24451:0:0:0:0:
475,192,24279,1,0,0:0:0:0:
109,192,24451,128,0,24710:0:0:0:0:
448,192,24451,1,0,0:0:0:0:
320,192,24451,128,0,24796:0:0:0:0:
402,192,24537,128,0,25141:0:0:0:0:
182,192,24537,1,0,0:0:0:0:
64,192,24710,128,0,25141:0:0:0:0:
448,192,24796,128,0,24969:0:0:0:0:
256,192,24969,1,0,0:0:0:0:
320,192,24969,1,0,0:0:0:0:
320,192,25141,128,0,25313:0:0:0:0:
64,192,25313,128,0,25400:0:0:0:0:
192,192,25400,128,0,25486:0:0:0:0:
320,192,25486,128,0,25658:0:0:0:0:
109,192,25486,1,0,0:0:0:0:
192,192,25658,128,0,25831:0:0:0:0:
256,192,25658,1,0,0:0:0:0:
448,192,25831,128,0,25917:0:0:0:0:
320,192,25831,1,0,0:0:0:0:
64,192,25831,1,0,0:0:0:0:
402,192,25831,1,0,0:0:0:0:
320,192,25917,128,0,26003:0:0:0:0:
192,192,26003,128,0,26089:0:0:0:0:
64,192,26089,128,0,26175:0:0:0:0:
192,192,26175,1,0,0:0:0:0:
448,192,26175,1,0,0:0:0:0:
320,192,26175,128,0,26348:0:0:0:0:
109,192,26175,1,0,0:0:0:0:
192,192,26348,128,0,26434:0:0:0:0:
256,192,26348,1,0,0:0:0:0:
402,192,26520,1,0,0:0:0:0:
109,192,26520,128,0,26693:0:0:0:0:
256,192,26520,1,0,0:0:0:0:
64,192,26693,128,0,26779:0:0:0:0:
192,192,26779,128,0,26865:0:0:0:0:
320,192,26865,128,0,27037:0:0:0:0:
64,192,27037,128,0,27210:0:0:0:0:
109,192,27037,1,0,0:0:0:0:
402,192,27037,1,0,0:0:0:0:
448,192,27210,1,0,0:0:0:0:
320,192,27210,1,0,0:0:0:0:
192,192,27210,128,0,27296:0:0:0:0:
256,192,27210,1,0,0:0:0:0:
320,192,27296,128,0,27382:0:0:0:0:
192,192,27382,128,0,27469:0:0:0:0:
109,192,27425,1,0,0:0:0:0:
64,192,27469,128,0,27555:0:0:0:0:
448,192,27555,128,0,27727:0:0:0:0:
256,192,27555,1,0,0:0:0:0:
320,192,27727,128,0,27813:0:0:0:0:
402,192,27727,1,0,0:0:0:0:
109,192,27813,1,0,0:0:0:0:
320,192,27900,128,0,28072:0:0:0:0:
64,192,28072,128,0,28158:0:0:0:0:
256,192,28072,1,0,0:0:0:0:
192,192,28158,128,0,28244:0:0:0:0:
320,192,28244,128,0,28417:0:0:0:0:
448,192,28417,128,0,28589:0:0:0:0:
64,192,28589,1,0,0:0:0:0:
192,192,28589,1,0,0:0:0:0:
320,192,28589,1,0,0:0:0:0:
109,192,28589,1,0,0:0:0:0:
256,192,28589,1,0,0:0:0:0:
402,192,28589,1,0,0:0:0:0:
320,192,28934,1,0,0:0:0:0:
448,192,28934,1,0,0:0:0:0:
402,192,28934,1,0,0:0:0:0:
64,192,29106,1,0,0:0:0:0:
109,192,29193,1,0,0:0:0:0:
320,192,29279,1,0,0:0:0:0:
192,192,29279,1,0,0:0:0:0:
256,192,29279,1,0,0:0:0:0:
64,192,29451,1,0,0:0:0:0:
109,192,29494,1,0,0:0:0:0:
192,192,29537,1,0,0:0:0:0:
320,192,29624,1,0,0:0:0:0:
448,192,29624,1,0,0:0:0:0:
402,192,29624,1,0,0:0:0:0:
256,192,29710,1,0,0:0:0:0:
192,192,29796,1,0,0:0:0:0:
109,192,29882,1,0,0:0:0:0:
64,192,29969,1,0,0:0:0:0:
448,192,29969,1,0,0:0:0:0:
402,192,30012,1,0,0:0:0:0:
320,192,30055,1,0,0:0:0:0:
256,192,30098,1,0,0:0:0:0:
192,192,30141,1,0,0:0:0:0:
109,192,30184,1,0,0:0:0:0:
64,192,30227,1,0,0:0:0:0:
448,192,30313,1,0,0:0:0:0:
320,192,30313,1,0,0:0:0:0:
402,192,30313,1,0,0:0:0:0:
109,192,30486,1,0,0:0:0:0:
192,192,30658,1,0,0:0:0:0:
320,192,30658,1,0,0:0:0:0:
256,192,30658,1,0,0:0:0:0:
64,192,30831,1,0,0:0:0:0:
109,192,30874,1,0,0:0:0:0:
192,192,30917,1,0,0:0:0:0:
256,192,30960,1,0,0:0:0:0:
320,192,31003,1,0,0:0:0:0:
64,192,31003,1,0,0:0:0:0:
109,192,31089,1,0,0:0:0:0:
192,192,31175,1,0,0:0:0:0:
448,192,31348,1,0,0:0:0:0:
64,192,31348,1,0,0:0:0:0:
256,192,31348,1,0,0:0:0:0:
192,192,31434,1,0,0:0:0:0:
329,192,31434,1,0,0:0:0:0:
448,192,31520,1,0,0:0:0:0:
402,192,31563,1,0,0:0:0:0:
320,192,31606,1,0,0:0:0:0:
256,192,31650,1,0,0:0:0:0:
192,192,31693,1,0,0:0:0:0:
64,192,31693,1,0,0:0:0:0:
109,192,31693,1,0,0:0:0:0:
64,192,31865,1,0,0:0:0:0:
109,192,31951,1,0,0:0:0:0:
192,192,32037,1,0,0:0:0:0:
448,192,32037,1,0,0:0:0:0:
329,192,32037,1,0,0:0:0:0:
64,192,32210,1,0,0:0:0:0:
109,192,32253,1,0,0:0:0:0:
192,192,32296,1,0,0:0:0:0:
256,192,32339,1,0,0:0:0:0:
320,192,32382,1,0,0:0:0:0:
64,192,32382,1,0,0:0:0:0:
402,192,32382,1,0,0:0:0:0:
109,192,32469,1,0,0:0:0:0:
192,192,32555,1,0,0:0:0:0:
192,192,32727,1,0,0:0:0:0:
64,192,32727,1,0,0:0:0:0:
109,192,32727,1,0,0:0:0:0:
320,192,32813,1,0,0:0:0:0:
256,192,32856,1,0,0:0:0:0:
192,192,32900,1,0,0:0:0:0:
109,192,32943,1,0,0:0:0:0:
64,192,32986,1,0,0:0:0:0:
320,192,33072,1,0,0:0:0:0:
448,192,33072,1,0,0:0:0:0:
402,192,33072,1,0,0:0:0:0:
64,192,33244,1,0,0:0:0:0:
109,192,33331,1,0,0:0:0:0:
64,192,33417,1,0,0:0:0:0:
192,192,33417,1,0,0:0:0:0:
256,192,33417,1,0,0:0:0:0:
64,192,33589,1,0,0:0:0:0:
109,192,33632,1,0,0:0:0:0:
192,192,33675,1,0,0:0:0:0:
256,192,33719,1,0,0:0:0:0:
320,192,33762,1,0,0:0:0:0:
64,192,33762,1,0,0:0:0:0:
448,192,33934,1,0,0:0:0:0:
109,192,33934,1,0,0:0:0:0:
448,192,34106,1,0,0:0:0:0:
402,192,34135,1,0,0:0:0:0:
320,192,34150,1,0,0:0:0:0:
256,192,34164,1,0,0:0:0:0:
192,192,34193,1,0,0:0:0:0:
109,192,34221,1,0,0:0:0:0:
64,192,34236,1,0,0:0:0:0:
320,192,34279,1,0,0:0:0:0:
402,192,34308,1,0,0:0:0:0:
448,192,34322,1,0,0:0:0:0:
64,192,34365,1,0,0:0:0:0:
109,192,34394,1,0,0:0:0:0:
192,192,34408,1,0,0:0:0:0:
64,192,34451,1,0,0:0:0:0:
320,192,34451,1,0,0:0:0:0:
448,192,34451,1,0,0:0:0:0:
256,192,34451,1,0,0:0:0:0:
64,192,34624,1,0,0:0:0:0:
109,192,34710,1,0,0:0:0:0:
192,192,34796,1,0,0:0:0:0:
64,192,34796,1,0,0:0:0:0:
256,192,34796,1,0,0:0:0:0:
448,192,34969,1,0,0:0:0:0:
402,192,35012,1,0,0:0:0:0:
320,192,35055,1,0,0:0:0:0:
256,192,35098,1,0,0:0:0:0:
192,192,35141,1,0,0:0:0:0:
64,192,35141,1,0,0:0:0:0:
448,192,35141,1,0,0:0:0:0:
109,192,35141,1,0,0:0:0:0:
402,192,35227,1,0,0:0:0:0:
320,192,35313,1,0,0:0:0:0:
64,192,35486,1,0,0:0:0:0:
320,192,35486,1,0,0:0:0:0:
402,192,35486,1,0,0:0:0:0:
109,192,35529,1,0,0:0:0:0:
192,192,35572,1,0,0:0:0:0:
256,192,35615,1,0,0:0:0:0:
320,192,35658,1,0,0:0:0:0:
402,192,35701,1,0,0:0:0:0:
448,192,35744,1,0,0:0:0:0:
64,192,35831,1,0,0:0:0:0:
192,192,35831,1,0,0:0:0:0:
320,192,35831,1,0,0:0:0:0:
256,192,35831,1,0,0:0:0:0:
109,192,35831,1,0,0:0:0:0:
402,192,36003,1,0,0:0:0:0:
320,192,36175,1,0,0:0:0:0:
192,192,36175,1,0,0:0:0:0:
256,192,36175,1,0,0:0:0:0:
448,192,36348,1,0,0:0:0:0:
402,192,36391,1,0,0:0:0:0:
320,192,36434,1,0,0:0:0:0:
256,192,36477,1,0,0:0:0:0:
192,192,36520,1,0,0:0:0:0:
448,192,36520,1,0,0:0:0:0:
64,192,36520,1,0,0:0:0:0:
109,192,36520,1,0,0:0:0:0:
320,192,36693,1,0,0:0:0:0:
402,192,36779,1,0,0:0:0:0:
64,192,36865,1,0,0:0:0:0:
448,192,36865,1,0,0:0:0:0:
256,192,36865,1,0,0:0:0:0:
320,192,36951,1,0,0:0:0:0:
64,192,37037,1,0,0:0:0:0:
256,192,37037,1,0,0:0:0:0:
192,192,37124,1,0,0:0:0:0:
402,192,37124,1,0,0:0:0:0:
320,192,37210,1,0,0:0:0:0:
448,192,37210,1,0,0:0:0:0:
64,192,37210,1,0,0:0:0:0:
448,192,37382,1,0,0:0:0:0:
256,192,37382,1,0,0:0:0:0:
320,192,37555,1,0,0:0:0:0:
64,192,37555,1,0,0:0:0:0:
109,192,37555,1,0,0:0:0:0:
448,192,37727,1,0,0:0:0:0:
402,192,37770,1,0,0:0:0:0:
320,192,37813,1,0,0:0:0:0:
256,192,37856,1,0,0:0:0:0:
192,192,37900,1,0,0:0:0:0:
448,192,37900,1,0,0:0:0:0:
64,192,37900,1,0,0:0:0:0:
109,192,37900,1,0,0:0:0:0:
256,192,38072,1,0,0:0:0:0:
320,192,38244,1,0,0:0:0:0:
448,192,38244,1,0,0:0:0:0:
402,192,38244,1,0,0:0:0:0:
192,192,38331,1,0,0:0:0:0:
256,192,38374,1,0,0:0:0:0:
320,192,38417,1,0,0:0:0:0:
402,192,38460,1,0,0:0:0:0:
448,192,38503,1,0,0:0:0:0:
192,192,38589,1,0,0:0:0:0:
64,192,38589,1,0,0:0:0:0:
320,192,38589,1,0,0:0:0:0:
256,192,38589,1,0,0:0:0:0:
109,192,38589,1,0,0:0:0:0:
402,192,38762,1,0,0:0:0:0:
448,192,38934,1,0,0:0:0:0:
320,192,38934,1,0,0:0:0:0:
448,192,39106,1,0,0:0:0:0:
402,192,39150,1,0,0:0:0:0:
320,192,39193,1,0,0:0:0:0:
256,192,39236,1,0,0:0:0:0:
192,192,39279,1,0,0:0:0:0:
448,192,39279,1,0,0:0:0:0:
64,192,39279,1,0,0:0:0:0:
109,192,39279,1,0,0:0:0:0:
402,192,39451,1,0,0:0:0:0:
109,192,39451,1,0,0:0:0:0:
64,192,39624,1,0,0:0:0:0:
192,192,39624,1,0,0:0:0:0:
320,192,39624,1,0,0:0:0:0:
448,192,39624,1,0,0:0:0:0:
256,192,39624,1,0,0:0:0:0:
320,192,39969,1,0,0:0:0:0:
448,192,39969,1,0,0:0:0:0:
402,192,39969,1,0,0:0:0:0:
64,192,40141,1,0,0:0:0:0:
109,192,40227,1,0,0:0:0:0:
320,192,40313,1,0,0:0:0:0:
448,192,40313,1,0,0:0:0:0:
192,192,40313,1,0,0:0:0:0:
256,192,40313,1,0,0:0:0:0:
402,192,40313,1,0,0:0:0:0:
64,192,40486,1,0,0:0:0:0:
192,192,40572,1,0,0:0:0:0:
320,192,40658,1,0,0:0:0:0:
448,192,40658,1,0,0:0:0:0:
256,192,40658,1,0,0:0:0:0:
402,192,40658,1,0,0:0:0:0:
109,192,40831,1,0,0:0:0:0:
448,192,41003,1,0,0:0:0:0:
64,192,41003,1,0,0:0:0:0:
192,192,41003,1,0,0:0:0:0:
402,192,41046,1,0,0:0:0:0:
320,192,41089,1,0,0:0:0:0:
256,192,41132,1,0,0:0:0:0:
192,192,41175,1,0,0:0:0:0:
109,192,41219,1,0,0:0:0:0:
64,192,41262,1,0,0:0:0:0:
448,192,41348,1,0,0:0:0:0:
320,192,41348,1,0,0:0:0:0:
402,192,41348,1,0,0:0:0:0:
109,192,41520,1,0,0:0:0:0:
192,192,41693,1,0,0:0:0:0:
320,192,41693,1,0,0:0:0:0:
448,192,41693,1,0,0:0:0:0:
256,192,41693,1,0,0:0:0:0:
64,192,41865,1,0,0:0:0:0:
109,192,41908,1,0,0:0:0:0:
192,192,41951,1,0,0:0:0:0:
256,192,41994,1,0,0:0:0:0:
320,192,42037,1,0,0:0:0:0:
64,192,42037,1,0,0:0:0:0:
402,192,42037,1,0,0:0:0:0:
192,192,42210,1,0,0:0:0:0:
448,192,42210,1,0,0:0:0:0:
256,192,42210,1,0,0:0:0:0:
64,192,42382,1,0,0:0:0:0:
320,192,42382,1,0,0:0:0:0:
402,192,42382,1,0,0:0:0:0:
109,192,42425,1,0,0:0:0:0:
192,192,42469,1,0,0:0:0:0:
448,192,42555,1,0,0:0:0:0:
64,192,42555,1,0,0:0:0:0:
402,192,42598,1,0,0:0:0:0:
320,192,42641,1,0,0:0:0:0:
256,192,42684,1,0,0:0:0:0:
192,192,42727,1,0,0:0:0:0:
64,192,42727,1,0,0:0:0:0:
109,192,42727,1,0,0:0:0:0:
320,192,42813,1,0,0:0:0:0:
448,192,42813,1,0,0:0:0:0:
402,192,42813,1,0,0:0:0:0:
192,192,42900,1,0,0:0:0:0:
64,192,42900,1,0,0:0:0:0:
109,192,42900,1,0,0:0:0:0:
320,192,42986,1,0,0:0:0:0:
448,192,42986,1,0,0:0:0:0:
402,192,42986,1,0,0:0:0:0:
64,192,43072,1,0,0:0:0:0:
192,192,43072,1,0,0:0:0:0:
109,192,43072,1,0,0:0:0:0:
448,192,43158,1,0,0:0:0:0:
320,192,43158,1,0,0:0:0:0:
402,192,43158,1,0,0:0:0:0:
64,192,43244,1,0,0:0:0:0:
192,192,43244,1,0,0:0:0:0:
109,192,43244,1,0,0:0:0:0:
448,192,43331,1,0,0:0:0:0:
320,192,43331,1,0,0:0:0:0:
402,192,43331,1,0,0:0:0:0:
64,192,43417,1,0,0:0:0:0:
320,192,43417,1,0,0:0:0:0:
256,192,43417,1,0,0:0:0:0:
109,192,43460,1,0,0:0:0:0:
448,192,43503,1,0,0:0:0:0:
192,192,43503,1,0,0:0:0:0:
256,192,43546,1,0,0:0:0:0:
402,192,43546,1,0,0:0:0:0:
64,192,43589,1,0,0:0:0:0:
320,192,43589,1,0,0:0:0:0:
256,192,43632,1,0,0:0:0:0:
109,192,43632,1,0,0:0:0:0:
448,192,43675,1,0,0:0:0:0:
192,192,43675,1,0,0:0:0:0:
109,192,43719,1,0,0:0:0:0:
402,192,43719,1,0,0:0:0:0:
320,192,43762,1,0,0:0:0:0:
64,192,43762,1,0,0:0:0:0:
256,192,43805,1,0,0:0:0:0:
192,192,43848,1,0,0:0:0:0:
448,192,43848,1,0,0:0:0:0:
109,192,43891,1,0,0:0:0:0:
402,192,43891,1,0,0:0:0:0:
64,192,43934,1,0,0:0:0:0:
320,192,43934,1,0,0:0:0:0:
256,192,43977,1,0,0:0:0:0:
192,192,44020,1,0,0:0:0:0:
448,192,44020,1,0,0:0:0:0:
109,192,44063,1,0,0:0:0:0:
402,192,44063,1,0,0:0:0:0:
320,192,44106,1,0,0:0:0:0:
64,192,44106,1,0,0:0:0:0:
448,192,44106,128,0,44193:0:0:0:0:
448,192,44279,128,0,44365:0:0:0:0:
256,192,44279,1,0,0:0:0:0:
448,192,44451,1,0,0:0:0:0:
329,192,44494,1,0,0:0:0:0:
192,192,44537,1,0,0:0:0:0:
448,192,44624,1,0,0:0:0:0:
402,192,44667,1,0,0:0:0:0:
320,192,44710,1,0,0:0:0:0:
256,192,44753,1,0,0:0:0:0:
192,192,44796,128,0,44882:0:0:0:0:
64,192,44796,1,0,0:0:0:0:
64,192,44969,128,0,45055:0:0:0:0:
320,192,44969,1,0,0:0:0:0:
256,192,45055,1,0,0:0:0:0:
192,192,45141,128,0,45227:0:0:0:0:
448,192,45141,1,0,0:0:0:0:
109,192,45227,1,0,0:0:0:0:
64,192,45313,128,0,45400:0:0:0:0:
320,192,45313,1,0,0:0:0:0:
64,192,45486,1,0,0:0:0:0:
448,192,45486,1,0,0:0:0:0:
320,192,45486,1,0,0:0:0:0:
192,192,45486,128,0,46175:0:0:0:0:
256,192,45486,1,0,0:0:0:0:
448,192,46175,128,0,46348:0:0:0:0:
320,192,46175,1,0,0:0:0:0:
256,192,46175,1,0,0:0:0:0:
320,192,46348,128,0,46434:0:0:0:0:
402,192,46348,1,0,0:0:0:0:
448,192,46434,128,0,46520:0:0:0:0:
192,192,46520,128,0,46693:0:0:0:0:
64,192,46520,1,0,0:0:0:0:
109,192,46520,1,0,0:0:0:0:
64,192,46693,128,0,46779:0:0:0:0:
256,192,46693,1,0,0:0:0:0:
320,192,46779,128,0,46865:0:0:0:0:
192,192,46865,1,0,0:0:0:0:
402,192,46865,1,0,0:0:0:0:
448,192,46951,128,0,47037:0:0:0:0:
64,192,47037,128,0,47124:0:0:0:0:
320,192,47124,128,0,47210:0:0:0:0:
256,192,47124,1,0,0:0:0:0:
192,192,47210,128,0,47555:0:0:0:0:
448,192,47210,1,0,0:0:0:0:
109,192,47210,1,0,0:0:0:0:
64,192,47555,128,0,47900:0:0:0:0:
320,192,47555,1,0,0:0:0:0:
448,192,47555,1,0,0:0:0:0:
402,192,47555,1,0,0:0:0:0:
448,192,47727,1,0,0:0:0:0:
256,192,47900,1,0,0:0:0:0:
448,192,47900,128,0,48244:0:0:0:0:
320,192,47900,1,0,0:0:0:0:
192,192,47900,1,0,0:0:0:0:
192,192,48244,1,0,0:0:0:0:
64,192,48244,1,0,0:0:0:0:
109,192,48244,1,0,0:0:0:0:
320,192,48331,1,0,0:0:0:0:
256,192,48417,1,0,0:0:0:0:
320,192,48503,1,0,0:0:0:0:
192,192,48589,1,0,0:0:0:0:
448,192,48589,1,0,0:0:0:0:
64,192,48589,1,0,0:0:0:0:
109,192,48589,1,0,0:0:0:0:
448,192,48762,1,0,0:0:0:0:
256,192,48762,1,0,0:0:0:0:
320,192,48934,1,0,0:0:0:0:
64,192,48934,1,0,0:0:0:0:
448,192,48934,1,0,0:0:0:0:
402,192,48934,1,0,0:0:0:0:
192,192,49020,1,0,0:0:0:0:
320,192,49193,1,0,0:0:0:0:
64,192,49193,1,0,0:0:0:0:
192,192,49193,1,0,0:0:0:0:
256,192,49193,1,0,0:0:0:0:
448,192,49279,1,0,0:0:0:0:
192,192,49279,1,0,0:0:0:0:
402,192,49322,1,0,0:0:0:0:
320,192,49365,1,0,0:0:0:0:
64,192,49451,1,0,0:0:0:0:
256,192,49451,1,0,0:0:0:0:
448,192,49537,1,0,0:0:0:0:
320,192,49624,1,0,0:0:0:0:
192,192,49624,1,0,0:0:0:0:
64,192,49624,128,0,49969:0:0:0:0:
256,192,49624,1,0,0:0:0:0:
192,192,49969,128,0,50141:0:0:0:0:
109,192,49969,1,0,0:0:0:0:
402,192,49969,1,0,0:0:0:0:
448,192,50141,128,0,50313:0:0:0:0:
64,192,50313,1,0,0:0:0:0:
320,192,50313,1,0,0:0:0:0:
256,192,50356,1,0,0:0:0:0:
192,192,50400,1,0,0:0:0:0:
109,192,50443,1,0,0:0:0:0:
64,192,50486,1,0,0:0:0:0:
320,192,50486,1,0,0:0:0:0:
256,192,50529,1,0,0:0:0:0:
192,192,50572,1,0,0:0:0:0:
109,192,50615,1,0,0:0:0:0:
320,192,50658,128,0,51003:0:0:0:0:
448,192,50658,1,0,0:0:0:0:
64,192,50658,1,0,0:0:0:0:
402,192,50658,1,0,0:0:0:0:
64,192,51003,1,0,0:0:0:0:
192,192,51003,1,0,0:0:0:0:
448,192,51003,128,0,51175:0:0:0:0:
109,192,51003,1,0,0:0:0:0:
256,192,51003,1,0,0:0:0:0:
320,192,51175,128,0,51262:0:0:0:0:
256,192,51175,1,0,0:0:0:0:
192,192,51262,128,0,51348:0:0:0:0:
109,192,51262,1,0,0:0:0:0:
448,192,51348,128,0,51520:0:0:0:0:
64,192,51348,1,0,0:0:0:0:
320,192,51348,1,0,0:0:0:0:
192,192,51520,128,0,51693:0:0:0:0:
256,192,51520,1,0,0:0:0:0:
320,192,51693,128,0,51865:0:0:0:0:
402,192,51693,1,0,0:0:0:0:
192,192,51865,128,0,51951:0:0:0:0:
64,192,51865,1,0,0:0:0:0:
256,192,51865,1,0,0:0:0:0:
320,192,51951,128,0,52037:0:0:0:0:
448,192,52037,1,0,0:0:0:0:
320,192,52124,128,0,52210:0:0:0:0:
109,192,52124,1,0,0:0:0:0:
192,192,52210,128,0,52296:0:0:0:0:
256,192,52210,1,0,0:0:0:0:
448,192,52296,128,0,52382:0:0:0:0:
402,192,52296,1,0,0:0:0:0:
64,192,52382,1,0,0:0:0:0:
320,192,52469,128,0,52555:0:0:0:0:
256,192,52469,1,0,0:0:0:0:
192,192,52555,128,0,52641:0:0:0:0:
109,192,52555,1,0,0:0:0:0:
64,192,52641,128,0,52727:0:0:0:0:
448,192,52727,1,0,0:0:0:0:
320,192,52727,1,0,0:0:0:0:
256,192,52727,1,0,0:0:0:0:
192,192,52813,128,0,52986:0:0:0:0:
320,192,53072,1,0,0:0:0:0:
448,192,53072,1,0,0:0:0:0:
64,192,53072,128,0,53417:0:0:0:0:
109,192,53072,1,0,0:0:0:0:
402,192,53244,1,0,0:0:0:0:
182,192,53244,1,0,0:0:0:0:
448,192,53417,128,0,53762:0:0:0:0:
192,192,53417,1,0,0:0:0:0:
320,192,53417,1,0,0:0:0:0:
256,192,53417,1,0,0:0:0:0:
320,192,53762,128,0,54106:0:0:0:0:
192,192,53762,1,0,0:0:0:0:
64,192,53762,1,0,0:0:0:0:
256,192,53762,1,0,0:0:0:0:
109,192,53762,1,0,0:0:0:0:
192,192,54106,128,0,54193:0:0:0:0:
448,192,54106,1,0,0:0:0:0:
256,192,54106,1,0,0:0:0:0:
64,192,54193,128,0,54279:0:0:0:0:
109,192,54193,1,0,0:0:0:0:
192,192,54279,128,0,54451:0:0:0:0:
64,192,54451,1,0,0:0:0:0:
320,192,54451,1,0,0:0:0:0:
448,192,54451,1,0,0:0:0:0:
256,192,54451,1,0,0:0:0:0:
402,192,54451,1,0,0:0:0:0:
192,192,54624,1,0,0:0:0:0:
320,192,54624,1,0,0:0:0:0:
256,192,54624,1,0,0:0:0:0:
64,192,54796,1,0,0:0:0:0:
192,192,54796,1,0,0:0:0:0:
109,192,54796,1,0,0:0:0:0:
64,192,54882,1,0,0:0:0:0:
192,192,54969,1,0,0:0:0:0:
320,192,54969,1,0,0:0:0:0:
448,192,54969,1,0,0:0:0:0:
256,192,54969,1,0,0:0:0:0:
402,192,54969,1,0,0:0:0:0:
320,192,55141,1,0,0:0:0:0:
64,192,55141,1,0,0:0:0:0:
256,192,55184,1,0,0:0:0:0:
192,192,55256,1,0,0:0:0:0:
256,192,55356,1,0,0:0:0:0:
448,192,55371,1,0,0:0:0:0:
320,192,55486,1,0,0:0:0:0:
64,192,55486,1,0,0:0:0:0:
109,192,55529,1,0,0:0:0:0:
192,192,55601,1,0,0:0:0:0:
256,192,55701,1,0,0:0:0:0:
64,192,55716,1,0,0:0:0:0:
192,192,55831,1,0,0:0:0:0:
320,192,55831,1,0,0:0:0:0:
402,192,55831,1,0,0:0:0:0:
64,192,55946,1,0,0:0:0:0:
256,192,55960,1,0,0:0:0:0:
320,192,56060,1,0,0:0:0:0:
64,192,56175,1,0,0:0:0:0:
448,192,56175,1,0,0:0:0:0:
182,192,56175,1,0,0:0:0:0:
109,192,56175,1,0,0:0:0:0:
402,192,56233,1,0,0:0:0:0:
320,192,56290,1,0,0:0:0:0:
256,192,56348,1,0,0:0:0:0:
192,192,56405,1,0,0:0:0:0:
109,192,56463,1,0,0:0:0:0:
64,192,56520,1,0,0:0:0:0:
320,192,56520,1,0,0:0:0:0:
448,192,56520,128,0,57210:0:0:0:0:
402,192,56520,1,0,0:0:0:0:
192,192,57210,1,0,0:0:0:0:
64,192,57210,128,0,57900:0:0:0:0:
320,192,57210,128,0,57900:0:0:0:0:
256,192,57210,1,0,0:0:0:0:
448,192,57900,128,0,58072:0:0:0:0:
192,192,57900,1,0,0:0:0:0:
402,192,57900,1,0,0:0:0:0:
320,192,58072,128,0,58158:0:0:0:0:
256,192,58072,1,0,0:0:0:0:
448,192,58158,128,0,58244:0:0:0:0:
192,192,58244,128,0,58417:0:0:0:0:
64,192,58244,1,0,0:0:0:0:
109,192,58244,1,0,0:0:0:0:
64,192,58417,128,0,58503:0:0:0:0:
256,192,58417,1,0,0:0:0:0:
320,192,58503,128,0,58589:0:0:0:0:
402,192,58503,1,0,0:0:0:0:
192,192,58589,1,0,0:0:0:0:
448,192,58589,128,0,58934:0:0:0:0:
192,192,58762,1,0,0:0:0:0:
64,192,58762,1,0,0:0:0:0:
109,192,58762,1,0,0:0:0:0:
192,192,58934,128,0,59279:0:0:0:0:
320,192,58934,1,0,0:0:0:0:
64,192,58934,1,0,0:0:0:0:
256,192,58934,1,0,0:0:0:0:
64,192,59279,128,0,59624:0:0:0:0:
320,192,59279,1,0,0:0:0:0:
448,192,59279,1,0,0:0:0:0:
402,192,59279,1,0,0:0:0:0:
448,192,59451,1,0,0:0:0:0:
256,192,59451,1,0,0:0:0:0:
448,192,59624,128,0,59969:0:0:0:0:
320,192,59624,1,0,0:0:0:0:
192,192,59624,1,0,0:0:0:0:
109,192,59624,1,0,0:0:0:0:
256,192,59796,1,0,0:0:0:0:
192,192,59969,1,0,0:0:0:0:
64,192,59969,1,0,0:0:0:0:
109,192,59969,1,0,0:0:0:0:
256,192,60055,1,0,0:0:0:0:
320,192,60227,1,0,0:0:0:0:
192,192,60313,1,0,0:0:0:0:
448,192,60313,1,0,0:0:0:0:
64,192,60313,1,0,0:0:0:0:
402,192,60313,1,0,0:0:0:0:
448,192,60486,1,0,0:0:0:0:
109,192,60486,1,0,0:0:0:0:
320,192,60658,1,0,0:0:0:0:
64,192,60658,1,0,0:0:0:0:
448,192,60658,1,0,0:0:0:0:
256,192,60658,1,0,0:0:0:0:
109,192,60701,1,0,0:0:0:0:
192,192,60744,1,0,0:0:0:0:
64,192,60917,1,0,0:0:0:0:
320,192,60917,1,0,0:0:0:0:
402,192,60960,1,0,0:0:0:0:
448,192,61003,1,0,0:0:0:0:
192,192,61003,1,0,0:0:0:0:
320,192,61089,1,0,0:0:0:0:
64,192,61175,1,0,0:0:0:0:
256,192,61175,1,0,0:0:0:0:
329,192,61175,1,0,0:0:0:0:
448,192,61262,1,0,0:0:0:0:
402,192,61305,1,0,0:0:0:0:
320,192,61348,1,0,0:0:0:0:
192,192,61348,1,0,0:0:0:0:
256,192,61348,1,0,0:0:0:0:
109,192,61391,1,0,0:0:0:0:
448,192,61434,1,0,0:0:0:0:
36,192,61434,1,0,0:0:0:0:
402,192,61477,1,0,0:0:0:0:
320,192,61520,1,0,0:0:0:0:
192,192,61520,1,0,0:0:0:0:
256,192,61520,1,0,0:0:0:0:
109,192,61563,1,0,0:0:0:0:
64,192,61606,1,0,0:0:0:0:
320,192,61693,1,0,0:0:0:0:
192,192,61693,128,0,62037:0:0:0:0:
448,192,61693,1,0,0:0:0:0:
402,192,61693,1,0,0:0:0:0:
320,192,62037,128,0,62210:0:0:0:0:
64,192,62037,128,0,62210:0:0:0:0:
256,192,62037,1,0,0:0:0:0:
192,192,62210,1,0,0:0:0:0:
448,192,62210,1,0,0:0:0:0:
109,192,62210,1,0,0:0:0:0:
256,192,62253,1,0,0:0:0:0:
64,192,62296,1,0,0:0:0:0:
320,192,62296,1,0,0:0:0:0:
402,192,62339,1,0,0:0:0:0:
448,192,62382,1,0,0:0:0:0:
192,192,62382,1,0,0:0:0:0:
320,192,62382,128,0,62727:0:0:0:0:
109,192,62382,1,0,0:0:0:0:
64,192,62727,1,0,0:0:0:0:
192,192,62727,1,0,0:0:0:0:
448,192,62727,128,0,62900:0:0:0:0:
256,192,62727,1,0,0:0:0:0:
320,192,62900,128,0,62986:0:0:0:0:
402,192,62900,1,0,0:0:0:0:
192,192,62986,128,0,63072:0:0:0:0:
256,192,62986,1,0,0:0:0:0:
448,192,63072,128,0,63244:0:0:0:0:
64,192,63072,1,0,0:0:0:0:
320,192,63072,1,0,0:0:0:0:
109,192,63072,1,0,0:0:0:0:
192,192,63244,128,0,63331:0:0:0:0:
256,192,63244,1,0,0:0:0:0:
64,192,63331,128,0,63417:0:0:0:0:
448,192,63417,1,0,0:0:0:0:
192,192,63417,1,0,0:0:0:0:
402,192,63417,1,0,0:0:0:0:
320,192,63503,128,0,63589:0:0:0:0:
192,192,63589,128,0,63675:0:0:0:0:
64,192,63589,1,0,0:0:0:0:
256,192,63589,1,0,0:0:0:0:
320,192,63675,128,0,63762:0:0:0:0:
109,192,63675,1,0,0:0:0:0:
448,192,63762,1,0,0:0:0:0:
64,192,63762,1,0,0:0:0:0:
256,192,63762,1,0,0:0:0:0:
192,192,63848,128,0,64106:0:0:0:0:
402,192,63848,1,0,0:0:0:0:
64,192,64106,1,0,0:0:0:0:
448,192,64106,1,0,0:0:0:0:
256,192,64106,1,0,0:0:0:0:
320,192,64193,128,0,64451:0:0:0:0:
192,192,64279,1,0,0:0:0:0:
64,192,64279,1,0,0:0:0:0:
109,192,64279,1,0,0:0:0:0:
448,192,64451,1,0,0:0:0:0:
64,192,64451,1,0,0:0:0:0:
256,192,64451,1,0,0:0:0:0:
192,192,64537,128,0,64796:0:0:0:0:
402,192,64537,1,0,0:0:0:0:
320,192,64796,1,0,0:0:0:0:
64,192,64796,1,0,0:0:0:0:
256,192,64796,1,0,0:0:0:0:
192,192,64911,1,0,0:0:0:0:
448,192,65026,1,0,0:0:0:0:
109,192,65026,1,0,0:0:0:0:
402,192,65083,1,0,0:0:0:0:
320,192,65141,1,0,0:0:0:0:
64,192,65141,1,0,0:0:0:0:
109,192,65198,1,0,0:0:0:0:
192,192,65256,1,0,0:0:0:0:
64,192,65371,1,0,0:0:0:0:
256,192,65371,1,0,0:0:0:0:
192,192,65486,1,0,0:0:0:0:
320,192,65486,1,0,0:0:0:0:
402,192,65486,1,0,0:0:0:0:
64,192,65601,1,0,0:0:0:0:
256,192,65601,1,0,0:0:0:0:
320,192,65716,1,0,0:0:0:0:
402,192,65773,1,0,0:0:0:0:
64,192,65831,1,0,0:0:0:0:
448,192,65831,1,0,0:0:0:0:
256,192,65831,1,0,0:0:0:0:
320,192,65946,1,0,0:0:0:0:
109,192,65946,1,0,0:0:0:0:
192,192,66060,1,0,0:0:0:0:
64,192,66175,1,0,0:0:0:0:
320,192,66175,1,0,0:0:0:0:
448,192,66175,128,0,66262:0:0:0:0:
256,192,66175,1,0,0:0:0:0:
448,192,66348,128,0,66434:0:0:0:0:
109,192,66348,1,0,0:0:0:0:
320,192,66434,128,0,66520:0:0:0:0:
192,192,66520,1,0,0:0:0:0:
64,192,66693,1,0,0:0:0:0:
448,192,66693,128,0,66779:0:0:0:0:
256,192,66693,1,0,0:0:0:0:
402,192,66693,1,0,0:0:0:0:
109,192,66779,1,0,0:0:0:0:
192,192,66865,1,0,0:0:0:0:
320,192,66951,128,0,67037:0:0:0:0:
402,192,66951,1,0,0:0:0:0:
448,192,67037,128,0,67124:0:0:0:0:
64,192,67037,1,0,0:0:0:0:
256,192,67037,1,0,0:0:0:0:
320,192,67124,128,0,67210:0:0:0:0:
109,192,67124,1,0,0:0:0:0:
448,192,67210,128,0,67296:0:0:0:0:
192,192,67210,1,0,0:0:0:0:
256,192,67296,1,0,0:0:0:0:
192,192,67555,1,0,0:0:0:0:
320,192,67555,1,0,0:0:0:0:
448,192,67555,1,0,0:0:0:0:
64,192,67555,1,0,0:0:0:0:
109,192,67555,1,0,0:0:0:0:
256,192,67555,1,0,0:0:0:0:
402,192,67555,1,0,0:0:0:0:
192,192,67900,1,0,0:0:0:0:
320,192,67900,1,0,0:0:0:0:
448,192,67900,1,0,0:0:0:0:
64,192,67900,1,0,0:0:0:0:
402,192,67900,1,0,0:0:0:0:
256,192,67900,1,0,0:0:0:0:
109,192,67900,1,0,0:0:0:0:
192,192,68244,1,0,0:0:0:0:
64,192,68244,1,0,0:0:0:0:
320,192,68244,1,0,0:0:0:0:
448,192,68244,1,0,0:0:0:0:
109,192,68244,1,0,0:0:0:0:
256,192,68244,1,0,0:0:0:0:
402,192,68244,1,0,0:0:0:0:
320,192,68417,128,0,68503:0:0:0:0:
402,192,68417,1,0,0:0:0:0:
192,192,68503,128,0,68589:0:0:0:0:
448,192,68503,1,0,0:0:0:0:
256,192,68503,1,0,0:0:0:0:
64,192,68589,128,0,68675:0:0:0:0:
109,192,68589,1,0,0:0:0:0:
448,192,68762,128,0,68848:0:0:0:0:
256,192,68762,1,0,0:0:0:0:
64,192,68934,1,0,0:0:0:0:
448,192,68934,1,0,0:0:0:0:
192,192,68934,128,0,74451:0:0:0:0:
320,192,68934,128,0,69969:0:0:0:0:
256,192,68934,1,0,0:0:0:0:
448,192,69624,1,0,0:0:0:0:
64,192,70313,1,0,0:0:0:0:
109,192,70831,1,0,0:0:0:0:
320,192,71003,1,0,0:0:0:0:
402,192,71348,1,0,0:0:0:0:
448,192,71693,1,0,0:0:0:0:
448,192,72727,1,0,0:0:0:0:
402,192,72871,1,0,0:0:0:0:
64,192,73072,1,0,0:0:0:0:
320,192,74451,1,0,0:0:0:0:
64,192,74451,1,0,0:0:0:0:
448,192,74624,1,0,0:0:0:0:
448,192,74796,1,0,0:0:0:0:
320,192,74969,1,0,0:0:0:0:
320,192,75141,1,0,0:0:0:0:
448,192,75313,1,0,0:0:0:0:
320,192,75486,1,0,0:0:0:0:
192,192,75486,1,0,0:0:0:0:
256,192,75486,1,0,0:0:0:0:
448,192,75658,1,0,0:0:0:0:
320,192,75658,1,0,0:0:0:0:
402,192,75658,1,0,0:0:0:0:
192,192,75831,1,0,0:0:0:0:
320,192,75831,1,0,0:0:0:0:
256,192,75831,1,0,0:0:0:0:
192,192,76003,1,0,0:0:0:0:
320,192,76175,1,0,0:0:0:0:
192,192,76348,1,0,0:0:0:0:
192,192,76520,1,0,0:0:0:0:
64,192,76520,1,0,0:0:0:0:
109,192,76520,1,0,0:0:0:0:
320,192,76693,1,0,0:0:0:0:
192,192,76865,1,0,0:0:0:0:
320,192,77037,1,0,0:0:0:0:
64,192,77210,1,0,0:0:0:0:
448,192,77210,1,0,0:0:0:0:
256,192,77210,1,0,0:0:0:0:
192,192,77382,1,0,0:0:0:0:
320,192,77555,1,0,0:0:0:0:
64,192,77727,1,0,0:0:0:0:
64,192,77900,1,0,0:0:0:0:
320,192,78072,1,0,0:0:0:0:
64,192,78244,1,0,0:0:0:0:
448,192,78244,1,0,0:0:0:0:
256,192,78244,1,0,0:0:0:0:
320,192,78417,1,0,0:0:0:0:
192,192,78417,1,0,0:0:0:0:
256,192,78417,1,0,0:0:0:0:
448,192,78589,1,0,0:0:0:0:
64,192,78589,1,0,0:0:0:0:
256,192,78589,1,0,0:0:0:0:
64,192,78762,1,0,0:0:0:0:
320,192,78934,1,0,0:0:0:0:
192,192,79106,1,0,0:0:0:0:
448,192,79279,1,0,0:0:0:0:
64,192,79279,1,0,0:0:0:0:
256,192,79279,1,0,0:0:0:0:
64,192,79451,1,0,0:0:0:0:
320,192,79624,1,0,0:0:0:0:
64,192,79796,1,0,0:0:0:0:
448,192,79969,1,0,0:0:0:0:
64,192,79969,1,0,0:0:0:0:
256,192,79969,1,0,0:0:0:0:
64,192,80141,1,0,0:0:0:0:
192,192,80313,1,0,0:0:0:0:
64,192,80486,1,0,0:0:0:0:
448,192,80658,1,0,0:0:0:0:
64,192,80658,1,0,0:0:0:0:
256,192,80658,1,0,0:0:0:0:
192,192,80831,1,0,0:0:0:0:
64,192,81003,1,0,0:0:0:0:
64,192,81175,1,0,0:0:0:0:
192,192,81175,1,0,0:0:0:0:
109,192,81175,1,0,0:0:0:0:
256,192,81219,1,0,0:0:0:0:
320,192,81262,1,0,0:0:0:0:
402,192,81305,1,0,0:0:0:0:
448,192,81348,1,0,0:0:0:0:
192,192,81348,1,0,0:0:0:0:
64,192,81520,1,0,0:0:0:0:
64,192,81693,1,0,0:0:0:0:
64,192,81865,1,0,0:0:0:0:
192,192,81865,1,0,0:0:0:0:
109,192,81865,1,0,0:0:0:0:
320,192,82037,1,0,0:0:0:0:
192,192,82037,1,0,0:0:0:0:
256,192,82037,1,0,0:0:0:0:
320,192,82210,1,0,0:0:0:0:
320,192,82382,1,0,0:0:0:0:
192,192,82382,1,0,0:0:0:0:
256,192,82382,1,0,0:0:0:0:
192,192,82555,1,0,0:0:0:0:
64,192,82727,1,0,0:0:0:0:
320,192,82727,1,0,0:0:0:0:
402,192,82727,1,0,0:0:0:0:
64,192,82900,1,0,0:0:0:0:
192,192,83072,1,0,0:0:0:0:
64,192,83244,1,0,0:0:0:0:
64,192,83417,1,0,0:0:0:0:
192,192,83589,1,0,0:0:0:0:
64,192,83762,1,0,0:0:0:0:
448,192,83762,1,0,0:0:0:0:
256,192,83762,1,0,0:0:0:0:
192,192,83934,1,0,0:0:0:0:
320,192,83934,1,0,0:0:0:0:
256,192,83934,1,0,0:0:0:0:
192,192,84106,1,0,0:0:0:0:
64,192,84106,1,0,0:0:0:0:
109,192,84106,1,0,0:0:0:0:
192,192,84279,1,0,0:0:0:0:
448,192,84451,1,0,0:0:0:0:
320,192,84624,1,0,0:0:0:0:
192,192,84796,1,0,0:0:0:0:
320,192,84796,1,0,0:0:0:0:
256,192,84796,1,0,0:0:0:0:
448,192,84969,1,0,0:0:0:0:
64,192,85141,1,0,0:0:0:0:
192,192,85141,1,0,0:0:0:0:
109,192,85141,1,0,0:0:0:0:
448,192,85313,1,0,0:0:0:0:
192,192,85486,1,0,0:0:0:0:
64,192,85486,128,0,88244:0:0:0:0:
320,192,85486,128,0,86348:0:0:0:0:
256,192,85486,1,0,0:0:0:0:
192,192,85831,1,0,0:0:0:0:
192,192,86175,1,0,0:0:0:0:
256,192,86348,1,0,0:0:0:0:
192,192,86520,1,0,0:0:0:0:
402,192,86520,128,0,86693:0:0:0:0:
448,192,86693,128,0,86865:0:0:0:0:
192,192,86865,1,0,0:0:0:0:
320,192,86865,128,0,87382:0:0:0:0:
192,192,87210,1,0,0:0:0:0:
320,192,87555,1,0,0:0:0:0:
256,192,87555,128,0,88244:0:0:0:0:
320,192,87900,1,0,0:0:0:0:
320,192,88244,1,0,0:0:0:0:
448,192,88244,128,0,88762:0:0:0:0:
64,192,88417,1,0,0:0:0:0:
109,192,88503,1,0,0:0:0:0:
192,192,88589,1,0,0:0:0:0:
256,192,88675,1,0,0:0:0:0:
320,192,88762,1,0,0:0:0:0:
448,192,88934,128,0,89279:0:0:0:0:
320,192,89279,128,0,89451:0:0:0:0:
192,192,89279,1,0,0:0:0:0:
64,192,89451,1,0,0:0:0:0:
192,192,89451,128,0,89624:0:0:0:0:
320,192,89624,128,0,90313:0:0:0:0:
256,192,89624,1,0,0:0:0:0:
64,192,89796,1,0,0:0:0:0:
192,192,89969,1,0,0:0:0:0:
448,192,90141,1,0,0:0:0:0:
64,192,90313,128,0,91003:0:0:0:0:
109,192,90313,1,0,0:0:0:0:
192,192,90486,1,0,0:0:0:0:
448,192,90658,1,0,0:0:0:0:
192,192,91003,128,0,91865:0:0:0:0:
256,192,91003,1,0,0:0:0:0:
64,192,91175,1,0,0:0:0:0:
320,192,91348,1,0,0:0:0:0:
402,192,91434,1,0,0:0:0:0:
448,192,91520,1,0,0:0:0:0:
320,192,91693,1,0,0:0:0:0:
448,192,91865,128,0,92382:0:0:0:0:
109,192,91865,1,0,0:0:0:0:
192,192,92037,1,0,0:0:0:0:
64,192,92210,1,0,0:0:0:0:
329,192,92210,1,0,0:0:0:0:
256,192,92296,1,0,0:0:0:0:
192,192,92382,128,0,93072:0:0:0:0:
320,192,92382,1,0,0:0:0:0:
64,192,92555,1,0,0:0:0:0:
320,192,92727,1,0,0:0:0:0:
109,192,92727,1,0,0:0:0:0:
448,192,92900,1,0,0:0:0:0:
256,192,92900,1,0,0:0:0:0:
320,192,93072,128,0,93762:0:0:0:0:
64,192,93244,1,0,0:0:0:0:
109,192,93331,1,0,0:0:0:0:
192,192,93417,1,0,0:0:0:0:
256,192,93589,1,0,0:0:0:0:
448,192,93762,128,0,94796:0:0:0:0:
192,192,93762,1,0,0:0:0:0:
64,192,93934,1,0,0:0:0:0:
256,192,93934,1,0,0:0:0:0:
192,192,94106,1,0,0:0:0:0:
402,192,94106,1,0,0:0:0:0:
320,192,94279,1,0,0:0:0:0:
256,192,94451,1,0,0:0:0:0:
109,192,94581,1,0,0:0:0:0:
192,192,94796,1,0,0:0:0:0:
64,192,94796,1,0,0:0:0:0:
402,192,94796,1,0,0:0:0:0:
256,192,94882,1,0,0:0:0:0:
320,192,94969,1,0,0:0:0:0:
64,192,94969,1,0,0:0:0:0:
402,192,95055,1,0,0:0:0:0:
448,192,95141,1,0,0:0:0:0:
192,192,95141,128,0,95831:0:0:0:0:
256,192,95141,1,0,0:0:0:0:
64,192,95313,1,0,0:0:0:0:
320,192,95486,1,0,0:0:0:0:
402,192,95572,1,0,0:0:0:0:
448,192,95658,1,0,0:0:0:0:
256,192,95831,128,0,96175:0:0:0:0:
109,192,95831,1,0,0:0:0:0:
329,192,95831,1,0,0:0:0:0:
109,192,96175,128,0,98244:0:0:0:0:
64,192,96175,128,0,98589:0:0:0:0:
448,192,96175,128,0,97900:0:0:0:0:
402,192,96175,1,0,0:0:0:0:
64,192,99279,1,0,0:0:0:0:
192,192,99279,1,0,0:0:0:0:
320,192,99279,1,0,0:0:0:0:
448,192,99279,1,0,0:0:0:0:
256,192,99279,1,0,0:0:0:0:
448,192,99451,1,0,0:0:0:0:
402,192,99473,1,0,0:0:0:0:
320,192,99494,1,0,0:0:0:0:
256,192,99516,1,0,0:0:0:0:
192,192,99537,1,0,0:0:0:0:
109,192,99559,1,0,0:0:0:0:
64,192,99581,1,0,0:0:0:0:
320,192,99624,1,0,0:0:0:0:
192,192,99624,1,0,0:0:0:0:
448,192,99624,1,0,0:0:0:0:
256,192,99624,1,0,0:0:0:0:
402,192,99624,1,0,0:0:0:0:
320,192,99796,1,0,0:0:0:0:
192,192,99796,1,0,0:0:0:0:
64,192,99796,1,0,0:0:0:0:
256,192,99796,1,0,0:0:0:0:
109,192,99796,1,0,0:0:0:0:
448,192,99969,1,0,0:0:0:0:
402,192,100055,1,0,0:0:0:0:
320,192,100141,1,0,0:0:0:0:
192,192,100141,1,0,0:0:0:0:
256,192,100141,1,0,0:0:0:0:
64,192,100313,1,0,0:0:0:0:
192,192,100313,1,0,0:0:0:0:
320,192,100313,1,0,0:0:0:0:
448,192,100313,128,0,100486:0:0:0:0:
109,192,100313,1,0,0:0:0:0:
256,192,100313,1,0,0:0:0:0:
402,192,100313,1,0,0:0:0:0:
64,192,100658,1,0,0:0:0:0:
320,192,100658,1,0,0:0:0:0:
448,192,100658,1,0,0:0:0:0:
402,192,100658,1,0,0:0:0:0:
109,192,100701,1,0,0:0:0:0:
192,192,100744,1,0,0:0:0:0:
256,192,100787,1,0,0:0:0:0:
320,192,100831,1,0,0:0:0:0:
448,192,101003,1,0,0:0:0:0:
192,192,101003,1,0,0:0:0:0:
64,192,101003,1,0,0:0:0:0:
109,192,101003,1,0,0:0:0:0:
448,192,101175,1,0,0:0:0:0:
402,192,101262,1,0,0:0:0:0:
320,192,101348,1,0,0:0:0:0:
192,192,101348,1,0,0:0:0:0:
256,192,101348,1,0,0:0:0:0:
320,192,101520,1,0,0:0:0:0:
64,192,101520,1,0,0:0:0:0:
182,192,101520,1,0,0:0:0:0:
448,192,101606,1,0,0:0:0:0:
448,192,101693,1,0,0:0:0:0:
192,192,101693,1,0,0:0:0:0:
329,192,101693,1,0,0:0:0:0:
192,192,101865,1,0,0:0:0:0:
256,192,101908,1,0,0:0:0:0:
320,192,101951,1,0,0:0:0:0:
402,192,101994,1,0,0:0:0:0:
448,192,102037,1,0,0:0:0:0:
64,192,102037,1,0,0:0:0:0:
256,192,102037,1,0,0:0:0:0:
109,192,102081,1,0,0:0:0:0:
192,192,102124,1,0,0:0:0:0:
256,192,102167,1,0,0:0:0:0:
320,192,102210,1,0,0:0:0:0:
192,192,102382,1,0,0:0:0:0:
64,192,102382,1,0,0:0:0:0:
109,192,102382,1,0,0:0:0:0:
448,192,102555,1,0,0:0:0:0:
402,192,102641,1,0,0:0:0:0:
320,192,102727,1,0,0:0:0:0:
192,192,102727,1,0,0:0:0:0:
256,192,102727,1,0,0:0:0:0:
64,192,102900,1,0,0:0:0:0:
192,192,102900,1,0,0:0:0:0:
109,192,102900,1,0,0:0:0:0:
320,192,102986,1,0,0:0:0:0:
402,192,103029,1,0,0:0:0:0:
448,192,103072,1,0,0:0:0:0:
192,192,103072,1,0,0:0:0:0:
256,192,103072,1,0,0:0:0:0:
64,192,103244,1,0,0:0:0:0:
109,192,103287,1,0,0:0:0:0:
192,192,103331,1,0,0:0:0:0:
256,192,103374,1,0,0:0:0:0:
64,192,103417,1,0,0:0:0:0:
320,192,103417,1,0,0:0:0:0:
109,192,103460,1,0,0:0:0:0:
192,192,103503,1,0,0:0:0:0:
256,192,103546,1,0,0:0:0:0:
320,192,103589,1,0,0:0:0:0:
448,192,103589,1,0,0:0:0:0:
402,192,103589,1,0,0:0:0:0:
448,192,103762,1,0,0:0:0:0:
192,192,103762,1,0,0:0:0:0:
329,192,103762,1,0,0:0:0:0:
448,192,103934,1,0,0:0:0:0:
320,192,104106,1,0,0:0:0:0:
192,192,104106,1,0,0:0:0:0:
256,192,104106,1,0,0:0:0:0:
192,192,104279,1,0,0:0:0:0:
448,192,104279,1,0,0:0:0:0:
109,192,104279,1,0,0:0:0:0:
320,192,104365,1,0,0:0:0:0:
448,192,104451,1,0,0:0:0:0:
64,192,104451,1,0,0:0:0:0:
256,192,104451,1,0,0:0:0:0:
109,192,104537,1,0,0:0:0:0:
192,192,104624,1,0,0:0:0:0:
320,192,104710,1,0,0:0:0:0:
64,192,104796,1,0,0:0:0:0:
192,192,104796,1,0,0:0:0:0:
402,192,104796,1,0,0:0:0:0:
256,192,104796,1,0,0:0:0:0:
320,192,104882,1,0,0:0:0:0:
448,192,104969,1,0,0:0:0:0:
402,192,105055,1,0,0:0:0:0:
448,192,105141,1,0,0:0:0:0:
192,192,105141,1,0,0:0:0:0:
329,192,105141,1,0,0:0:0:0:
448,192,105313,1,0,0:0:0:0:
256,192,105313,1,0,0:0:0:0:
109,192,105400,1,0,0:0:0:0:
192,192,105486,1,0,0:0:0:0:
64,192,105486,1,0,0:0:0:0:
320,192,105658,1,0,0:0:0:0:
192,192,105658,1,0,0:0:0:0:
256,192,105658,1,0,0:0:0:0:
64,192,105744,1,0,0:0:0:0:
320,192,105831,1,0,0:0:0:0:
448,192,105831,1,0,0:0:0:0:
402,192,105831,1,0,0:0:0:0:
109,192,105831,1,0,0:0:0:0:
182,192,105917,1,0,0:0:0:0:
320,192,106003,1,0,0:0:0:0:
448,192,106089,1,0,0:0:0:0:
256,192,106089,1,0,0:0:0:0:
64,192,106175,1,0,0:0:0:0:
320,192,106175,1,0,0:0:0:0:
109,192,106219,1,0,0:0:0:0:
192,192,106262,1,0,0:0:0:0:
256,192,106305,1,0,0:0:0:0:
320,192,106348,1,0,0:0:0:0:
448,192,106520,1,0,0:0:0:0:
192,192,106520,1,0,0:0:0:0:
329,192,106520,1,0,0:0:0:0:
402,192,106606,1,0,0:0:0:0:
320,192,106693,1,0,0:0:0:0:
256,192,106779,1,0,0:0:0:0:
192,192,106865,1,0,0:0:0:0:
64,192,106865,1,0,0:0:0:0:
109,192,106951,1,0,0:0:0:0:
256,192,106951,1,0,0:0:0:0:
320,192,107037,1,0,0:0:0:0:
192,192,107037,1,0,0:0:0:0:
448,192,107124,1,0,0:0:0:0:
192,192,107210,1,0,0:0:0:0:
64,192,107210,1,0,0:0:0:0:
329,192,107210,1,0,0:0:0:0:
256,192,107296,1,0,0:0:0:0:
320,192,107382,1,0,0:0:0:0:
109,192,107382,1,0,0:0:0:0:
448,192,107469,1,0,0:0:0:0:
256,192,107469,1,0,0:0:0:0:
64,192,107555,1,0,0:0:0:0:
192,192,107555,1,0,0:0:0:0:
402,192,107555,1,0,0:0:0:0:
320,192,107641,1,0,0:0:0:0:
448,192,107727,1,0,0:0:0:0:
256,192,107727,1,0,0:0:0:0:
109,192,107813,1,0,0:0:0:0:
192,192,107900,1,0,0:0:0:0:
320,192,107900,1,0,0:0:0:0:
402,192,107986,1,0,0:0:0:0:
256,192,107986,1,0,0:0:0:0:
448,192,108072,1,0,0:0:0:0:
329,192,108072,1,0,0:0:0:0:
256,192,108158,1,0,0:0:0:0:
402,192,108158,1,0,0:0:0:0:
64,192,108244,1,0,0:0:0:0:
320,192,108244,1,0,0:0:0:0:
182,192,108244,1,0,0:0:0:0:
64,192,108417,1,0,0:0:0:0:
320,192,108417,1,0,0:0:0:0:
182,192,108417,1,0,0:0:0:0:
448,192,108589,128,0,108762:0:0:0:0:
192,192,108589,1,0,0:0:0:0:
402,192,108589,1,0,0:0:0:0:
192,192,108762,1,0,0:0:0:0:
402,192,108805,1,0,0:0:0:0:
320,192,108848,1,0,0:0:0:0:
256,192,108891,1,0,0:0:0:0:
192,192,108934,1,0,0:0:0:0:
448,192,108934,1,0,0:0:0:0:
64,192,108934,128,0,109624:0:0:0:0:
109,192,108934,1,0,0:0:0:0:
320,192,109020,1,0,0:0:0:0:
402,192,109063,1,0,0:0:0:0:
448,192,109106,1,0,0:0:0:0:
320,192,109279,1,0,0:0:0:0:
192,192,109279,1,0,0:0:0:0:
256,192,109279,1,0,0:0:0:0:
448,192,109451,1,0,0:0:0:0:
402,192,109537,1,0,0:0:0:0:
448,192,109624,128,0,110831:0:0:0:0:
320,192,109624,1,0,0:0:0:0:
192,192,109624,1,0,0:0:0:0:
256,192,109624,1,0,0:0:0:0:
64,192,109796,1,0,0:0:0:0:
192,192,109796,1,0,0:0:0:0:
109,192,109796,1,0,0:0:0:0:
256,192,109839,1,0,0:0:0:0:
320,192,109882,1,0,0:0:0:0:
320,192,109969,1,0,0:0:0:0:
64,192,109969,1,0,0:0:0:0:
182,192,109969,1,0,0:0:0:0:
64,192,110141,1,0,0:0:0:0:
109,192,110184,1,0,0:0:0:0:
192,192,110227,1,0,0:0:0:0:
256,192,110270,1,0,0:0:0:0:
320,192,110313,1,0,0:0:0:0:
64,192,110313,1,0,0:0:0:0:
192,192,110658,1,0,0:0:0:0:
320,192,110658,1,0,0:0:0:0:
256,192,110658,1,0,0:0:0:0:
320,192,111003,128,0,111118:0:0:0:0:
448,192,111003,1,0,0:0:0:0:
64,192,111003,1,0,0:0:0:0:
402,192,111003,1,0,0:0:0:0:
256,192,111003,1,0,0:0:0:0:
192,192,111118,128,0,111233:0:0:0:0:
448,192,111175,1,0,0:0:0:0:
64,192,111233,128,0,111348:0:0:0:0:
329,192,111233,1,0,0:0:0:0:
448,192,111348,128,0,111463:0:0:0:0:
320,192,111348,1,0,0:0:0:0:
192,192,111348,1,0,0:0:0:0:
256,192,111348,1,0,0:0:0:0:
320,192,111463,128,0,111578:0:0:0:0:
109,192,111463,1,0,0:0:0:0:
192,192,111578,128,0,111693:0:0:0:0:
64,192,111693,128,0,113072:0:0:0:0:
320,192,111693,1,0,0:0:0:0:
448,192,111693,1,0,0:0:0:0:
256,192,111693,1,0,0:0:0:0:
192,192,111779,1,0,0:0:0:0:
256,192,111822,1,0,0:0:0:0:
320,192,111865,1,0,0:0:0:0:
402,192,111908,1,0,0:0:0:0:
192,192,112037,1,0,0:0:0:0:
448,192,112037,1,0,0:0:0:0:
329,192,112037,1,0,0:0:0:0:
448,192,112210,1,0,0:0:0:0:
402,192,112296,1,0,0:0:0:0:
320,192,112382,1,0,0:0:0:0:
192,192,112382,1,0,0:0:0:0:
256,192,112382,1,0,0:0:0:0:
320,192,112555,1,0,0:0:0:0:
192,192,112555,1,0,0:0:0:0:
256,192,112555,1,0,0:0:0:0:
448,192,112641,1,0,0:0:0:0:
448,192,112727,1,0,0:0:0:0:
320,192,112727,1,0,0:0:0:0:
402,192,112727,1,0,0:0:0:0:
320,192,112900,1,0,0:0:0:0:
402,192,112943,1,0,0:0:0:0:
448,192,112986,1,0,0:0:0:0:
192,192,113072,1,0,0:0:0:0:
320,192,113072,1,0,0:0:0:0:
256,192,113072,1,0,0:0:0:0:
64,192,113158,1,0,0:0:0:0:
109,192,113201,1,0,0:0:0:0:
192,192,113244,1,0,0:0:0:0:
192,192,113417,1,0,0:0:0:0:
64,192,113417,1,0,0:0:0:0:
256,192,113417,1,0,0:0:0:0:
329,192,113503,1,0,0:0:0:0:
402,192,113589,1,0,0:0:0:0:
475,192,113675,1,0,0:0:0:0:
192,192,113762,1,0,0:0:0:0:
320,192,113762,1,0,0:0:0:0:
256,192,113762,1,0,0:0:0:0:
64,192,113934,1,0,0:0:0:0:
448,192,113934,1,0,0:0:0:0:
256,192,113934,1,0,0:0:0:0:
109,192,113977,1,0,0:0:0:0:
192,192,114020,1,0,0:0:0:0:
256,192,114063,1,0,0:0:0:0:
320,192,114106,1,0,0:0:0:0:
64,192,114106,1,0,0:0:0:0:
448,192,114106,128,0,114279:0:0:0:0:
192,192,114279,1,0,0:0:0:0:
256,192,114322,1,0,0:0:0:0:
320,192,114365,1,0,0:0:0:0:
402,192,114408,1,0,0:0:0:0:
64,192,114451,1,0,0:0:0:0:
448,192,114451,1,0,0:0:0:0:
109,192,114494,1,0,0:0:0:0:
192,192,114537,1,0,0:0:0:0:
256,192,114581,1,0,0:0:0:0:
320,192,114624,1,0,0:0:0:0:
448,192,114796,1,0,0:0:0:0:
320,192,114796,1,0,0:0:0:0:
402,192,114796,1,0,0:0:0:0:
448,192,114969,1,0,0:0:0:0:
402,192,115012,1,0,0:0:0:0:
329,192,115055,1,0,0:0:0:0:
256,192,115098,1,0,0:0:0:0:
192,192,115141,1,0,0:0:0:0:
64,192,115141,1,0,0:0:0:0:
109,192,115141,1,0,0:0:0:0:
320,192,115313,1,0,0:0:0:0:
192,192,115313,1,0,0:0:0:0:
256,192,115313,1,0,0:0:0:0:
64,192,115400,1,0,0:0:0:0:
320,192,115486,1,0,0:0:0:0:
448,192,115486,1,0,0:0:0:0:
402,192,115486,1,0,0:0:0:0:
192,192,115658,1,0,0:0:0:0:
256,192,115701,1,0,0:0:0:0:
320,192,115744,1,0,0:0:0:0:
192,192,115831,1,0,0:0:0:0:
64,192,115831,1,0,0:0:0:0:
109,192,115831,1,0,0:0:0:0:
256,192,115874,1,0,0:0:0:0:
320,192,115917,1,0,0:0:0:0:
402,192,115960,1,0,0:0:0:0:
448,192,116003,1,0,0:0:0:0:
320,192,116175,1,0,0:0:0:0:
192,192,116175,1,0,0:0:0:0:
256,192,116175,1,0,0:0:0:0:
448,192,116348,1,0,0:0:0:0:
402,192,116391,1,0,0:0:0:0:
329,192,116434,1,0,0:0:0:0:
256,192,116477,1,0,0:0:0:0:
192,192,116520,1,0,0:0:0:0:
64,192,116520,1,0,0:0:0:0:
109,192,116520,1,0,0:0:0:0:
192,192,116693,1,0,0:0:0:0:
320,192,116693,1,0,0:0:0:0:
256,192,116693,1,0,0:0:0:0:
402,192,116736,1,0,0:0:0:0:
448,192,116779,1,0,0:0:0:0:
192,192,116865,1,0,0:0:0:0:
64,192,116865,1,0,0:0:0:0:
109,192,116865,1,0,0:0:0:0:
64,192,117037,1,0,0:0:0:0:
109,192,117081,1,0,0:0:0:0:
192,192,117124,1,0,0:0:0:0:
256,192,117167,1,0,0:0:0:0:
320,192,117210,1,0,0:0:0:0:
448,192,117210,1,0,0:0:0:0:
402,192,117210,1,0,0:0:0:0:
64,192,117296,1,0,0:0:0:0:
109,192,117339,1,0,0:0:0:0:
192,192,117382,1,0,0:0:0:0:
448,192,117555,1,0,0:0:0:0:
192,192,117555,1,0,0:0:0:0:
329,192,117555,1,0,0:0:0:0:
402,192,117727,1,0,0:0:0:0:
192,192,117900,1,0,0:0:0:0:
320,192,117900,1,0,0:0:0:0:
256,192,117900,1,0,0:0:0:0:
448,192,118072,1,0,0:0:0:0:
64,192,118072,1,0,0:0:0:0:
256,192,118072,1,0,0:0:0:0:
320,192,118158,1,0,0:0:0:0:
109,192,118158,1,0,0:0:0:0:
192,192,118244,1,0,0:0:0:0:
448,192,118244,1,0,0:0:0:0:
329,192,118331,1,0,0:0:0:0:
192,192,118417,1,0,0:0:0:0:
320,192,118503,1,0,0:0:0:0:
109,192,118503,1,0,0:0:0:0:
64,192,118589,1,0,0:0:0:0:
448,192,118589,1,0,0:0:0:0:
256,192,118589,1,0,0:0:0:0:
192,192,118675,1,0,0:0:0:0:
448,192,118762,1,0,0:0:0:0:
256,192,118762,1,0,0:0:0:0:
192,192,118934,1,0,0:0:0:0:
64,192,118934,1,0,0:0:0:0:
329,192,118934,1,0,0:0:0:0:
402,192,119020,1,0,0:0:0:0:
448,192,119106,1,0,0:0:0:0:
256,192,119106,1,0,0:0:0:0:
192,192,119279,1,0,0:0:0:0:
64,192,119279,1,0,0:0:0:0:
109,192,119279,1,0,0:0:0:0:
256,192,119365,1,0,0:0:0:0:
192,192,119451,1,0,0:0:0:0:
448,192,119451,1,0,0:0:0:0:
320,192,119537,1,0,0:0:0:0:
402,192,119537,1,0,0:0:0:0:
109,192,119537,1,0,0:0:0:0:
448,192,119624,128,0,119796:0:0:0:0:
192,192,119624,1,0,0:0:0:0:
36,192,119624,1,0,0:0:0:0:
109,192,119710,1,0,0:0:0:0:
192,192,119796,1,0,0:0:0:0:
320,192,119882,1,0,0:0:0:0:
192,192,119969,1,0,0:0:0:0:
64,192,119969,1,0,0:0:0:0:
109,192,119969,1,0,0:0:0:0:
402,192,119969,1,0,0:0:0:0:
256,192,119969,1,0,0:0:0:0:
320,192,120055,1,0,0:0:0:0:
448,192,120141,1,0,0:0:0:0:
192,192,120141,1,0,0:0:0:0:
109,192,120227,1,0,0:0:0:0:
64,192,120313,1,0,0:0:0:0:
448,192,120313,1,0,0:0:0:0:
256,192,120313,1,0,0:0:0:0:
329,192,120400,1,0,0:0:0:0:
448,192,120486,1,0,0:0:0:0:
192,192,120486,1,0,0:0:0:0:
109,192,120572,1,0,0:0:0:0:
192,192,120658,1,0,0:0:0:0:
64,192,120658,1,0,0:0:0:0:
256,192,120744,1,0,0:0:0:0:
320,192,120831,1,0,0:0:0:0:
192,192,120831,1,0,0:0:0:0:
448,192,120917,1,0,0:0:0:0:
448,192,121003,1,0,0:0:0:0:
64,192,121003,1,0,0:0:0:0:
402,192,121003,1,0,0:0:0:0:
109,192,121089,1,0,0:0:0:0:
192,192,121175,1,0,0:0:0:0:
320,192,121175,1,0,0:0:0:0:
256,192,121175,1,0,0:0:0:0:
448,192,121262,1,0,0:0:0:0:
329,192,121305,1,0,0:0:0:0:
192,192,121348,1,0,0:0:0:0:
64,192,121348,1,0,0:0:0:0:
109,192,121348,1,0,0:0:0:0:
256,192,121391,1,0,0:0:0:0:
320,192,121434,1,0,0:0:0:0:
402,192,121477,1,0,0:0:0:0:
448,192,121520,1,0,0:0:0:0:
192,192,121520,1,0,0:0:0:0:
256,192,121606,1,0,0:0:0:0:
320,192,121693,1,0,0:0:0:0:
448,192,121693,1,0,0:0:0:0:
402,192,121693,1,0,0:0:0:0:
192,192,121865,1,0,0:0:0:0:
320,192,121865,1,0,0:0:0:0:
256,192,121865,1,0,0:0:0:0:
192,192,122037,1,0,0:0:0:0:
64,192,122037,1,0,0:0:0:0:
109,192,122037,1,0,0:0:0:0:
192,192,122210,1,0,0:0:0:0:
320,192,122210,1,0,0:0:0:0:
256,192,122210,1,0,0:0:0:0:
448,192,122296,1,0,0:0:0:0:
320,192,122382,1,0,0:0:0:0:
192,192,122382,1,0,0:0:0:0:
256,192,122382,1,0,0:0:0:0:
192,192,122555,1,0,0:0:0:0:
256,192,122598,1,0,0:0:0:0:
320,192,122641,1,0,0:0:0:0:
402,192,122684,1,0,0:0:0:0:
64,192,122727,128,0,125313:0:0:0:0:
448,192,122727,128,0,122813:0:0:0:0:
320,192,122813,1,0,0:0:0:0:
256,192,122856,1,0,0:0:0:0:
192,192,122900,1,0,0:0:0:0:
109,192,122943,1,0,0:0:0:0:
448,192,123072,128,0,123158:0:0:0:0:
320,192,123158,1,0,0:0:0:0:
256,192,123201,1,0,0:0:0:0:
192,192,123244,1,0,0:0:0:0:
109,192,123287,1,0,0:0:0:0:
448,192,123417,128,0,123503:0:0:0:0:
320,192,123503,1,0,0:0:0:0:
256,192,123546,1,0,0:0:0:0:
192,192,123589,1,0,0:0:0:0:
109,192,123632,1,0,0:0:0:0:
448,192,123762,128,0,123848:0:0:0:0:
320,192,123848,1,0,0:0:0:0:
256,192,123891,1,0,0:0:0:0:
192,192,123934,1,0,0:0:0:0:
109,192,123977,1,0,0:0:0:0:
448,192,124106,128,0,124193:0:0:0:0:
320,192,124193,1,0,0:0:0:0:
256,192,124236,1,0,0:0:0:0:
192,192,124279,1,0,0:0:0:0:
109,192,124322,1,0,0:0:0:0:
