osu file format v9

[General]
AudioFilename: Six years.mp3
AudioLeadIn: 0
PreviewTime: 54870
Countdown: 0
SampleSet: Normal
StackLeniency: 0.7
Mode: 0
LetterboxInBreaks: 0

[Editor]
DistanceSpacing: 1
BeatDivisor: 4
GridSize: 4

[Metadata]
Title:Six Trillion Years and Overnight Story
Artist:IA
Creator:tutuhaha
Version:Years
Source:kemu
Tags:vocaloid vocaloid3 spboxer3

[Difficulty]
HPDrainRate:7
CircleSize:4
OverallDifficulty:8
ApproachRate:9
SliderMultiplier:2.1
SliderTickRate:1

[Events]
//Background and Video events
Video,0,"Six God.flv"
0,0,"BG2.jpg"
//Break Periods
2,76360,85238
2,138296,147818
//Storyboard Layer 0 (Background)
//Storyboard Layer 1 (Fail)
//Storyboard Layer 2 (Pass)
//Storyboard Layer 3 (Foreground)
//Storyboard Sound Samples
//Background Colour Transformations
3,100,163,162,255

[TimingPoints]
12935,322.58064516129,4,1,1,80,1,0
23902,-100,4,2,1,70,0,0
24547,-100,4,2,0,80,0,0
24628,-100,4,2,1,60,0,0
34547,-100,4,1,1,60,0,0
34870,-100,4,1,1,70,0,0
45273,-100,4,1,1,10,0,0
45434,-100,4,1,1,70,0,0
47854,-100,4,1,1,10,0,0
48015,-100,4,1,1,70,0,0
49709,-100,4,1,1,50,0,0
50354,-200,4,2,1,80,0,0
52209,-100,4,1,1,70,0,0
52934,-100,4,1,1,80,0,0
54870,-100,4,1,1,40,0,0
55515,-100,4,1,1,80,0,1
76160,-100,4,2,0,80,0,0
85838,-200,4,2,1,70,0,0
86483,-100,4,2,0,80,0,0
86564,-100,4,2,1,60,0,0
91322,-100,4,1,1,40,0,0
91644,-200,4,2,1,60,0,0
95838,-100,4,2,1,60,0,0
96805,-100,4,1,1,70,0,0
107128,-100,4,1,1,60,0,0
107209,-100,4,1,1,10,0,0
107370,-100,4,1,1,60,0,0
108418,-100,4,1,1,40,0,0
109064,-100,4,1,1,60,0,0
109789,-100,4,1,1,10,0,0
109951,-100,4,1,1,60,0,0
110273,-100,4,1,1,10,0,0
110434,-100,4,1,1,60,0,0
110999,-100,4,1,1,40,0,0
111644,-200,4,1,1,60,0,0
112289,-200,4,2,1,60,0,0
114064,-100,4,1,1,60,0,0
114870,-100,4,1,1,80,0,0
116805,-100,4,1,1,60,0,0
117451,-100,4,1,1,80,0,1
138096,-100,4,2,0,80,0,0
148418,-100,4,1,1,70,0,0
156160,-100,4,2,0,80,0,0
156241,-100,4,1,1,70,0,0
158741,-100,4,2,0,80,0,0
158822,-100,4,1,1,70,0,0
160031,-100,4,2,0,80,0,0
160112,-100,4,1,1,70,0,0
161967,-200,4,2,1,50,0,0
162612,-100,4,2,0,80,0,0
162693,-100,4,2,1,60,0,0
166483,-100,4,1,1,80,0,0
167773,-100,4,1,1,80,0,1
183902,342.857142857143,4,1,1,80,1,1
184244,342.857142857143,4,1,1,80,1,1
184586,387.096774193548,4,1,1,80,1,0
184779,392.156862745098,4,1,1,80,1,0
184975,419.58041958042,4,1,1,80,1,0
185184,428.571428571429,4,1,1,80,1,0
185398,444.444444444444,4,1,1,80,1,0
185620,500,4,1,1,80,1,0
185870,545.454545454546,4,1,1,80,1,0
186142,319.148936170213,4,1,1,80,1,0
187418,322.58064516129,4,1,1,80,1,0
188063,322.58064516129,4,1,1,80,1,1
190643,-100,4,2,0,80,0,0

[Colours]
Combo1 : 128,0,128
Combo2 : 255,159,64
Combo3 : 128,128,255
Combo4 : 255,128,255

[HitObjects]
52,128,13902,1,0
104,140,13983,1,0
156,128,14064,1,0
196,96,14144,1,0
220,48,14225,1,0
276,136,14386,2,0,B|324:236,1,105
188,332,14870,5,0
104,272,15031,2,0,B|76:228,2,52.5,0|0|8
196,224,15354,1,0
240,252,15434,1,0
292,260,15515,1,0
384,212,15676,2,0,B|328:100,1,105
144,40,16160,5,0
152,92,16241,1,0
192,128,16322,1,0
244,132,16402,1,0
292,108,16483,2,0,B|308:48|380:24,1,105
424,116,16805,1,0
384,212,16967,2,0,B|430:305,1,105
184,320,17451,5,0
132,312,17531,1,0
92,276,17612,1,0
80,224,17693,1,0
96,172,17773,2,0,B|96:56,1,105,8|0
224,232,18096,6,0,B|224:112,1,105,0|0
316,256,18418,1,8
368,244,18499,1,0
404,204,18580,1,0
420,156,18660,1,0
420,104,18741,1,0
119,32,19064,2,0,B|224:32,1,105,8|0
156,112,19386,5,4
100,200,19547,1,0
250,251,19709,2,0,B|220:292|156:288,1,105,8|0
244,156,20031,1,0
296,164,20112,1,0
336,196,20193,1,0
356,244,20273,1,0
352,296,20354,2,0,B|464:328,1,105,8|0
476,224,20676,5,0
440,128,20838,1,0
272,41,20999,2,0,B|320:24|376:44,1,105,8|0
244,156,21322,1,0
192,156,21402,1,0
148,128,21483,1,0
128,80,21564,1,0
140,28,21644,2,0,B|40:88|40:84,1,105,8|0
40,223,21967,6,0,B|76:184,4,52.5,2|0|0|0|8
128,356,22451,2,0,B|143:305,4,52.5,2|0|0|0|8
256,264,22934,5,2
308,276,23015,1,0
360,264,23096,1,0
400,232,23176,1,0
420,184,23257,1,8
264,164,23418,5,2
212,176,23499,1,0
160,164,23580,1,0
120,132,23660,1,0
100,84,23741,1,8
256,32,23902,5,2
256,32,24225,1,0
420,184,24547,6,0,B|340:144|368:44,1,157.5,4|0
404,32,24870,2,0,B|348:148|200:96,1,210,0|2
148,128,25354,1,0
148,128,25434,1,0
148,128,25515,1,0
80,204,25676,1,0
168,212,25838,6,0,B|240:172|232:68,1,157.5,2|0
128,36,26160,2,0,B|56:76|64:180,1,157.5,0|0
120,276,26483,2,0,B|203:259|267:332,1,157.5,2|0
304,244,26805,2,0,B|320:184|392:176,1,105
261,326,27128,5,2
164,340,27289,1,0
96,288,27451,1,0
80,204,27612,1,0
112,52,27773,6,0,B|64:70|40:126,1,105,2|0
80,204,28096,1,0
256,192,28257,1,0
300,20,28418,2,0,B|332:80|400:88|400:88|384:132|432:172,2,210,2|0|2
304,276,29386,1,0
220,288,29547,6,0,B|184:324,2,52.5,0|0|2
152,240,29870,1,0
128,160,30031,1,0
156,80,30193,1,0
228,36,30354,1,2
228,36,30676,1,0
68,232,30999,5,2
152,240,31160,1,0
232,216,31322,1,0
288,152,31483,1,0
308,72,31644,1,2
308,72,31967,1,0
288,280,32289,6,0,B|376:264|396:156,1,157.5,2|0
384,132,32612,2,0,B|416:184|488:192,1,105
308,72,32934,2,0,B|264:28|200:28,1,105,2|0
140,64,33257,1,0
84,128,33418,1,0
64,208,33580,1,2
64,208,33902,6,0,B|128:304,1,105,4|0
188,140,34225,2,0,B|205:254,1,105,8|0
324,140,34547,2,0,B|306:254,1,105,8|0
448,208,34870,6,0,B|348:352,1,157.5,4|0
316,368,35193,2,0,B|280:324|216:316,1,105,8|0
124,300,35515,1,0
64,212,35676,1,0
64,212,35757,1,0
64,212,35838,1,8
64,108,35999,1,0
140,36,36160,6,0,B|188:100|284:96,1,157.5
320,36,36483,2,0,B|228:44|192:120,1,157.5,8|0
180,168,36805,1,0
264,320,36967,1,0
152,268,37128,1,8
312,236,37289,1,0
475,214,37451,6,0,B|456:264|404:288,2,105,0|0|8
384,160,37935,1,0
384,160,38015,1,0
384,160,38096,2,0,B|316:156|284:104,2,105,0|0|8
440,72,38580,1,0
312,236,38741,6,0,B|244:196|144:208,1,157.5
120,240,39064,2,0,B|140:184|112:128,1,105,8|0
160,60,39386,1,0
32,140,39547,1,0
49,234,39709,2,0,B|84:273|80:332,1,105,8|0
80,332,40031,6,0,B|136:372|200:336|200:336|236:300|300:316,1,210,4|8
380,292,40515,1,0
327,200,40676,2,0,B|432:200,1,105
244,108,40999,2,0,B|352:108,1,105,8|0
349,108,41241,1,0
349,108,41322,5,0
288,24,41483,1,0
184,20,41644,1,8
96,76,41805,1,0
84,180,41967,2,0,B|112:240|176:264,1,105
280,323,42289,2,0,B|252:360|184:356,1,105,8|0
232,236,42612,6,0,B|233:307|313:335|313:335|341:304|389:314,1,210,0|8
156,208,43096,2,0,B|207:257|284:220|284:220|281:179|322:151,1,210,0|0
84,252,43580,6,0,B|140:236|164:168,1,105,8|0
212,92,43902,1,2
356,152,44064,1,8
268,20,44225,1,8
260,176,44386,1,0
360,56,44547,5,0
412,68,44628,1,0
448,108,44709,1,0
456,160,44789,1,0
440,208,44870,1,8
400,244,44951,1,0
348,248,45031,1,0
224,348,45193,6,0,B|168:316|168:244|168:244|64:244,1,210,4|8
48,164,45676,1,0
81,244,45999,1,0
96,88,46160,1,8
440,64,47128,6,0,B|328:64,1,105
328,148,47451,1,8
284,148,47531,1,0
240,148,47612,1,0
316,248,47773,6,0,B|372:248|416:192|416:192|416:288,1,210,4|8
344,328,48257,1,0
316,248,48580,1,0
416,372,48741,1,8
84,184,49709,5,0
76,148,49816,1,0
88,116,49924,1,0
112,92,50031,1,2
148,88,50139,1,0
184,96,50246,1,0
208,124,50354,5,4
224,204,50515,1,0
268,272,50676,1,2
344,296,50838,1,0
420,284,50999,2,0,B|412:252|388:232|388:232|392:200|372:172,1,105,0|2
428,124,51483,1,0
356,96,51644,6,0,B|340:64|304:40,1,52.5,4|0
248,80,51967,2,0,B|224:52|188:48,1,52.5,2|0
212,156,52289,5,0
176,196,52370,1,0
132,224,52451,1,0
80,228,52531,1,0
28,212,52612,2,0,B|60:272|40:336,1,105
204,320,52935,6,0,B|288:308|336:224,1,157.5,4|0
316,160,53257,2,0,B|340:212|412:228,1,105,8|8
352,84,53580,1,0
208,56,53741,1,0
244,200,53902,2,0,B|184:184|160:116,1,105,8|0
136,108,54144,1,0
104,80,54225,1,4
444,332,54870,5,0
444,332,55193,1,0
408,124,55515,6,0,B|388:72|336:48,1,105,4|0
288,36,55757,1,0
236,36,55837,1,8
120,20,55998,1,0
128,148,56160,2,0,B|216:168|288:112,1,157.5
328,132,56482,2,0,B|368:180|356:248,1,105,8|0
240,176,56805,6,0,B|192:244|220:328,1,157.5,0|0
172,348,57128,2,0,B|56:348,1,105,8|0
40,248,57451,1,0
68,148,57612,1,0
68,148,57693,1,0
68,148,57773,2,0,B|132:144|184:96,1,105,8|0
320,96,58096,6,0,B|252:140|240:240,1,157.5,4|0
256,280,58418,2,0,B|236:220|184:192,1,105,8|0
216,96,58741,1,0
424,108,58902,5,0
432,120,58983,1,0
440,132,59064,2,0,B|396:232,1,105,8|0
192,216,59386,6,0,B|248:181|308:205|308:205|336:157,1,157.5
304,128,59709,2,0,B|312:72|272:24,1,105,8|0
128,52,60031,2,0,B|120:108|160:156,1,105
112,180,60273,1,0
64,204,60354,2,0,B|76:264|124:304,1,105,8|0
256,364,60676,6,0,B|256:304|196:272|196:272|216:224,1,157.5,4|0
252,200,60999,2,0,B|316:200|368:152,1,105,8|0
316,28,61322,2,0,B|260:28|220:68,1,105
48,140,61644,2,0,B|64:80|128:52,1,105,8|0
96,216,61967,5,0
200,336,62128,1,0
48,296,62289,1,8
192,232,62451,1,0
112,368,62612,1,0
280,280,62773,1,0
288,268,62854,1,0
296,256,62935,2,0,B|324:204|384:196,1,105,8|0
396,68,63257,5,4
252,36,63418,1,0
240,44,63499,1,0
228,56,63580,1,8
136,44,63741,5,8
132,76,63822,1,0
140,108,63902,1,0
36,116,64064,5,0
44,156,64144,1,0
68,188,64225,1,8
232,216,64386,5,0
268,180,64467,1,0
284,128,64547,5,2
428,192,64709,1,0
412,36,64870,1,8
268,180,65031,1,8
412,112,65193,2,0,B|476:112|504:168,1,105
388,340,65515,5,8
388,340,65676,2,0,B|320:340|276:300,1,105
80,76,66160,1,8
80,76,66322,1,0
60,180,66483,2,0,B|124:176|168:120|168:120|192:144|192:160,1,157.5,4|0
208,192,66805,2,0,B|232:244|296:248,1,105,8|0
424,332,67128,6,0,B|444:268|396:216|396:216|416:176,1,157.5
428,136,67451,1,8
352,60,67612,1,0
248,36,67773,1,0
144,40,67935,1,0
144,40,68015,1,0
144,40,68096,2,0,B|68:128,1,105,8|0
232,148,68418,6,0,B|125:195,1,105,4|0
268,280,68741,2,0,B|151:278,1,105,8|0
300,200,69064,2,0,B|348:224|360:288,1,105
404,312,69305,1,0
452,336,69386,1,8
480,236,69547,1,0
464,132,69709,5,0
180,156,70031,1,8
280,32,70193,1,0
216,308,70354,5,0
256,304,70435,1,0
296,288,70515,1,0
324,260,70596,1,0
336,220,70676,2,0,B|372:176|432:176,1,105,8|0
284,112,70999,6,0,B|156:112,1,105,4|0
26,191,71322,2,0,B|80:220|128:204,1,105,8|0
300,76,71644,2,0,B|224:176,1,105
248,212,71886,1,0
252,264,71967,2,0,B|176:364,1,105,8|0
344,292,72289,6,0,B|372:244|431:239,1,105
300,148,72612,2,0,B|356:136|404:172,1,105,8|0
280,68,72935,2,0,B|228:88|216:148|216:148|160:168,1,157.5
120,188,73257,2,0,B|152:136|140:76,1,105,8|0
44,208,73580,5,4
184,232,73741,1,0
192,248,73822,1,0
196,264,73902,1,8
300,280,74064,5,0
304,312,74144,1,0
296,344,74225,1,0
372,204,74386,5,0
412,188,74467,1,0
444,160,74547,1,8
308,128,74709,5,0
256,112,74789,1,0
224,68,74870,5,2
380,40,75031,1,0
184,132,75193,5,8
327,64,75354,1,8
136,192,75515,5,4
376,340,75838,5,8
356,344,75918,1,0
336,340,75999,1,0
320,328,76080,1,0
312,308,76160,1,4
76,132,85838,6,0,B|184:132,1,105,0|2
256,328,86483,5,4
340,316,86644,1,0
412,272,86805,1,0
456,200,86967,1,0
372,180,87128,2,0,B|264:144|272:8,1,210,2|0
392,56,87612,1,0
372,180,87773,1,2
192,356,88096,5,0
136,296,88257,1,0
25,162,88418,2,0,B|56:208|112:216,1,105,2|0
192,236,88741,2,0,B|220:184|292:160,1,105
176,88,89064,6,0,B|248:84|276:144|276:144|324:168|372:140,1,210,2|0
440,64,89547,1,0
428,236,89709,1,2
380,304,89870,1,0
300,332,90031,1,0
216,332,90193,1,0
96,288,90354,6,0,B|136:244|204:252|204:252|212:208|160:160,2,210,2|0|2
60,212,91160,1,8
32,112,91322,1,0
20,128,91402,1,0
8,144,91483,1,0
112,112,91644,6,0,B|144:40|256:24,1,157.5,4|0
308,72,92289,1,8
164,276,92773,5,0
164,276,92854,1,0
164,276,92934,1,4
248,280,93096,1,8
328,252,93257,1,0
388,192,93418,1,0
400,108,93580,1,8
400,108,93902,2,0,B|328:108,1,52.5,0|8
300,40,94225,6,0,B|244:44|188:96,1,105,4|0
188,164,94709,2,0,B|124:156|92:88,1,105,8|0
20,152,95193,2,0,B|20:100,1,52.5,8|0
249,320,95838,6,0,B|144:320,1,105,4|0
220,180,96160,2,0,B|129:232,1,105,8|0
136,76,96483,2,0,B|75:162,1,105,8|0
220,96,96805,6,0,B|284:96|328:40,2,105,4|0|8
220,180,97289,1,0
220,180,97370,1,0
220,180,97451,2,0,B|288:192|344:160,1,105
192,256,97773,2,0,B|228:300|320:300,1,105,8|0
128,312,98096,6,0,B|96:256|124:204|124:204|84:160,1,157.5
56,136,98418,2,0,B|112:124|152:64,1,105,8|0
236,28,98741,1,0
352,136,98902,1,0
336,32,99064,1,8
208,120,99225,1,0
193,243,99386,6,0,B|248:236|276:184,2,105,0|0|8
348,212,99870,1,0
348,212,99951,1,0
348,212,100031,2,0,B|352:272|312:328,1,105
424,192,100354,2,0,B|456:240|444:312,1,105,8|0
476,136,100676,6,0,B|436:64|324:48,1,157.5
308,20,100999,2,0,B|304:76|248:112,1,105,8|0
264,212,101322,1,0
164,112,101483,1,0
28,76,101644,2,0,B|52:128|28:192,1,105,8|0
36,232,101886,1,0
48,284,101967,6,0,B|264:284,1,210,4|8
360,256,102451,1,0
372,152,102612,1,0
276,108,102773,1,0
208,188,102934,2,0,B|164:152|168:88,1,105,8|0
296,192,103257,6,0,B|516:192,1,210,4|8
464,288,103741,1,0
360,276,103902,2,0,B|312:308|248:276,1,105
212,132,104225,1,8
252,96,104305,1,0
304,92,104386,1,0
204,216,104547,6,0,B|116:200|96:96,1,157.5,2|0
64,68,104870,1,8
40,168,105031,1,0
76,268,105193,1,0
152,340,105354,1,0
256,255,105515,2,0,B|256:360,1,105,8|0
372,308,105838,5,2
320,148,105999,1,0
436,200,106160,1,8
464,172,106241,1,0
476,132,106322,1,0
320,148,106483,5,2
208,24,106644,1,0
84,20,106805,1,8
44,32,106886,1,0
16,64,106967,1,0
8,104,107047,1,0
32,144,107128,6,0,B|116:148|172:240,1,157.5,2|0
160,276,107451,2,0,B|224:268|248:188,1,105,8|0
472,148,107934,1,0
436,52,108096,1,8
160,276,108580,5,0
117,186,108741,1,0
100,188,108822,1,0
92,200,108902,1,0
96,216,108983,1,0
104,228,109064,2,0,B|92:284|36:304,1,105
184,364,109386,2,0,B|236:332|256:264,1,105,8|0
212,132,109709,6,0,B|256:180|324:168|324:168|348:212,1,157.5,2|0
360,236,110031,1,8
392,336,110193,2,0,B|460:316|484:268|484:268|468:236|476:200,1,157.5
480,188,110515,1,0
496,84,110676,1,8
32,188,111161,1,0
16,84,111322,1,8
244,176,111644,5,0
256,204,111752,1,0
256,232,111859,1,0
244,256,111967,1,2
224,276,112074,1,0
196,276,112182,1,0
172,260,112289,6,0,B|192:312|256:324,1,105,4|2
348,296,112773,1,0
492,260,112934,2,0,B|448:288|440:348,1,105,0|2
348,296,113418,1,0
408,152,113580,5,4
312,192,113741,1,0
212,160,113902,1,2
184,60,114064,1,0
184,60,114144,1,0
184,60,114225,2,0,B|68:112,1,105
212,160,114547,2,0,B|88:180,1,105,8|0
216,244,114870,6,0,B|280:304|400:280,1,157.5,4|0
432,316,115193,2,0,B|424:256|360:224,1,105,8|8
392,76,115515,1,0
440,164,115676,1,0
300,92,115838,1,0
284,188,115999,1,8
284,188,116080,1,0
284,188,116160,1,4
92,80,116805,5,0
76,100,116886,1,0
64,124,116967,1,0
60,148,117047,1,0
56,176,117128,1,0
64,200,117209,1,0
72,224,117289,1,0
88,244,117370,1,0
104,260,117451,6,0,B|124:312|176:336,1,105,4|0
224,348,117693,1,0
276,348,117773,1,8
392,364,117934,1,0
384,236,118096,2,0,B|296:216|224:272,1,157.5
184,252,118418,2,0,B|144:204|156:136,1,105,8|0
272,208,118741,6,0,B|320:140|292:56,1,157.5,0|0
340,36,119064,2,0,B|456:36,1,105,8|0
472,136,119386,1,0
444,236,119547,1,0
444,236,119628,1,0
444,236,119709,2,0,B|380:240|328:288,1,105,8|0
192,288,120031,6,0,B|260:244|272:144,1,157.5,4|0
256,104,120354,2,0,B|276:164|328:192,1,105,8|0
296,288,120676,1,0
88,276,120838,5,0
80,264,120918,1,0
72,252,120999,2,0,B|116:152,1,105,8|0
320,168,121322,6,0,B|264:203|204:179|204:179|176:227,1,157.5
208,256,121644,2,0,B|200:312|240:360,1,105,8|0
384,332,121967,2,0,B|392:276|352:228,1,105
400,204,122209,1,0
448,180,122289,2,0,B|436:120|388:80,1,105,8|0
256,20,122612,6,0,B|256:80|316:112|316:112|296:160,1,157.5,4|0
260,184,122935,2,0,B|196:184|144:232,1,105,8|0
196,356,123258,2,0,B|252:356|292:316,1,105
464,244,123580,2,0,B|448:304|384:332,1,105,8|0
416,168,123902,5,0
312,48,124064,1,0
464,88,124225,1,8
320,152,124386,1,0
400,16,124547,1,0
232,104,124709,1,0
224,116,124789,1,0
216,128,124870,2,0,B|188:180|128:188,1,105,8|0
116,316,125193,5,4
260,348,125354,1,0
272,340,125434,1,0
284,328,125515,1,8
376,340,125676,5,8
380,308,125757,1,0
372,276,125838,1,0
476,268,125999,5,0
468,228,126080,1,0
444,196,126160,1,8
280,168,126322,5,0
244,204,126402,1,0
228,256,126483,5,2
84,192,126644,1,0
100,348,126805,1,8
244,204,126967,1,8
96,272,127128,2,0,B|32:272|8:212,1,105
16,100,127451,5,8
124,44,127612,2,0,B|192:44|236:84,1,105
432,308,128096,1,8
432,308,128257,1,0
452,204,128418,2,0,B|388:208|344:264|344:264|320:240|320:224,1,157.5,4|0
304,192,128741,2,0,B|280:140|216:136,1,105,8|0
88,52,129064,6,0,B|68:116|116:168|116:168|96:208,1,157.5
84,248,129386,1,8
160,324,129547,1,0
264,348,129709,1,0
368,344,129870,1,0
368,344,129951,1,0
368,344,130031,2,0,B|444:256,1,105,8|0
280,236,130354,6,0,B|387:189,1,105,4|0
244,104,130676,2,0,B|361:106,1,105,8|0
212,184,130999,2,0,B|164:160|152:96,1,105
108,72,131241,1,0
60,48,131322,1,8
32,148,131483,1,0
48,252,131644,5,0
332,228,131967,1,8
232,352,132128,1,0
296,76,132289,5,0
256,80,132370,1,0
216,96,132451,1,0
188,124,132531,1,0
176,164,132612,2,0,B|140:208|80:208,1,105,8|0
228,272,132934,6,0,B|356:272,1,105,4|0
486,193,133257,2,0,B|432:164|384:180,1,105,8|0
212,308,133580,2,0,B|288:208,1,105
264,172,133822,1,0
260,120,133902,2,0,B|336:20,1,105,8|0
168,92,134225,6,0,B|140:140|81:145,1,105
212,236,134547,2,0,B|156:248|108:212,1,105,8|0
232,316,134870,2,0,B|284:296|296:236|296:236|352:216,1,157.5
392,196,135193,2,0,B|360:248|372:308,1,105,8|0
468,176,135515,5,4
328,152,135676,1,0
320,136,135757,1,0
316,120,135838,1,8
212,104,135999,5,0
208,72,136080,1,0
216,40,136160,1,0
140,180,136322,5,0
100,196,136402,1,0
68,224,136483,1,8
204,256,136644,5,0
256,272,136725,1,0
288,316,136805,5,2
132,344,136967,1,0
328,252,137128,5,8
185,320,137289,1,8
376,192,137451,5,4
136,44,137773,5,8
128,84,137854,1,0
152,120,137934,1,0
192,128,138015,1,0
228,108,138096,1,4
104,80,148418,5,2
44,168,148580,2,0,B|112:248|260:204,1,210,0|0
268,108,149064,5,2
172,148,149225,1,0
172,148,149305,1,0
172,148,149386,2,0,B|116:176|112:244,1,105,0|8
244,344,149709,5,2
396,304,149870,1,0
248,248,150031,1,0
340,376,150193,1,0
340,220,150354,5,2
388,200,150435,1,0
424,160,150515,1,0
353,42,150676,1,8
332,56,150757,1,0
326,82,150838,1,0
332,108,150918,1,0
348,128,150999,6,0,B|404:152|456:116,1,105,2|0
300,184,151322,2,0,B|322:240|384:251,1,105
228,192,151644,5,2
228,192,151805,2,0,B|224:316|344:376,1,210,8|0
300,184,152289,6,0,B|288:120|228:88,1,105,2|0
96,32,152612,2,0,B|148:52|220:16,1,105,8|0
360,88,152935,2,0,B|412:112|480:84|480:84|472:124|516:164,1,210,2|8
360,260,153418,5,0
360,260,153499,1,0
360,260,153580,2,0,B|300:252|264:196,1,105,2|0
432,220,153902,2,0,B|448:272|416:324,1,105,8|0
364,172,154225,2,0,B|336:128|348:64,1,105,2|0
300,44,154467,1,0
252,24,154547,1,8
148,36,154709,1,0
155,169,154870,6,0,B|104:168|72:112,1,105,2|0
228,136,155193,2,0,B|236:192|208:248,1,105,8|0
72,224,155515,5,2
44,192,155623,1,0
28,152,155730,1,0
20,112,155838,1,8
28,72,155945,1,0
44,32,156053,1,0
88,32,156160,6,0,B|96:96|168:120|168:120|144:164,1,157.5,4|0
156,200,156483,2,0,B|264:256,1,105,8|0
352,264,156805,1,2
404,172,156967,1,0
332,96,157128,1,8
236,140,157289,2,0,B|236:76,2,52.5
64,216,157612,6,0,B|84:284|156:300,1,105,0|8
272,220,157935,2,0,B|308:176|376:176,2,105,0|2|0
240,320,158418,1,8
240,320,158499,1,0
240,320,158580,2,0,B|144:228,1,105,0|4
296,126,158902,6,0,B|240:112|196:148,2,105,0|8|0
352,36,159386,1,2
444,164,159547,1,0
440,60,159709,1,8
356,192,159870,5,0
356,192,159951,1,0
356,192,160031,2,0,B|336:272|240:324,1,157.5,4|0
228,356,160354,2,0,B|200:312|144:296,1,105,8|0
52,168,160676,5,2
88,188,160784,1,0
128,184,160891,1,0
164,160,160999,1,0
176,120,161107,1,0
168,80,161214,1,0
465,316,161967,6,0,B|360:316,1,105,4|2
352,104,162612,5,4
352,104,162773,1,0
328,204,162935,2,0,B|272:180|260:112,1,105,2|0
176,68,163257,2,0,B|160:144|56:192,1,157.5
28,164,163580,2,0,B|80:192|88:244,1,105,2|0
136,340,163902,6,0,B|168:292|168:292|208:320|272:308,1,157.5,0|0
316,316,164225,2,0,B|368:292|380:228,1,105,2|0
224,228,164547,1,0
312,168,164709,1,0
464,208,164870,1,2
408,120,165031,5,0
408,120,165193,1,0
228,130,165354,2,0,B|252:84|312:72,2,105,0|2|0
132,92,165838,2,0,B|112:152|40:184,1,105
44,220,166080,1,0
24,268,166160,1,8
160,348,166322,1,8
140,244,166483,6,0,B|204:160,1,105,4|0
372,244,166805,2,0,B|308:160,1,105,8|0
188,60,167128,1,2
208,44,167209,1,0
232,32,167289,1,0
256,28,167370,1,0
284,32,167451,2,0,B|344:44|368:100,1,105,8|0
372,244,167773,6,0,B|368:172|424:144|424:144|460:168,1,157.5,4|0
480,212,168096,1,8
452,312,168257,1,0
352,280,168418,2,0,B|300:256|280:184,1,105
248,168,168660,1,0
216,128,168741,2,0,B|184:80|112:76,1,105,8|0
40,136,169064,5,0
56,240,169225,1,0
156,280,169386,1,8
256,248,169547,1,0
56,240,169709,6,0,B|28:296|48:344,1,105
96,360,169951,1,0
143,381,170031,2,0,B|169:338|156:274,1,105,8|0
128,76,170354,5,4
228,152,170515,1,0
208,164,170596,1,0
196,180,170676,1,8
300,196,170838,5,0
328,180,170918,1,0
360,180,170999,1,0
395,279,171160,5,0
408,316,171241,1,0
443,342,171322,1,8
472,164,171483,5,0
448,116,171564,1,0
412,76,171644,5,2
280,52,171805,1,0
156,104,171967,2,0,B|132:48|160:0,2,105,0|0|0
248,189,172451,1,0
32,92,172612,5,8
68,224,172773,1,0
196,276,172935,2,0,B|256:240|248:156,1,105
152,144,173257,5,0
204,156,173338,1,0
256,140,173418,1,0
288,96,173499,1,0
296,44,173580,2,0,B|388:52|436:140,1,157.5,4|0
412,176,173902,2,0,B|472:160|516:196,1,105,8|0
444,272,174225,5,0
272,372,174467,1,0
272,372,174547,2,0,B|276:312|224:272,1,105,8|0
124,240,174870,1,0
124,240,174951,1,0
124,240,175031,1,0
48,168,175193,2,0,B|20:120|36:56,1,105,8|0
164,156,175515,6,0,B|208:192|208:260|208:260|248:300,1,157.5,4|0
284,312,175838,1,8
388,288,175999,1,0
452,204,176160,1,4
464,100,176322,1,0
464,100,176402,1,0
464,100,176483,2,0,B|376:24,1,105,8|0
284,52,176805,5,4
204,290,177128,1,0
0,172,177451,2,0,B|88:192|104:308,1,157.5
112,332,177773,2,0,B|152:284|224:292,1,105,8|0
380,247,178096,6,0,B|304:320,1,105,4|0
196,204,178418,2,0,B|272:131,1,105,8|0
400,260,178741,2,0,B|336:248|320:172,1,105
352,148,178983,1,0
372,100,179064,2,0,B|360:44|288:24,1,105,8|0
208,72,179386,5,0
84,168,179547,1,0
236,168,179709,1,8
112,76,179870,1,0
164,224,180031,1,0
168,240,180112,1,0
172,256,180193,2,0,B|220:304|292:304,1,105,0|8
336,224,180515,1,0
400,140,180676,5,4
316,80,180838,2,0,B|268:40,2,52.5,0|0|8
180,108,181160,5,0
128,104,181241,1,0
80,120,181322,1,0
272,212,181483,6,0,B|210:201,2,52.5,0|0|8
152,256,181805,1,0
104,280,181886,1,0
76,324,181967,5,2
180,348,182128,1,0
260,280,182289,1,8
112,192,182451,1,8
224,62,182612,6,0,B|272:80|296:136,1,105
292,160,182854,1,0
304,184,182935,1,8
328,192,183015,1,0
352,184,183096,1,0
260,280,183257,6,0,B|216:252|200:184|200:184|144:164,1,157.5,4|0
124,128,183580,2,0,B|104:176|40:196,1,105,8|0
44,300,183902,1,0
140,340,184073,1,0
140,340,184159,1,0
140,340,184244,2,0,B|140:276|200:240,1,105,8|0
256,192,184586,12,4,187418
256,192,187740,5,0
208,40,188063,5,4
72,112,188224,1,0
100,112,188304,1,0
120,128,188385,1,8
200,208,188546,5,0
168,204,188627,1,0
140,216,188708,1,0
240,280,188869,5,0
280,288,188950,1,0
308,320,189030,1,8
344,184,189192,1,0
368,136,189272,1,0
352,84,189353,6,0,B|296:88|260:136,1,105,2|0
240,236,189675,1,8
148,288,189837,1,0
148,288,189917,1,0
148,288,189998,2,0,B|104:176,1,105
184,44,190321,5,8
208,92,190401,1,0
256,112,190482,1,0
308,112,190563,1,0
352,84,190643,1,4
