osu file format v9

[General]
AudioFilename: Six years.mp3
AudioLeadIn: 0
PreviewTime: 54870
Countdown: 0
SampleSet: Normal
StackLeniency: 0.6
Mode: 0
LetterboxInBreaks: 0

[Editor]
DistanceSpacing: 1
BeatDivisor: 4
GridSize: 4

[Metadata]
Title:Six Trillion Years and Overnight Story
Artist:IA
Creator:tutuhaha
Version:Insane
Source:kemu
Tags:vocaloid vocaloid3 spboxer3

[Difficulty]
HPDrainRate:7
CircleSize:4
OverallDifficulty:7
ApproachRate:8
SliderMultiplier:1.8
SliderTickRate:1

[Events]
//Background and Video events
Video,0,"Six God.flv"
0,0,"BG.jpg"
//Break Periods
2,76360,85088
2,138296,147668
//Storyboard Layer 0 (Background)
//Storyboard Layer 1 (Fail)
//Storyboard Layer 2 (Pass)
//Storyboard Layer 3 (Foreground)
//Storyboard Sound Samples
//Background Colour Transformations
3,100,163,162,255

[TimingPoints]
12935,322.58064516129,4,1,1,80,1,0
23902,-100,4,2,1,70,0,0
24547,-100,4,2,0,80,0,0
24628,-100,4,2,1,60,0,0
34547,-100,4,1,1,60,0,0
34870,-100,4,1,1,70,0,0
45273,-100,4,1,1,10,0,0
45434,-100,4,1,1,70,0,0
47209,-100,4,1,1,10,0,0
47370,-100,4,1,1,70,0,0
47854,-100,4,1,1,10,0,0
48015,-100,4,1,1,70,0,0
49709,-133.333333333333,4,1,1,50,0,0
50354,-200,4,2,1,80,0,0
52209,-100,4,1,1,70,0,0
52934,-100,4,1,1,80,0,0
54870,-100,4,1,1,40,0,0
55515,-100,4,1,1,80,0,1
76160,-100,4,2,0,80,0,0
85838,-100,4,2,1,70,0,0
86483,-100,4,2,0,80,0,0
86564,-100,4,2,1,60,0,0
91322,-100,4,1,1,40,0,0
91644,-200,4,2,1,60,0,0
96160,-100,4,2,1,60,0,0
96805,-100,4,1,1,70,0,0
107128,-100,4,1,1,60,0,0
107209,-100,4,1,1,10,0,0
107370,-100,4,1,1,60,0,0
107693,-100,4,1,1,10,0,0
107854,-100,4,1,1,60,0,0
108418,-100,4,1,1,40,0,0
109064,-100,4,1,1,60,0,0
109789,-100,4,1,1,10,0,0
109951,-100,4,1,1,60,0,0
110273,-100,4,1,1,10,0,0
110434,-100,4,1,1,60,0,0
110999,-100,4,1,1,40,0,0
111644,-200,4,1,1,60,0,0
111725,-200,4,1,1,10,0,0
111886,-200,4,1,1,60,0,0
112289,-200,4,2,1,60,0,0
114064,-100,4,1,1,60,0,0
114870,-100,4,1,1,80,0,0
116805,-100,4,1,1,60,0,0
117451,-100,4,1,1,80,0,1
138096,-100,4,2,0,80,0,0
148418,-100,4,1,1,70,0,0
156160,-100,4,2,0,80,0,0
156241,-100,4,1,1,70,0,0
158741,-100,4,2,0,80,0,0
158822,-100,4,1,1,70,0,0
160031,-100,4,2,0,80,0,0
160112,-100,4,1,1,70,0,0
161967,-100,4,2,1,50,0,0
162612,-100,4,2,0,80,0,0
162693,-100,4,2,1,60,0,0
166483,-100,4,1,1,80,0,0
167773,-100,4,1,1,80,0,1
183902,342.857142857143,4,1,1,80,1,1
184244,342.857142857143,4,1,1,80,1,1
184586,387.096774193548,4,1,1,80,1,0
184779,392.156862745098,4,1,1,80,1,0
184975,419.58041958042,4,1,1,80,1,0
185184,428.571428571429,4,1,1,80,1,0
185398,444.444444444444,4,1,1,80,1,0
185620,500,4,1,1,80,1,0
185870,545.454545454546,4,1,1,80,1,0
186142,319.148936170213,4,1,1,80,1,0
187418,322.58064516129,4,1,1,80,1,0
188063,322.58064516129,4,1,1,80,1,1
190643,-100,4,2,0,80,0,0

[Colours]
Combo1 : 128,0,128
Combo2 : 255,159,64
Combo3 : 128,128,255
Combo4 : 255,128,255

[HitObjects]
64,176,13902,1,0
104,160,13983,1,0
140,136,14064,1,0
164,96,14144,1,0
180,56,14225,2,0,B|296:56|296:56|360:32,1,180,4|0
432,192,14870,6,0,B|324:192,1,90
236,276,15193,2,0,B|332:276,1,90,8|0
216,196,15515,2,0,B|140:144|24:192,1,180,2|0
236,68,16160,6,0,B|284:92|296:152,1,90
308,176,16402,1,0
328,216,16483,2,0,B|360:252|412:260,1,90,8|0
260,296,16805,2,0,B|300:328|344:324,2,90,4|0|0
92,232,17451,5,0
56,100,17612,1,0
108,172,17773,1,8
152,44,17934,1,0
148,132,18096,1,2
256,52,18257,1,0
288,184,18418,5,8
324,208,18499,1,0
368,220,18580,1,0
412,224,18660,1,0
456,216,18741,2,0,B|496:184|488:108|488:108|460:88|412:100,1,180,0|8
340,112,19225,1,0
244,264,19386,6,0,B|200:248|184:196,1,90,4|0
80,112,19709,2,0,B|104:152|96:204,1,90,8|0
164,84,20031,2,0,B|192:44|256:36,1,90
280,60,20273,1,0
320,80,20354,2,0,B|376:80|408:112,1,90,8|0
456,232,20676,6,0,B|376:224|328:156,1,135
292,176,20999,2,0,B|252:192|220:252,1,90,8|0
100,276,21322,2,0,B|124:240,2,45
120,144,21644,2,0,B|168:136|208:68,1,90,8|0
300,104,21967,5,2
344,112,22047,1,0
384,132,22128,1,0
412,168,22209,1,0
432,208,22289,1,8
348,236,22451,6,0,B|296:236,4,45,2|0|0|0|8
212,280,22934,5,2
168,272,23015,1,0
128,252,23096,1,0
100,216,23176,1,0
80,176,23257,1,8
164,148,23418,6,0,B|216:148,4,45,2|0|0|0|8
256,252,23902,6,0,B|256:344|256:344|304:352|352:316,1,180,2|0
420,164,24547,5,4
420,164,24870,1,0
372,88,25031,2,0,B|348:44|300:32,1,90,0|2
144,120,25515,5,0
144,120,25676,2,0,B|112:168|52:180,1,90,0|2
140,340,26160,1,0
256,204,26483,1,2
140,340,26805,5,0
228,340,26967,1,0
308,300,27128,1,2
308,300,27451,6,0,B|336:248|392:236,1,90
464,240,27773,2,0,B|460:188|416:152|416:152|412:104|456:64,2,180,2|0|2
324,128,28741,6,0,B|324:40,2,90,0|0|2
144,104,29386,1,0
144,104,29547,1,0
68,156,29709,6,0,B|100:196|160:196|160:196|164:240|128:288,2,180,2|0|2
208,44,30676,2,0,B|300:44,1,90
300,136,30999,2,0,B|356:132|380:84|380:84|396:132|436:144,2,180,2|0|2
256,312,31967,5,0
256,312,32289,2,0,B|160:288|120:176,1,180,2|0
256,208,32773,2,0,B|356:196|412:108,1,180,2|0
352,44,33257,1,0
352,44,33418,1,2
124,282,33902,6,0,B|124:192,1,90
68,68,34225,2,0,B|100:116|100:116|172:104|200:172,1,180,2|8
256,240,34709,1,0
264,104,34870,6,0,B|324:48|444:68,1,180,4|8
492,132,35354,1,0
360,160,35515,2,0,B|380:192|380:192|380:248,1,90
296,348,35838,2,0,B|276:316|276:316|276:260,1,90,8|0
224,192,36160,5,0
84,80,36483,1,8
56,260,36805,2,0,B|104:244|128:192,1,90
294,139,37128,2,0,B|252:148|224:192,1,90,8|0
240,324,37451,6,0,B|296:312|320:252|320:252|356:268|396:256,2,180,0|8|0
152,304,38257,1,0
76,256,38418,1,8
40,172,38580,1,0
36,84,38741,6,0,B|112:84|160:144,1,135
176,180,39064,2,0,B|276:180,1,90,8|0
364,88,39386,2,0,B|268:88,1,90
176,204,39709,2,0,B|276:204,1,90,8|0
308,224,39951,1,0
336,260,40031,6,0,B|368:312|432:316|432:316|440:276|488:272,1,180,4|8
460,140,40515,1,0
428,112,40596,1,0
392,88,40676,2,0,B|360:36|296:32|296:32|288:72|240:76,1,180,0|8
164,60,41160,1,0
260,156,41322,6,0,B|240:200|192:224,1,90
84,292,41644,2,0,B|56:248|68:192,1,90,8|0
52,164,41886,1,0
40,120,41967,2,0,B|152:120|152:120|224:80,1,180,0|8
388,44,42612,5,0
388,44,42935,1,8
312,92,43096,2,0,B|360:144|420:132|420:132|420:168|400:196,1,180
328,236,43580,2,0,B|328:328,2,90,8|0|2
240,212,44064,5,0
172,156,44225,1,8
124,80,44386,1,0
104,212,44547,6,0,B|140:240|148:284|148:284|204:296|216:352,1,180,0|8
304,328,45031,1,0
392,308,45193,2,0,B|376:261|419:223|419:223|404:180|421:138,1,180,2|8
392,56,45676,1,0
392,56,45999,2,0,B|300:56,1,90,0|8
104,172,47128,6,0,B|140:144|148:100|148:100|204:88|216:32,1,180,0|8
304,56,47612,1,0
392,76,47773,2,0,B|376:122|419:160|419:160|404:203|421:245,1,180,2|8
392,328,48257,1,0
392,328,48580,2,0,B|300:328,1,90,0|8
80,120,49709,6,0,B|44:168,5,45.0000017166138
116,84,50354,6,0,B|172:92|196:136,1,90,4|0
180,308,50999,2,0,B|208:344|260:360|320:340|344:304,2,180,2|4|0
88,60,52612,1,0
100,148,52773,1,0
120,236,52935,6,0,B|168:216|168:216|212:216,1,90,4|0
288,116,53257,2,0,B|240:136|240:136|196:136,1,90,8|0
284,28,53580,1,0
364,64,53741,1,0
392,148,53902,1,8
364,236,54064,1,0
280,272,54225,1,0
280,272,54870,6,0,B|148:272|148:272|100:236,1,180
40,76,55515,6,0,B|136:84|188:184,1,180,4|8
144,304,55999,1,0
144,304,56160,2,0,B|52:288|8:184,1,180,0|8
124,120,56644,5,0
124,120,56805,2,0,B|200:120|260:52,1,135
288,52,57128,2,0,B|392:52,1,90,8|0
340,180,57451,2,0,B|452:172|496:88,1,180,0|8
378,52,57934,1,0
288,52,58096,6,0,B|200:52,1,90,4|0
176,140,58418,2,0,B|72:168,1,90,8|0
88,252,58741,2,0,B|12:312,2,90,0|0|8
180,264,59225,6,0,B|280:228,2,90,0|8|0
220,360,59709,1,0
220,360,59870,1,0
324,364,60031,2,0,B|412:324|440:224,1,180,0|8
304,212,60515,5,0
304,212,60676,2,0,B|360:288|472:284,1,180,4|8
412,160,61160,1,0
340,108,61322,2,0,B|312:64|260:56,1,90
220,136,61644,2,0,B|168:136|120:108,1,90,8|0
72,180,61967,5,0
28,260,62128,1,0
80,332,62289,1,8
164,296,62451,1,0
160,208,62612,1,0
320,48,62935,6,0,B|424:48,1,90,8|0
472,112,63257,1,0
448,200,63418,2,0,B|424:196|404:172,2,45,0|0|8
316,236,63741,2,0,B|296:216|288:176,2,45
184,216,64064,2,0,B|176:184|188:160,2,45,0|0|8
100,348,64386,5,0
140,324,64467,1,0
180,300,64547,1,2
352,352,64709,1,0
292,232,64870,2,0,B|336:200|336:200|464:200,1,180,8|12
252,120,65515,1,0
164,108,65676,1,0
92,56,65838,1,8
88,280,66160,6,0,B|108:224|164:204,1,90
276,248,66483,2,0,B|252:296|176:296|176:296|172:332|144:356,1,180,4|8
200,208,66967,1,0
236,136,67128,6,0,B|260:88|336:88|336:88|340:52|368:28,1,180,0|8
424,100,67612,2,0,B|468:124|488:176,1,90
479,285,67935,2,0,B|440:268|416:224,1,90,0|8
312,136,68257,6,0,B|320:184|300:232,1,90,0|4
214,217,68580,2,0,B|192:244|192:304,2,90,0|8|0
128,192,69064,1,0
48,156,69225,1,0
56,68,69386,1,8
140,36,69547,1,0
188,112,69709,1,0
188,112,70031,5,8
316,64,70193,1,0
296,196,70354,2,0,B|324:236|376:248,1,90
192,212,70676,2,0,B|144:204|112:160,1,90,8|0
244,296,70999,6,0,B|344:312|424:240,1,180,4|8
356,128,71483,1,0
356,128,71644,2,0,B|256:112|176:184,1,180,0|8
152,304,72128,1,0
112,224,72289,6,0,B|84:192|76:136,1,90
152,92,72612,2,0,B|204:64|224:24,1,90,8|0
308,36,72935,1,0
392,68,73096,1,0
436,148,73257,1,8
436,236,73418,1,0
388,312,73580,5,0
320,252,73741,2,0,B|312:224|284:212,2,45,0|0|8
212,332,74064,2,0,B|220:304|212:280,2,45
76,324,74386,2,0,B|104:300|104:268,2,45,0|0|8
180,220,74709,5,0
224,216,74789,1,0
272,212,74870,1,2
444,152,75031,1,0
396,276,75193,2,0,B|368:240|364:176,1,90,8|0
240,140,75515,2,0,B|296:72|408:76,1,180,12|0
484,236,75999,5,0
484,280,76080,1,0
484,324,76160,1,4
88,296,85838,5,2
88,296,86160,2,0,B|60:256|60:200,1,90,2|0
104,84,86483,1,4
104,84,86805,2,0,B|168:88|216:56,1,90
204,204,87128,2,0,B|252:172|272:120|272:120|320:128|340:164,1,180,2|0
424,148,87612,5,0
424,148,87773,1,2
468,324,88096,1,0
376,320,88257,1,0
296,276,88418,1,2
72,264,88741,2,0,B|52:224|56:176,1,90
128,60,89064,6,0,B|156:96|156:152|156:152|196:168|204:216,1,180,2|0
156,292,89547,1,0
156,292,89709,1,2
328,352,90031,2,0,B|372:328|392:280,1,90
348,160,90354,6,0,B|368:208|368:208|432:196|472:240|464:284,2,180,2|0|2
284,96,91160,1,0
200,60,91322,1,0
180,56,91402,1,0
160,52,91483,1,0
80,96,91644,6,0,B|88:148|128:172,1,90,8|2
160,252,92128,1,0
160,252,92289,1,8
424,192,92773,1,0
500,144,92934,2,0,B|476:104|416:92,1,90,8|2
344,56,93418,1,0
344,56,93580,1,8
256,216,93902,5,2
256,216,94225,2,0,B|256:144|188:96,1,135,8|2
52,332,95193,1,2
52,332,95354,1,8
264,164,95838,2,0,B|208:164,1,45,0|0
132,136,96160,6,0,B|152:88|208:76,1,90,2|0
348,192,96483,2,0,B|328:240|272:252,1,90,8|0
148,272,96805,6,0,B|204:352|328:360,1,180,4|8
384,328,97289,1,0
452,268,97451,2,0,B|424:176,1,90
324,92,97773,2,0,B|352:188,1,90,8|0
468,268,98096,6,0,B|440:176,1,90
304,92,98418,2,0,B|332:188,1,90,8|0
208,120,98741,2,0,B|208:180|168:204|168:204|188:240|244:256,1,180,0|8
204,340,99225,1,0
132,288,99386,6,0,B|96:264|76:212|76:212|96:168|76:120,1,180,0|8
140,60,99870,1,0
208,120,100031,2,0,B|240:156|296:164,1,90
420,144,100354,2,0,B|388:108|332:100,1,90,8|0
196,132,100676,6,0,B|228:168|284:176,1,90
428,132,100999,2,0,B|396:96|340:88,1,90,8|0
184,144,101322,2,0,B|148:180,2,45
112,260,101644,2,0,B|156:272|156:272|216:272,1,90,8|0
240,252,101886,1,0
276,224,101967,6,0,B|340:212|340:212|380:232|380:232|472:220,1,180,2|8
476,136,102451,1,0
400,88,102612,2,0,B|336:100|336:100|296:80|296:80|204:92,1,180,0|8
136,84,103096,5,0
136,84,103257,2,0,B|112:172|16:216,1,180,2|8
152,240,103741,1,0
152,240,103902,2,0,B|208:236|244:192,1,90
176,328,104225,2,0,B|128:328|80:284,1,90,8|0
100,160,104547,6,0,B|152:144|180:112|180:112|224:116|272:88,1,180,2|8
332,36,105031,2,0,B|384:44|416:92,1,90
436,212,105354,2,0,B|392:192|364:140,2,90,0|8|0
444,304,105838,5,0
368,348,105999,1,0
236,368,106160,1,8
276,288,106322,1,0
168,264,106483,2,0,B|128:348|12:348,1,180,2|8
28,216,106967,1,0
28,216,107128,6,0,B|32:112|136:48,1,180,2|8
240,104,107612,2,0,B|144:132|64:64,1,180,0|0
140,188,108096,1,0
400,328,108580,1,0
372,188,108741,1,0
256,56,109064,5,2
256,56,109386,1,8
484,216,109709,6,0,B|480:112|376:48,1,180,2|8
272,104,110193,2,0,B|368:132|448:64,1,180
372,188,110676,1,0
140,188,111160,5,0
112,328,111321,1,0
28,260,111483,1,0
32,216,111564,1,0
52,176,111644,6,0,B|72:128|124:108,1,90
292,144,112289,2,0,B|296:100|348:56,1,90,4|2
464,192,112934,1,0
464,192,113257,5,2
424,272,113418,1,0
360,336,113580,2,0,B|292:304|264:224,1,135
192,192,114225,1,4
192,192,114547,5,8
108,164,114709,1,0
44,100,114870,2,0,B|72:56|124:48,1,90,4|0
256,60,115193,2,0,B|224:92|168:100,1,90,8|0
80,252,115515,5,0
152,308,115676,1,0
240,324,115838,1,8
328,308,115999,1,0
400,256,116160,1,0
476,160,116805,6,0,B|476:208,3,45,4|0|0|0
440,232,117128,2,0,B|464:272,3,45
472,308,117451,6,0,B|376:300|324:200,1,180,4|8
368,80,117934,1,0
368,80,118096,2,0,B|460:96|504:200,1,180,0|8
388,264,118580,5,0
388,264,118741,2,0,B|312:264|252:332,1,135
224,332,119064,2,0,B|120:332,1,90,8|0
172,204,119386,2,0,B|60:212|16:296,1,180,0|8
134,332,119870,1,0
224,332,120031,6,0,B|312:332,1,90,4|0
336,244,120354,2,0,B|440:216,1,90,8|0
424,132,120676,2,0,B|500:72,2,90,0|0|8
332,120,121160,6,0,B|232:156,2,90,0|8|0
292,24,121644,1,0
292,24,121805,1,0
188,20,121967,2,0,B|100:60|72:160,1,180,0|8
208,172,122451,5,0
208,172,122612,2,0,B|152:96|40:100,1,180,4|8
100,224,123096,1,0
172,276,123257,2,0,B|200:320|252:328,1,90
292,248,123580,2,0,B|344:248|392:276,1,90,8|0
440,204,123902,5,0
484,124,124064,1,0
432,52,124225,1,8
348,88,124386,1,0
352,176,124547,1,0
192,336,124870,6,0,B|88:336,1,90,8|0
40,272,125192,1,0
64,184,125353,2,0,B|88:188|108:212,2,45,0|0|8
196,148,125676,2,0,B|216:168|224:208,2,45
328,168,125999,2,0,B|336:200|324:224,2,45,0|0|8
412,36,126321,5,0
372,60,126402,1,0
332,84,126482,1,2
160,32,126644,1,0
220,152,126805,2,0,B|176:184|176:184|48:184,1,180,8|12
260,264,127451,1,0
348,276,127612,1,0
420,328,127773,1,8
424,104,128096,6,0,B|404:160|348:180,1,90
236,136,128418,2,0,B|260:88|336:88|336:88|340:52|368:28,1,180,4|8
312,176,128902,1,0
276,248,129064,6,0,B|252:296|176:296|176:296|172:332|144:356,1,180,0|8
88,284,129547,2,0,B|44:260|24:208,1,90
33,99,129870,2,0,B|72:116|96:160,1,90,0|8
200,248,130193,6,0,B|192:200|212:152,1,90,0|4
298,167,130515,2,0,B|320:140|320:80,2,90,0|8|0
384,192,130999,1,0
464,232,131160,1,0
460,324,131322,1,8
372,348,131483,1,0
328,268,131644,1,0
328,268,131967,5,8
196,320,132128,1,0
216,188,132289,2,0,B|188:148|136:136,1,90
320,172,132612,2,0,B|368:180|400:224,1,90,8|0
268,88,132934,6,0,B|168:72|88:144,1,180,4|8
156,256,133418,1,0
156,256,133580,2,0,B|256:272|336:200,1,180,0|8
360,80,134064,1,0
400,160,134225,6,0,B|428:192|436:248,1,90
360,292,134547,2,0,B|308:320|288:360,1,90,8|0
204,348,134870,1,0
120,316,135031,1,0
76,236,135193,1,8
76,148,135354,1,0
124,72,135515,5,0
192,132,135676,2,0,B|200:160|228:172,2,45,0|0|8
300,52,135999,2,0,B|292:80|300:104,2,45
436,60,136321,2,0,B|408:84|408:116,2,45,0|0|8
332,164,136644,5,0
288,168,136724,1,0
240,172,136805,1,2
68,232,136967,1,0
116,108,137128,2,0,B|144:144|148:208,1,90,8|0
276,236,137451,5,0
316,220,137531,1,0
344,188,137612,1,0
348,144,137693,1,0
324,104,137773,2,0,B|288:88|224:104,1,90,8|0
196,260,138096,1,4
92,100,148418,5,2
60,184,148580,2,0,B|116:192|160:156|160:156|176:192|224:204,1,180,0|0
256,104,149064,1,2
300,180,149225,2,0,B|339:189|355:225|355:225|399:189|455:197,1,180
428,284,149709,5,2
364,348,149870,1,0
276,364,150031,1,8
188,352,150193,1,0
120,296,150354,1,8
82,71,150676,2,0,B|92:116,3,45
136,112,150999,6,0,B|200:100|220:48|220:48|256:56|304:40,1,180,2|8
384,144,151483,1,0
296,132,151644,2,0,B|300:184|332:216,1,90,2|0
472,156,151967,2,0,B|468:104|436:72,1,90,8|0
384,144,152289,5,2
412,228,152451,1,0
384,312,152612,1,8
308,360,152773,1,0
220,352,152935,1,2
152,292,153096,1,0
101,167,153257,2,0,B|128:204,3,45,8|0|0|0
172,188,153580,6,0,B|232:160|240:100|240:100|212:84|196:32,1,180,2|8
288,24,154064,1,0
312,156,154225,2,0,B|296:200|252:236,1,90,2|0
420,304,154547,2,0,B|404:260|360:224,1,90,8|0
312,176,154870,6,0,B|312:222|282:271,1,90,2|0
464,278,155193,2,0,B|433:242|380:223,1,90,8|0
312,196,155515,2,0,B|328:239|317:295,1,90,2|0
489,239,155838,2,0,B|448:215|391:216,1,90,8|0
400,172,156080,1,0
396,128,156160,6,0,B|352:44|232:36,1,180,4|8
128,100,156644,1,0
76,172,156805,2,0,B|120:196|176:176,1,90,2|0
264,272,157128,2,0,B|216:280|160:264,1,90,8|0
248,156,157451,6,0,B|344:200|360:312,1,180,0|8
400,164,157935,1,0
480,124,158096,2,0,B|456:84|400:76,1,90,2|0
324,44,158418,2,0,B|268:48|240:88,1,90,8|0
116,44,158741,5,4
112,132,158902,1,0
156,212,159064,1,8
236,252,159225,1,0
116,316,159386,5,4
193,357,159547,1,0
284,350,159709,1,8
354,295,159870,1,0
474,231,160031,5,4
397,190,160193,1,0
306,197,160354,1,8
236,252,160515,1,0
256,120,160676,6,0,B|224:68,5,60,0|0|0|8|0|0
184,272,161967,6,0,B|212:312|256:328|308:312|336:272,1,180,2|2
256,112,162612,1,4
256,112,162935,2,0,B|152:112,1,90,2|0
148,200,163257,2,0,B|88:184|64:128|76:68|112:40,1,180,0|2
228,28,163741,5,0
228,28,163902,2,0,B|288:44|312:100|300:160|264:188,1,180,0|2
272,264,164386,2,0,B|384:264,1,90
472,344,164709,2,0,B|368:344,1,90,0|2
248,352,165031,1,0
272,264,165193,6,0,B|272:168|168:120,1,180,0|2
76,212,165676,1,0
84,300,165838,2,0,B|136:284|160:244,1,90
176,124,166160,2,0,B|208:80|268:76,1,90,2|0
368,144,166483,5,4
256,340,166805,1,8
256,340,166967,1,0
300,184,167128,6,0,B|276:252|276:252|208:248|180:292,1,180,0|8
96,316,167612,1,0
148,192,167773,6,0,B|192:104,1,90,4|0
324,20,168096,2,0,B|283:100,1,90,8|0
304,256,168418,2,0,B|348:168,1,90,0|0
480,84,168741,2,0,B|439:164,1,90,8|0
400,276,169064,5,0
344,344,169225,1,0
252,352,169386,1,8
168,316,169547,1,0
144,228,169709,1,0
72,172,169870,2,0,B|36:136,1,45
48,96,170031,2,0,B|92:88|128:52,1,90,8|0
216,56,170354,1,0
220,148,170515,6,0,B|268:148,2,45,0|0|8
361,240,170838,2,0,B|316:240,2,45,0|0|0
220,328,171160,2,0,B|265:328,2,45,8|0|8
72,188,171483,5,0
72,188,171564,1,0
72,188,171644,1,2
100,56,171805,1,0
200,148,171967,1,8
72,188,172128,1,0
270,110,172289,6,0,B|248:68|200:60,1,90,12|0
220,224,172612,2,0,B|242:266|290:274,1,90,4|0
404,352,172935,6,0,B|376:288|408:208,1,135,4|0
444,200,173257,2,0,B|424:156|372:136,1,90,4|0
292,156,173580,2,0,B|248:136|224:72,1,90,4|0
144,72,173902,1,8
92,144,174064,1,0
36,216,174225,6,0,B|80:244|136:224|136:224|144:268|192:292,1,180,0|8
292,154,174709,2,0,B|220:208,2,90
392,64,175193,2,0,B|284:56,1,90,8|0
392,160,175515,5,4
388,252,175676,1,0
320,312,175838,1,8
232,328,175999,1,0
144,308,176160,2,0,B|96:280|84:224,1,90
108,108,176483,2,0,B|152:140|156:192,1,90,8|0
256,192,176805,5,0
256,192,177128,1,8
304,116,177289,1,0
384,80,177451,2,0,B|432:96|456:132,1,90
481,286,177773,2,0,B|468:248|428:216,1,90,8|0
304,252,178096,6,0,B|360:252|392:292|392:292|364:316|376:368,1,180,4|8
244,344,178580,1,0
244,344,178741,2,0,B|176:264|220:156,1,180,0|8
148,56,179225,1,0
56,56,179386,6,0,B|64:104|100:136,1,90,0|0
228,92,179709,2,0,B|280:72|304:36,1,90,8|0
304,176,180031,2,0,B|368:164|396:112|396:112|432:120|444:164,1,180,0|8
428,244,180515,1,0
356,296,180676,6,0,B|324:336,2,45,4|0|0
220,300,180999,2,0,B|180:340,2,45,8|0|0
304,176,181322,6,0,B|332:148|332:124,2,45
128,160,181644,2,0,B|96:172|80:204,2,45,8|0|0
220,64,181967,5,2
352,40,182128,1,0
460,120,182289,1,8
452,256,182451,1,0
328,308,182612,2,0,B|280:276|260:224,1,90,12|0
224,228,182854,1,0
184,212,182935,2,0,B|140:184|132:116,1,90,8|0
232,44,183257,6,0,B|172:112|56:100,1,180,4|8
64,236,183741,1,0
64,236,183902,2,0,B|136:316,1,90
216,192,184244,2,0,B|210:299,1,90
256,192,184586,12,4,187418
256,192,187740,1,8
88,252,188063,6,0,B|60:228|60:192,2,45,4|0|0
144,80,188385,2,0,B|152:56|188:44,2,45,8|0|0
200,252,188708,5,0
224,292,188788,1,0
260,320,188869,1,0
396,332,189030,1,8
364,300,189111,1,0
348,256,189192,1,0
296,132,189353,6,0,B|344:112|404:128,1,90,2|0
272,48,189675,2,0,B|176:64|128:160,1,180,8|12
76,324,190321,5,0
120,328,190401,1,0
164,320,190482,1,0
204,300,190563,1,0
236,268,190643,1,4
