osu file format v9

[General]
AudioFilename: Six years.mp3
AudioLeadIn: 0
PreviewTime: 54870
Countdown: 0
SampleSet: Normal
StackLeniency: 0.5
Mode: 0
LetterboxInBreaks: 0

[Editor]
DistanceSpacing: 1
BeatDivisor: 4
GridSize: 4

[Metadata]
Title:Six Trillion Years and Overnight Story
Artist:IA
Creator:tutuhaha
Version:Hard
Source:kemu
Tags:vocaloid vocaloid3 spboxer3

[Difficulty]
HPDrainRate:5
CircleSize:4
OverallDifficulty:6
ApproachRate:7
SliderMultiplier:1.6
SliderTickRate:1

[Events]
//Background and Video events
Video,0,"Six God.flv"
0,0,"BG.jpg"
//Break Periods
2,76360,84938
2,138296,147518
//Storyboard Layer 0 (Background)
//Storyboard Layer 1 (Fail)
//Storyboard Layer 2 (Pass)
//Storyboard Layer 3 (Foreground)
//Storyboard Sound Samples
//Background Colour Transformations
3,100,163,162,255

[TimingPoints]
12935,322.58064516129,4,1,1,80,1,0
23902,-100,4,2,1,70,0,0
24547,-100,4,2,0,80,0,0
24628,-100,4,2,1,60,0,0
34547,-100,4,1,1,60,0,0
34870,-100,4,1,1,70,0,0
45273,-100,4,1,1,10,0,0
45434,-100,4,1,1,70,0,0
47854,-100,4,1,1,10,0,0
48015,-100,4,1,1,70,0,0
49709,-100,4,1,1,50,0,0
49789,-100,4,1,1,10,0,0
49951,-100,4,1,1,50,0,0
50354,-200,4,2,1,80,0,0
52209,-100,4,1,1,70,0,0
52934,-100,4,1,1,80,0,0
54870,-100,4,1,1,60,0,0
55515,-100,4,1,1,80,0,1
76160,-100,4,2,0,80,0,0
85838,-100,4,2,1,70,0,0
86483,-100,4,2,0,80,0,0
86564,-100,4,2,1,60,0,0
91322,-100,4,1,1,40,0,0
91644,-200,4,2,1,60,0,0
96160,-100,4,2,1,60,0,0
96805,-100,4,1,1,70,0,0
107128,-100,4,1,1,60,0,0
107209,-100,4,1,1,10,0,0
107370,-100,4,1,1,60,0,0
108418,-100,4,1,1,40,0,0
108822,-100,4,1,1,10,0,0
109064,-100,4,1,1,60,0,0
109789,-100,4,1,1,10,0,0
109951,-100,4,1,1,60,0,0
110999,-100,4,1,1,40,0,0
111644,-200,4,1,1,60,0,0
111725,-200,4,1,1,10,0,0
111886,-200,4,1,1,60,0,0
112289,-200,4,2,1,60,0,0
114064,-100,4,1,1,60,0,0
114870,-100,4,1,1,80,0,0
116805,-100,4,1,1,60,0,0
117451,-100,4,1,1,80,0,1
138096,-100,4,2,0,80,0,0
148418,-100,4,1,1,70,0,0
156160,-100,4,2,0,80,0,0
156241,-100,4,1,1,70,0,0
158741,-100,4,2,0,80,0,0
158822,-100,4,1,1,70,0,0
160031,-100,4,2,0,80,0,0
160112,-100,4,1,1,70,0,0
161967,-100,4,2,1,50,0,0
162612,-100,4,2,0,80,0,0
162693,-100,4,2,1,60,0,0
166483,-100,4,1,1,80,0,0
167773,-100,4,1,1,80,0,1
183902,342.857142857143,4,1,1,80,1,1
184244,342.857142857143,4,1,1,80,1,1
184586,387.096774193548,4,1,1,80,1,0
184779,392.156862745098,4,1,1,80,1,0
184975,419.58041958042,4,1,1,80,1,0
185184,428.571428571429,4,1,1,80,1,0
185398,444.444444444444,4,1,1,80,1,0
185620,500,4,1,1,80,1,0
185870,545.454545454546,4,1,1,80,1,0
186142,319.148936170213,4,1,1,80,1,0
187418,322.58064516129,4,1,1,80,1,0
188063,322.58064516129,4,1,1,80,1,1
190643,-100,4,2,0,80,0,0

[Colours]
Combo1 : 128,0,128
Combo2 : 255,159,64
Combo3 : 128,128,255
Combo4 : 255,128,255

[HitObjects]
48,112,13902,2,0,B|156:112,1,80
164,184,14225,2,0,B|252:184,2,80,4|0|0
264,308,14870,2,0,B|364:308|424:220,1,160,0|8
448,176,15354,1,0
364,172,15515,2,0,B|364:92,2,80,2|0|0
204,112,16160,6,0,B|164:92|152:48,1,80
232,36,16483,2,0,B|272:56|284:100,1,80,8|0
260,172,16805,2,0,B|220:192|220:192|156:192,2,80,2|0|0
144,280,17451,2,0,B|240:280|240:280|308:240,1,160,0|8
344,184,17934,1,0
352,304,18096,6,0,B|407:271|407:271|503:271,1,160,2|8
448,80,18741,2,0,B|448:172,1,80
372,128,19064,2,0,B|372:36,1,80,8|0
292,40,19386,6,0,B|200:44|144:112,1,160,4|8
40,220,20031,2,0,B|60:264|104:280,1,80
172,252,20354,2,0,B|156:208|108:192,1,80,8|0
88,124,20676,6,0,B|120:48|220:24,1,160,0|8
368,48,21322,2,0,B|336:124|236:148,1,160,0|8
220,220,21805,1,0
252,292,21967,6,0,B|336:280|396:204,1,160,2|8
420,136,22451,2,0,B|252:136,1,160,2|8
196,184,22934,2,0,B|108:164|76:72,1,160,2|8
20,136,23418,2,0,B|20:304,1,160,2|8
84,344,23902,5,2
84,344,24225,1,0
144,196,24547,2,0,B|176:120|288:88,1,160,4|0
220,252,25193,2,0,B|280:200|384:204,1,160,2|0
392,280,25676,1,0
448,224,25838,2,0,B|440:136|356:92,2,160,2|0|2
304,156,26805,6,0,B|264:136|252:88,1,80
176,80,27128,2,0,B|92:96|44:176,1,160,2|0
208,164,27773,2,0,B|136:208|136:308,1,160,2|0
208,332,28257,1,0
288,348,28418,6,0,B|356:296|352:196,2,160,2|0|2
256,192,29386,1,0
104,140,29709,6,0,B|144:64|252:52,1,160,2|0
356,76,30193,2,0,B|332:104|288:116,1,80,0|2
288,115,30676,1,0
196,248,30999,6,0,B|252:192|361:201,1,160,2|0
456,251,31483,2,0,B|425:271|379:271,1,80,0|2
379,270,31967,1,0
256,172,32289,6,0,B|256:72|256:72|208:20,1,160,2|0
180,100,32773,2,0,B|180:200|180:200|132:252,1,160,2|2
68,204,33257,2,0,B|100:168|100:168|100:120,1,80,0|2
256,320,33902,5,2
256,320,34225,2,0,B|348:320,1,80,8|0
256,244,34547,2,0,B|168:244,1,80,2|0
104,212,34870,6,0,B|116:120|212:88,1,160,4|8
248,156,35354,1,0
260,36,35515,2,0,B|304:104|416:112,1,160,0|8
472,88,35999,1,0
404,188,36160,6,0,B|404:272,1,80
324,252,36483,2,0,B|324:340,2,80,8|0|0
188,340,37128,5,8
116,304,37289,1,0
64,244,37451,2,0,B|104:208|104:208|104:88,1,160,0|8
104,20,37935,1,0
188,108,38096,2,0,B|228:144|228:144|356:144,1,160,0|8
380,80,38580,1,0
392,200,38741,6,0,B|356:276|264:292,2,160,0|8|0
460,156,39547,2,0,B|460:60,1,80,0|8
380,80,39870,1,0
312,32,40031,6,0,B|224:48|180:132,1,160,4|8
104,112,40515,1,0
176,208,40676,2,0,B|140:288|48:316,2,160,0|8|0
316,128,41644,2,0,B|408:128,2,80,8|0|0
316,128,42289,1,8
316,128,42612,6,0,B|272:196|172:200,1,160,0|8
116,152,43096,1,0
116,152,43580,6,0,B|116:64,2,80,8|0|4
52,200,44064,2,0,B|52:300|52:296,2,80,0|8|0
128,228,44547,1,8
128,228,44870,5,8
176,292,45031,1,0
232,348,45193,2,0,B|396:348,1,160,2|8
372,272,45676,1,0
372,272,45999,2,0,B|404:248|416:200,1,80,0|8
356,72,47128,5,0
356,72,47451,1,8
356,72,47773,2,0,B|192:72,1,160,2|8
148,136,48257,1,0
148,136,48580,2,0,B|116:160|104:208,1,80,0|8
156,312,49709,6,0,B|216:260|320:272,1,160,0|8
168,188,50354,2,0,B|260:188,1,80,4|0
384,100,50999,2,0,B|296:100,1,80,2|0
156,40,51644,2,0,B|128:100|60:124,1,120,4|0
44,196,52289,5,4
44,196,52612,1,8
160,304,52935,2,0,B|196:328|244:324,1,80,4|0
268,252,53257,2,0,B|312:240|336:204,1,80,8|0
304,132,53580,2,0,B|356:64|460:64,2,160,0|8|0
304,132,54870,5,0
304,132,55193,1,0
232,276,55515,6,0,B|128:276|128:276|68:240,1,160,4|8
36,180,55999,1,0
84,116,56160,2,0,B|188:116|188:116|248:152,1,160,0|8
292,204,56644,1,0
316,280,56805,6,0,B|368:308|428:308|428:308|428:252,1,160,0|8
372,208,57289,1,0
292,204,57451,2,0,B|292:120,2,80,0|0|8
220,244,57935,5,0
220,244,58096,2,0,B|188:160|88:128,1,160,4|8
172,84,58580,1,0
256,76,58741,2,0,B|336:76,1,80
432,156,59064,2,0,B|352:156,1,80,8|0
280,192,59386,6,0,B|320:268|416:280,1,160,0|8
480,312,59870,1,0
364,348,60031,2,0,B|196:348,1,160,0|8
132,312,60515,1,0
76,256,60676,6,0,B|88:172|192:132,1,160,4|8
224,76,61160,1,0
268,144,61322,2,0,B|352:132|412:56,2,160,0|8|0
220,208,62128,6,0,B|220:304,2,80,0|8|0
268,144,62612,1,0
136,52,62935,2,0,B|220:52,1,80,8|0
296,60,63257,6,0,B|388:60|440:136,1,160,2|8
380,184,63741,1,0
316,236,63902,2,0,B|232:248|184:336,1,160,0|8
120,284,64386,1,0
64,228,64547,6,0,B|64:136,1,80,2|0
96,76,64870,2,0,B|188:76|188:76|264:36,1,160,8|8
320,188,65515,5,8
320,188,65676,1,0
320,188,65838,1,0
200,292,66160,1,8
140,240,66322,1,0
120,316,66483,6,0,B|32:300|-8:200,1,160,4|8
52,156,66967,1,0
104,96,67128,2,0,B|236:96,1,120
264,100,67451,2,0,B|300:68|352:64,2,80,8|0|0
216,252,68096,6,0,B|264:248|288:200,1,80,8|0
256,328,68418,2,0,B|348:304|384:208,1,160,0|8
456,240,68902,1,0
380,144,69064,2,0,B|352:108|348:48,1,80
276,96,69386,2,0,B|232:84|208:40,1,80,8|0
144,92,69709,1,0
144,92,70031,5,8
84,144,70193,1,0
64,220,70354,2,0,B|140:256,1,80
260,230,70676,2,0,B|188:196,1,80,8|0
216,312,70999,6,0,B|312:324|356:240,1,160,4|8
376,172,71483,1,0
300,144,71644,2,0,B|204:132|160:216,1,160,0|8
84,192,72128,1,0
20,240,72289,6,0,B|48:272|104:280,1,80
132,344,72612,2,0,B|192:280|279:317,1,160,8|0
396,204,73257,2,0,B|396:116,1,80,8|0
364,52,73580,6,0,B|256:52|256:52|200:96,1,160,4|8
144,124,74064,1,0
104,196,74225,2,0,B|212:196|212:196|268:152,1,160,0|8
292,232,74709,1,0
296,312,74870,6,0,B|340:304|368:264,1,80,4|0
436,244,75193,2,0,B|436:68,1,160,8|0
436,84,75838,5,8
256,32,76160,1,4
112,88,85838,6,0,B|200:96|292:40,1,160,2|0
266,54,86483,1,4
208,204,86805,2,0,B|256:188|292:140,1,80
332,108,87128,2,0,B|372:180|468:196,1,160,2|0
440,272,87612,1,0
376,324,87773,6,0,B|300:364|196:336,2,160,2|0|2
244,232,88741,2,0,B|192:228|152:248,1,80
84,248,89064,5,2
188,124,89386,2,0,B|236:112|272:64,1,80
332,60,89709,2,0,B|420:80|456:176,1,160,2|0
392,216,90193,1,0
328,264,90354,6,0,B|160:264,2,160,2|0|2
256,120,91322,1,8
196,68,91483,1,0
120,40,91644,6,0,B|40:92|32:180,1,160,8|8
200,344,92773,1,0
200,344,92934,2,0,B|220:264|304:224,1,160,8|8
428,132,93902,1,2
272,100,94225,6,0,B|208:108|148:56,1,120,8|8
52,280,95193,1,2
52,280,95354,1,8
424,136,96160,2,0,B|332:136,1,80,2|0
372,212,96483,2,0,B|280:212,1,80,8|2
208,204,96805,6,0,B|124:180|100:76,1,160,4|8
36,52,97289,1,0
48,172,97451,2,0,B|64:252|140:304,1,160,0|8
168,372,97934,1,0
248,284,98096,6,0,B|320:240|344:132,2,160,0|8|0
236,124,99064,2,0,B|264:80|312:64,1,80,8|0
176,52,99386,6,0,B|140:108|140:108|140:216,1,160,0|8
68,236,99870,1,0
180,276,100031,2,0,B|232:248|232:248|348:248,1,160,0|8
404,284,100515,1,0
368,168,100676,6,0,B|260:168|260:168|208:124,2,160,0|8|0
372,88,101483,2,0,B|420:96|444:136,2,80,0|8|0
260,40,101967,6,0,B|160:40|104:108,1,160,2|8
72,248,102612,1,8
72,248,102934,2,0,B|176:248,1,80,8|0
176,324,103257,6,0,B|264:300|304:220,1,160,2|8
184,116,103902,2,0,B|148:92|140:48,1,80,8|0
220,44,104225,2,0,B|260:72|264:112,1,80,8|0
308,176,104547,6,0,B|416:176|416:176|472:144,1,160,2|8
476,72,105031,1,0
476,72,105515,6,0,B|376:72,1,80,8|0
320,96,105838,2,0,B|232:96,1,80,2|0
148,172,106160,2,0,B|244:172,1,80,8|0
292,220,106483,2,0,B|384:220,2,80,8|0|8
164,316,107128,6,0,B|80:288|52:192,1,160,2|8
40,128,107612,1,8
40,128,107934,2,0,B|136:128,1,80,0|8
352,184,108580,5,0
364,104,108741,2,0,B|456:104|512:180,1,160,8|0
436,316,109386,1,8
276,304,109709,6,0,B|164:304|164:304|104:276,1,160,2|8
52,240,110193,1,8
52,240,110515,2,0,B|52:140,1,80,0|8
292,172,111160,1,0
348,116,111322,1,8
264,252,111644,6,0,B|264:344,1,80,0|0
140,232,112289,2,0,B|120:188|140:136,1,80,4|0
20,40,112934,2,0,B|44:80|96:88,1,80,2|0
244,68,113580,2,0,B|320:72|356:124,1,120,4|0
388,188,114225,5,8
388,188,114547,1,8
268,292,114870,2,0,B|164:292,1,80,12|0
144,224,115193,2,0,B|40:224,1,80,8|0
152,140,115515,6,0,B|248:140,1,80,8|0
280,76,115838,2,0,B|384:76,2,80,8|0|0
208,252,116805,5,0
208,252,117128,1,0
280,108,117451,6,0,B|384:108|384:108|444:144,1,160,4|8
476,204,117934,1,0
428,268,118096,2,0,B|324:268|324:268|264:232,1,160,0|8
220,180,118580,1,0
196,104,118741,6,0,B|144:76|84:76|84:76|84:132,1,160,0|8
140,176,119225,1,0
220,180,119387,2,0,B|220:264,2,80,0|0|8
292,140,119870,5,0
292,140,120031,2,0,B|324:224|424:256,1,160,4|8
340,300,120515,1,0
256,308,120676,2,0,B|176:308,1,80
80,228,120999,2,0,B|160:228,1,80,8|0
232,192,121322,6,0,B|192:116|96:104,1,160,0|8
32,72,121805,1,0
148,36,121967,2,0,B|316:36,1,160,0|8
380,72,122451,1,0
436,128,122612,6,0,B|424:212|320:252,1,160,4|8
288,308,123096,1,0
244,240,123257,2,0,B|160:252|100:328,2,160,0|8|0
292,176,124064,6,0,B|292:80,2,80,0|8|0
244,240,124547,1,0
376,332,124870,2,0,B|292:332,1,80,8|0
216,324,125193,6,0,B|124:324|72:248,1,160,4|8
132,200,125676,1,0
196,148,125838,2,0,B|280:136|328:48,1,160,0|8
392,100,126322,1,0
448,156,126483,6,0,B|448:248,1,80,2|0
416,308,126805,2,0,B|324:308|324:308|248:348,1,160,8|8
192,196,127451,5,8
192,196,127612,1,0
192,196,127773,1,0
312,92,128096,1,8
372,144,128257,1,0
392,68,128418,6,0,B|480:84|520:184,1,160,4|8
460,228,128902,1,0
408,288,129064,2,0,B|276:288,1,120
248,284,129386,2,0,B|212:316|160:320,2,80,8|0|0
296,132,130031,2,0,B|248:136|224:184,1,80,8|0
256,56,130354,6,0,B|164:80|128:176,1,160,4|8
56,144,130838,1,0
132,240,130999,2,0,B|160:276|164:336,1,80
236,288,131322,2,0,B|280:300|304:344,1,80,8|0
368,292,131644,1,0
368,292,131967,5,8
428,240,132128,1,0
448,164,132289,2,0,B|372:128,1,80
252,154,132612,2,0,B|324:188,1,80,8|0
296,72,132934,6,0,B|200:60|156:144,1,160,4|8
136,212,133418,1,0
212,240,133580,2,0,B|308:252|352:168,1,160,0|8
428,192,134064,1,0
492,144,134225,6,0,B|464:112|408:104,1,80
380,40,134547,2,0,B|320:104|233:67,1,160,8|0
116,180,135193,2,0,B|116:268,1,80,8|0
148,332,135515,6,0,B|256:332|256:332|312:288,1,160,4|8
368,260,135999,1,0
408,188,136160,2,0,B|300:188|300:188|244:232,1,160,0|8
220,152,136644,1,0
216,72,136805,6,0,B|172:80|144:120,1,80,4|0
76,140,137128,2,0,B|76:316,1,160,8|0
76,300,137773,5,8
172,292,137934,1,0
256,244,138096,1,4
68,304,148418,6,0,B|68:224,1,80,2|0
84,64,148902,5,0
68,144,149064,2,0,B|112:148|156:112,1,80,2|0
220,100,149386,2,0,B|220:192,1,80,0|0
192,256,149709,2,0,B|248:272|300:236|300:168,2,160,2|8|2
192,256,150999,6,0,B|192:80,1,160,2|0
256,52,151483,1,0
284,128,151644,2,0,B|332:112|340:56,2,80,2|0|0
304,204,152128,1,0
304,204,152289,2,0,B|416:204|416:204|464:232,2,160,2|8|2
304,364,153257,2,0,B|304:280,1,80,8|0
304,204,153580,6,0,B|300:108|208:56,1,160,2|8
148,60,154064,1,0
180,132,154225,2,0,B|144:200|44:228,1,160,2|8
32,300,154709,1,0
108,328,154870,6,0,B|196:328,1,80,2|0
268,236,155193,2,0,B|184:236,2,80,8|0|2
268,236,155838,5,8
328,288,155999,1,0
400,324,156160,2,0,B|472:272|472:168,1,160,4|8
444,112,156644,1,0
364,100,156805,6,0,B|324:80|312:32,1,80,2|0
236,32,157128,2,0,B|140:32,1,80,8|0
168,112,157451,2,0,B|128:192|24:208,2,160,0|8|2
168,112,158418,5,8
144,272,158741,2,0,B|248:272|248:272|312:248,1,160,4|8
284,172,159225,1,0
264,92,159386,2,0,B|356:92,1,80,2|0
412,192,159709,2,0,B|492:192,1,80,8|0
420,288,160031,6,0,B|376:352|268:356,1,160,4|8
208,320,160515,1,0
144,272,160676,1,2
256,112,161967,5,0
256,112,162289,2,0,B|216:108|168:140|164:196|184:232,1,160,2|4
256,192,163257,5,2
256,192,163902,2,0,B|160:200|88:128,2,160,0|2|0
332,332,164870,1,2
388,276,165031,1,0
428,208,165193,1,0
428,208,165515,6,0,B|428:120,1,80,2|0
388,60,165838,2,0,B|300:52|224:112,1,160,0|2
172,148,166322,1,0
104,192,166483,5,4
256,320,166805,1,8
408,192,167128,1,0
256,60,167451,2,0,B|256:152,1,80,8|0
256,220,167773,6,0,B|168:236|152:332,1,160,4|8
72,340,168257,1,0
72,260,168418,2,0,B|72:156|72:156|104:96,1,160,0|8
140,36,168902,1,0
168,152,169064,6,0,B|212:76,1,80
284,112,169386,2,0,B|328:36,1,80,8|0
392,84,169709,2,0,B|352:152|352:152|352:252,1,160,0|8
204,300,170354,6,0,B|108:292|68:216,1,160,4|8
148,200,170838,1,0
224,220,170999,2,0,B|300:268|316:348,1,160,0|8
396,316,171483,1,0
412,236,171644,6,0,B|412:140,1,80,2|0
356,100,171967,2,0,B|304:60|304:60|200:60,1,160,8|8
64,124,172612,1,8
64,124,172773,1,0
64,124,172935,1,8
88,284,173257,5,8
148,336,173418,1,0
224,360,173580,2,0,B|308:336|344:252,1,160,4|8
304,188,174064,1,0
416,228,174225,6,0,B|488:168|496:68,1,160,0|8
448,28,174709,1,0
388,132,174870,2,0,B|328:76|208:88,1,160,0|8
164,116,175354,1,0
96,156,175515,1,0
96,156,175838,5,8
80,236,175999,1,0
76,316,176160,2,0,B|124:320|164:276,1,80
164,212,176483,2,0,B|208:228|224:268,1,80,8|0
284,312,176805,6,0,B|372:308|432:224,1,160,0|8
468,172,177289,1,0
496,96,177451,1,4
344,164,177773,5,8
316,88,177935,1,0
252,40,178096,1,4
96,80,178418,2,0,B|96:168,1,80,8|0
40,216,178741,2,0,B|88:292|200:304,1,160,0|8
216,236,179225,1,0
228,356,179386,6,0,B|312:356,1,80
396,276,179709,2,0,B|316:276,1,80,8|0
288,200,180031,1,0
220,56,180354,1,8
144,80,180515,1,0
80,128,180676,6,0,B|80:232|80:232|116:288,1,160,4|8
176,324,181160,1,0
256,344,181322,2,0,B|256:240|256:240|220:184,1,160,0|8
156,152,181805,1,0
272,128,181967,6,0,B|304:172|304:172|416:172,2,160,2|8|8
132,48,182935,2,0,B|40:48,1,80,8|0
136,132,183257,6,0,B|224:132,1,80,4|0
132,216,183580,2,0,B|40:216,1,80,8|0
136,300,183902,2,0,B|224:300,1,80
256,232,184244,2,0,B|360:232,1,80
256,192,184586,12,4,187418
256,192,187740,5,0
148,72,188063,6,0,B|68:112|64:216,1,160,0|8
144,184,188546,1,0
204,128,188708,2,0,B|272:80|372:92,1,160,0|8
420,140,189192,5,0
416,220,189353,2,0,B|328:220,1,80,2|0
292,284,189675,1,8
216,316,189837,1,0
136,328,189998,1,8
136,328,190321,5,8
60,236,190482,1,0
156,164,190643,1,4
