osu file format v9

[General]
AudioFilename: IA.mp3
AudioLeadIn: 0
PreviewTime: 54622
Countdown: 0
SampleSet: Normal
StackLeniency: 0.6
Mode: 1
LetterboxInBreaks: 0

[Editor]
Bookmarks: 34863
DistanceSpacing: 0
BeatDivisor: 4
GridSize: 32

[Metadata]
Title:Six Trillion Years and Overnight Story
Artist:IA
Creator:Midasmens
Version:TaikoSi
Source:kemu
Tags:vocaloid vocaloid3 kite shia s_h_i_a Banana Rokuchounen to Ichiya Monogatari

[Difficulty]
HPDrainRate:5
CircleSize:5
OverallDifficulty:5
ApproachRate:5
SliderMultiplier:1.5
SliderTickRate:1

[Events]
//Background and Video events
0,0,"TaikoBG.jpg"
//Break Periods
//Storyboard Layer 0 (Background)
//Storyboard Layer 1 (Fail)
//Storyboard Layer 2 (Pass)
//Storyboard Layer 3 (Foreground)
//Storyboard Sound Samples
//Background Colour Transformations
3,100,163,162,255

[TimingPoints]
12928,322.58064516129,4,1,0,80,1,0
47122,-100,4,1,0,80,0,0
47202,-100,4,1,0,75,0,0
47283,-100,4,1,0,70,0,0
47363,-100,4,1,0,65,0,0
47444,-100,4,1,0,60,0,0
47525,-100,4,1,0,65,0,0
47605,-100,4,1,0,70,0,0
47686,-100,4,1,0,75,0,0
47767,-100,4,1,0,80,0,0
55509,-100,4,1,0,80,0,1
76154,-100,4,1,0,80,0,0
85831,-100,4,1,0,40,0,0
85993,-100,4,1,0,50,0,0
86154,-100,4,1,0,60,0,0
86315,-100,4,1,0,70,0,0
86476,-133.333333333333,4,1,0,80,0,0
96799,-100,4,1,0,80,0,0
117444,-100,4,1,0,80,0,1
138089,-100,4,1,0,80,0,0
165186,-100,4,1,0,20,0,0
165267,-100,4,1,0,25,0,0
165347,-100,4,1,0,30,0,0
165428,-100,4,1,0,35,0,0
165509,-100,4,1,0,40,0,0
165589,-100,4,1,0,45,0,0
165670,-100,4,1,0,50,0,0
165751,-100,4,1,0,55,0,0
165831,-100,4,1,0,60,0,0
165912,-100,4,1,0,65,0,0
165993,-100,4,1,0,70,0,0
166073,-100,4,1,0,75,0,0
166154,-100,4,1,0,80,0,0
167767,-100,4,1,0,80,0,1
184579,326.086956521739,4,1,0,100,1,0
184764,329.67032967033,4,1,0,100,1,0
184979,333.333333333333,4,1,0,100,1,0
185194,337.078651685393,4,1,0,100,1,0
185376,340.909090909091,4,1,0,100,1,0
185631,348.837209302326,4,1,0,100,1,0
185861,389.61038961039,4,1,0,100,1,0
186153,428.571428571429,4,1,0,100,1,0
187414,322.58064516129,4,1,0,100,1,0

[Colours]
Combo1 : 255,0,128
Combo2 : 202,138,43
Combo3 : 255,128,128
Combo4 : 128,128,192

[HitObjects]
256,192,13896,1,0
256,192,13976,1,0
256,192,14057,1,0
256,192,14218,1,12
256,192,14380,1,4
256,192,14541,1,8
256,192,14702,1,0
256,192,14783,1,0
256,192,14863,1,8
256,192,14944,1,8
256,192,15025,1,8
256,192,15105,1,8
256,192,15186,1,0
256,192,15347,1,0
256,192,15509,1,12
256,192,15670,1,4
256,192,15831,1,8
256,192,15993,1,0
256,192,16073,1,0
256,192,16154,1,8
256,192,16234,1,8
256,192,16315,1,8
256,192,16396,1,8
256,192,16476,1,0
256,192,16638,1,0
256,192,16799,1,12
256,192,16960,1,4
256,192,17122,1,8
256,192,17283,1,0
256,192,17444,1,0
256,192,17525,1,8
256,192,17605,1,8
256,192,17686,1,8
256,192,17767,1,0
256,192,17928,1,0
256,192,18089,1,0
256,192,18251,1,8
256,192,18412,1,0
256,192,18493,1,0
256,192,18573,1,8
256,192,18653,1,8
256,192,18734,1,0
256,192,18896,1,0
256,192,18976,1,0
256,192,19057,1,8
256,192,19138,1,8
256,192,19218,1,8
256,192,19299,1,8
256,192,19380,1,0
256,192,19541,1,8
256,192,19702,1,0
256,192,19863,1,8
256,192,19944,1,0
256,192,20025,1,8
256,192,20105,1,8
256,192,20186,1,8
256,192,20267,1,0
256,192,20347,1,8
256,192,20509,1,0
256,192,20670,1,0
256,192,20831,1,8
256,192,20993,1,0
256,192,21154,1,0
256,192,21234,1,0
256,192,21315,1,8
256,192,21396,1,8
256,192,21476,1,8
256,192,21557,1,8
256,192,21637,1,0
256,192,21799,1,0
256,192,21880,1,0
256,192,21960,1,8
256,192,22041,1,8
256,192,22122,1,8
256,192,22202,1,0
256,192,22283,1,8
256,192,22444,1,8
256,192,22525,1,0
256,192,22605,1,8
256,192,22686,1,8
256,192,22767,1,0
256,192,22928,1,0
256,192,23009,1,0
256,192,23089,1,0
256,192,23170,1,8
256,192,23251,1,8
256,192,23411,1,8
256,192,23493,1,8
256,192,23573,1,0
256,192,23654,1,0
256,192,23734,1,8
256,192,23895,1,8
256,192,24218,1,8
256,192,24540,5,12
256,192,24702,1,0
256,192,24863,1,0
256,192,25025,1,0
256,192,25105,1,0
256,192,25186,1,8
256,192,25347,1,0
256,192,25428,1,0
256,192,25509,1,8
256,192,25589,1,8
256,192,25670,1,8
256,192,25750,1,0
256,192,25831,1,8
256,192,25992,1,0
256,192,26154,1,8
256,192,26315,1,8
256,192,26476,1,0
256,192,26638,1,8
256,192,26799,1,8
256,192,26880,1,0
256,192,26960,1,8
256,192,27041,1,8
256,192,27122,1,0
256,192,27283,1,0
256,192,27444,1,8
256,192,27605,1,0
256,192,27767,1,0
256,192,27847,1,0
256,192,27927,1,0
256,192,28089,1,8
256,192,28250,1,8
256,192,28331,1,0
256,192,28412,1,0
256,192,28573,1,0
256,192,28734,1,8
256,192,28896,1,0
256,192,29057,1,0
256,192,29218,1,0
256,192,29380,1,0
256,192,29460,1,0
256,192,29541,1,8
256,192,29622,1,8
256,192,29702,1,0
256,192,30025,1,0
256,192,30186,1,8
256,192,30347,1,0
256,192,30509,1,8
256,192,30670,1,0
256,192,30831,1,8
256,192,30993,1,0
256,192,31073,1,0
256,192,31154,1,8
256,192,31234,1,8
256,192,31315,1,0
256,192,31476,1,8
256,192,31638,1,0
256,192,31798,1,0
256,192,31879,1,0
256,192,31960,1,8
256,192,32040,1,0
256,192,32121,1,0
256,192,32283,1,0
256,192,32444,1,0
256,192,32605,1,0
256,192,32767,1,0
256,192,33089,1,0
256,192,33250,1,8
256,192,33412,1,0
256,192,33573,1,0
256,192,33734,1,0
256,192,33896,1,8
256,192,34057,1,8
256,192,34138,1,8
256,192,34218,1,0
256,192,34380,1,0
256,192,34541,1,0
256,192,34622,1,0
256,192,34702,1,8
256,192,34783,1,8
256,192,34863,5,0
256,192,35025,1,0
256,192,35186,1,8
256,192,35347,1,0
256,192,35428,1,0
256,192,35509,1,0
256,192,35670,1,0
256,192,35831,1,8
256,192,35993,1,8
256,192,36073,1,0
256,192,36154,1,0
256,192,36315,1,0
256,192,36476,1,8
256,192,36638,1,0
256,192,36798,1,8
256,192,36960,1,0
256,192,37122,1,8
256,192,37202,1,0
256,192,37283,1,0
256,192,37363,1,8
256,192,37444,1,0
256,192,37605,1,0
256,192,37767,1,8
256,192,37928,1,0
256,192,38009,1,0
256,192,38089,1,0
256,192,38251,1,0
256,192,38412,1,8
256,192,38573,1,8
256,192,38654,1,0
256,192,38734,1,0
256,192,38896,1,0
256,192,39057,1,8
256,192,39218,1,0
256,192,39380,1,0
256,192,39460,1,8
256,192,39541,1,0
256,192,39622,1,0
256,192,39702,1,8
256,192,39863,1,8
256,192,40025,1,0
256,192,40347,1,8
256,192,40509,1,0
256,192,40669,1,0
256,192,40751,1,0
256,192,40831,1,8
256,192,40993,1,8
256,192,41154,1,0
256,192,41315,1,8
256,192,41396,1,0
256,192,41476,1,0
256,192,41638,1,8
256,192,41799,1,0
256,192,41960,1,8
256,192,42041,1,8
256,192,42122,1,0
256,192,42202,1,0
256,192,42283,1,8
256,192,42444,1,8
256,192,42605,1,0
256,192,42686,1,0
256,192,42767,1,0
256,192,42928,1,8
256,192,43008,1,0
256,192,43089,1,8
256,192,43250,1,0
256,192,43331,1,0
256,192,43411,1,8
256,192,43493,1,8
256,192,43573,1,0
256,192,43654,1,0
256,192,43734,1,8
256,192,43896,1,0
256,192,44057,1,8
256,192,44218,1,0
256,192,44299,1,8
256,192,44460,1,8
256,192,44541,1,0
256,192,44702,1,8
256,192,44863,1,8
256,192,44944,1,8
256,192,45025,1,0
256,192,45105,1,0
256,192,45186,1,8
256,192,45509,5,0
256,192,45670,1,8
256,192,45993,1,0
256,192,46154,1,8
256,192,47121,1,0
256,192,47282,1,8
256,192,47444,1,8
256,192,47524,1,8
256,192,47605,1,0
256,192,47766,1,0
256,192,48089,1,0
256,192,48251,1,8
256,192,48573,1,0
256,192,48734,1,8
256,192,49541,1,8
256,192,49622,1,8
256,192,49702,1,0
256,192,49810,1,0
256,192,49917,1,0
256,192,50025,1,0
256,192,50132,1,0
256,192,50240,1,0
256,192,50347,1,0
256,192,50670,1,8
256,192,50831,1,0
256,192,50992,1,8
256,192,51154,1,0
256,192,51315,1,0
256,192,51476,1,0
256,192,51638,1,8
256,192,52122,1,0
256,192,52202,1,0
256,192,52283,1,8
256,192,52444,1,8
256,192,52525,1,8
256,192,52605,1,0
256,192,52767,1,0
256,192,52928,1,8
256,192,53089,1,0
256,192,53170,1,0
256,192,53251,1,8
256,192,53412,1,8
256,192,53573,1,0
256,192,53734,1,0
256,192,53896,1,8
256,192,54057,1,0
256,192,54218,1,8
256,192,54863,5,0
256,192,55186,1,8
256,192,55509,5,4
256,192,55670,1,8
256,192,55751,1,0
256,192,55831,1,0
256,192,55993,1,8
256,192,56154,1,0
256,192,56315,1,0
256,192,56396,1,8
256,192,56476,1,0
256,192,56638,1,8
256,192,56799,1,0
256,192,56879,1,8
256,192,56960,1,8
256,192,57041,1,0
256,192,57121,1,8
256,192,57283,1,0
256,192,57444,1,0
256,192,57605,1,8
256,192,57686,1,0
256,192,57767,1,0
256,192,57928,1,8
256,192,58089,1,0
256,192,58251,1,8
256,192,58331,1,8
256,192,58412,1,0
256,192,58573,1,0
256,192,58734,1,0
256,192,58815,1,0
256,192,58896,1,8
256,192,58976,1,0
256,192,59057,1,0
256,192,59218,1,8
256,192,59380,1,0
256,192,59460,1,0
256,192,59541,1,0
256,192,59702,1,8
256,192,59783,1,0
256,192,59863,1,0
256,192,60025,1,8
256,192,60105,1,0
256,192,60186,1,0
256,192,60267,1,0
256,192,60347,1,8
256,192,60508,1,0
256,192,60589,1,0
256,192,60670,1,8
256,192,60831,1,0
256,192,60912,1,0
256,192,60993,1,8
256,192,61154,1,8
256,192,61234,1,8
256,192,61315,1,0
256,192,61476,1,0
256,192,61638,1,8
256,192,61799,1,0
256,192,61960,1,0
256,192,62122,1,8
256,192,62202,1,8
256,192,62283,1,0
256,192,62363,1,0
256,192,62444,1,8
256,192,62605,1,4
256,192,62927,1,0
256,192,63089,1,8
256,192,63251,1,4
256,192,63412,1,8
256,192,63493,1,8
256,192,63573,1,0
256,192,63734,1,8
256,192,63815,1,8
256,192,63896,1,0
256,192,64057,1,8
256,192,64138,1,8
256,192,64218,1,0
256,192,64380,1,0
256,192,64460,1,0
256,192,64541,1,8
256,192,64702,1,0
256,192,64863,1,8
256,192,65025,1,0
256,192,65186,1,8
256,192,65509,1,8
256,192,65669,1,0
256,192,65831,1,0
256,192,65912,1,0
256,192,65992,1,0
256,192,66154,5,12
256,192,66315,1,0
256,192,66476,1,0
256,192,66557,1,0
256,192,66638,1,8
256,192,66718,1,8
256,192,66799,1,0
256,192,66960,1,8
256,192,67122,1,0
256,192,67282,1,8
256,192,67363,1,8
256,192,67444,1,0
256,192,67605,1,8
256,192,67767,1,0
256,192,67927,1,0
256,192,68009,1,0
256,192,68089,1,8
256,192,68251,1,0
256,192,68412,1,8
256,192,68573,1,0
256,192,68654,1,0
256,192,68734,1,0
256,192,68896,1,8
256,192,69057,1,8
256,192,69138,1,0
256,192,69218,1,0
256,192,69380,1,8
256,192,69460,1,0
256,192,69541,1,0
256,192,69702,1,12
256,192,70025,1,0
256,192,70186,1,4
256,192,70347,1,12
256,192,70509,1,0
256,192,70670,1,0
256,192,70751,1,0
256,192,70831,1,8
256,192,70993,1,8
256,192,71154,1,0
256,192,71234,1,0
256,192,71315,1,8
256,192,71476,1,0
256,192,71638,1,8
256,192,71718,1,8
256,192,71799,1,0
256,192,71880,1,0
256,192,71960,1,8
256,192,72122,1,0
256,192,72283,1,8
256,192,72444,1,0
256,192,72525,1,0
256,192,72605,1,8
256,192,72767,1,0
256,192,72928,1,8
256,192,73009,1,0
256,192,73089,1,8
256,192,73170,1,8
256,192,73251,1,0
256,192,73412,1,8
256,192,73573,1,0
256,192,73734,1,0
256,192,73815,1,0
256,192,73896,1,8
256,192,74057,1,8
256,192,74138,1,8
256,192,74218,1,0
256,192,74380,1,0
256,192,74460,1,0
256,192,74541,1,8
256,192,74702,1,0
256,192,74863,1,0
256,192,74944,1,0
256,192,75025,1,8
256,192,75186,1,12
256,192,75347,1,4
256,192,75509,1,12
256,192,75831,5,0
256,192,75911,1,0
256,192,75992,1,0
256,192,76153,1,12
256,192,76315,1,0
256,192,76476,1,8
256,192,76637,1,0
256,192,76718,1,0
256,192,76798,1,8
256,192,76879,1,8
256,192,76960,1,8
256,192,77040,1,8
256,192,77121,1,0
256,192,77282,1,0
256,192,77444,1,12
256,192,77605,1,4
256,192,77766,1,8
256,192,77928,1,0
256,192,78008,1,0
256,192,78089,1,8
256,192,78169,1,8
256,192,78250,1,8
256,192,78331,1,8
256,192,78411,1,0
256,192,78573,1,0
256,192,78734,1,12
256,192,78895,1,4
256,192,79057,1,8
256,192,79218,1,0
256,192,79379,1,0
256,192,79460,1,8
256,192,79540,1,8
256,192,79621,1,8
256,192,79702,1,0
256,192,79863,1,0
256,192,80024,1,0
256,192,80186,1,8
256,192,80347,1,0
256,192,80428,1,0
256,192,80508,1,8
256,192,80588,1,8
256,192,80669,1,0
256,192,80831,1,0
256,192,80911,1,0
256,192,80992,1,8
256,192,81073,1,8
256,192,81153,1,8
256,192,81234,1,8
256,192,81315,1,0
256,192,81476,1,8
256,192,81637,1,0
256,192,81798,1,8
256,192,81879,1,0
256,192,81960,1,8
256,192,82040,1,8
256,192,82121,1,8
256,192,82202,1,0
256,192,82282,1,8
256,192,82444,1,0
256,192,82605,1,0
256,192,82766,1,8
256,192,82928,1,0
256,192,83089,1,0
256,192,83169,1,0
256,192,83250,1,8
256,192,83331,1,8
256,192,83411,1,8
256,192,83492,1,8
256,192,83572,1,0
256,192,83734,1,0
256,192,83815,1,0
256,192,83895,1,8
256,192,83976,1,8
256,192,84057,1,8
256,192,84137,1,0
256,192,84218,1,8
256,192,84379,1,8
256,192,84460,1,0
256,192,84540,1,8
256,192,84621,1,8
256,192,84702,1,0
256,192,84863,1,0
256,192,84944,1,0
256,192,85024,1,0
256,192,85105,1,8
256,192,85186,1,8
256,192,85346,1,8
256,192,85428,1,8
256,192,85508,1,0
256,192,85589,1,0
256,192,85669,1,8
256,192,85830,1,0
256,192,86153,1,8
256,192,86475,1,12
256,192,88895,1,0
256,192,89057,1,4
256,192,91153,1,0
256,192,91638,1,8
256,192,92122,1,0
256,192,92283,1,0
256,192,92767,1,8
256,192,93089,1,8
256,192,93412,1,0
256,192,93734,1,0
256,192,94057,1,8
256,192,94380,1,0
256,192,94702,1,0
256,192,94863,1,8
256,192,95186,1,0
256,192,95347,1,8
256,192,96476,1,4
256,192,96799,5,0
256,192,96960,1,0
256,192,97122,1,8
256,192,97283,1,0
256,192,97363,1,0
256,192,97444,1,8
256,192,97605,1,0
256,192,97766,1,8
256,192,97928,1,0
256,192,98008,1,8
256,192,98089,1,8
256,192,98251,1,0
256,192,98412,1,0
256,192,98573,1,0
256,192,98734,1,8
256,192,98815,1,0
256,192,99057,1,0
256,192,99218,1,8
256,192,99380,1,0
256,192,99541,1,8
256,192,99621,1,0
256,192,99702,1,8
256,192,99863,1,0
256,192,100025,1,0
256,192,100186,1,0
256,192,100266,1,0
256,192,100347,1,8
256,192,100509,1,8
256,192,100670,1,0
256,192,100751,1,0
256,192,100831,1,0
256,192,100993,1,8
256,192,101154,1,0
256,192,101315,1,0
256,192,101396,1,8
256,192,101476,1,0
256,192,101638,1,8
256,192,101799,1,8
256,192,101960,1,0
256,192,102122,1,8
256,192,102202,1,0
256,192,102283,1,8
256,192,102444,1,8
256,192,102605,1,0
256,192,102767,1,0
256,192,102847,1,0
256,192,102928,1,8
256,192,103089,1,8
256,192,103251,1,8
256,192,103331,1,0
256,192,103412,1,0
256,192,103493,1,0
256,192,103573,1,8
256,192,103734,1,8
256,192,103896,1,0
256,192,104218,1,8
256,192,104541,1,8
256,192,104702,1,0
256,192,104863,1,8
256,192,105025,1,0
256,192,105347,1,0
256,192,105508,1,8
256,192,105670,1,12
256,192,105831,1,0
256,192,105993,1,8
256,192,106154,1,8
256,192,106234,1,0
256,192,106315,1,0
256,192,106476,1,8
256,192,106557,1,0
256,192,106637,1,8
256,192,106718,1,8
256,192,106799,1,8
256,192,106880,1,0
256,192,106960,1,0
256,192,107122,1,4
256,192,107444,1,12
256,192,107605,1,4
256,192,107928,1,12
256,192,108089,1,4
256,192,108573,1,8
256,192,108734,1,0
256,192,108815,1,0
256,192,108895,1,0
256,192,108976,1,0
256,192,109057,1,8
256,192,109138,1,8
256,192,109218,1,8
256,192,109299,1,0
256,192,109380,1,8
256,192,109540,1,8
256,192,109621,1,8
256,192,109702,1,0
256,192,110025,1,12
256,192,110186,1,4
256,192,110509,1,12
256,192,110670,1,4
256,192,111154,1,0
256,192,111234,1,0
256,192,111315,1,8
256,192,111423,1,8
256,192,111530,1,8
256,192,111638,1,8
256,192,111745,1,8
256,192,111853,1,8
256,192,111960,1,8
256,192,112068,1,8
256,192,112175,1,8
256,192,112283,1,8
256,192,112605,1,0
256,192,112927,1,8
256,192,113250,1,0
256,192,113573,1,8
256,192,114057,1,0
256,192,114138,1,0
256,192,114218,1,8
256,192,114299,1,8
256,192,114380,1,8
256,192,114460,1,8
256,192,114541,1,8
256,192,114702,1,0
256,192,114863,1,0
256,192,115025,1,8
256,192,115186,1,0
256,192,115347,1,8
256,192,115509,1,0
256,192,115589,1,0
256,192,115670,1,0
256,192,115751,1,8
256,192,115831,1,0
256,192,115912,1,0
256,192,115993,1,8
256,192,116073,1,0
256,192,116154,1,0
256,192,116476,1,12
256,192,116799,1,0
256,192,116880,1,0
256,192,116960,1,0
256,192,117041,1,0
256,192,117122,1,8
256,192,117202,1,8
256,192,117283,1,8
256,192,117363,1,8
256,192,117444,5,0
256,192,117605,1,8
256,192,117686,1,0
256,192,117766,1,0
256,192,117928,1,8
256,192,118089,1,0
256,192,118250,1,0
256,192,118331,1,8
256,192,118411,1,0
256,192,118573,1,8
256,192,118734,1,0
256,192,118815,1,0
256,192,118895,1,0
256,192,118976,1,8
256,192,119057,1,8
256,192,119218,1,0
256,192,119379,1,0
256,192,119540,1,8
256,192,119621,1,0
256,192,119702,1,0
256,192,119863,1,8
256,192,120024,1,0
256,192,120105,1,8
256,192,120186,1,8
256,192,120266,1,8
256,192,120347,1,0
256,192,120508,1,0
256,192,120669,1,0
256,192,120750,1,0
256,192,120831,1,8
256,192,120911,1,0
256,192,120992,1,0
256,192,121153,1,8
256,192,121315,1,0
256,192,121395,1,0
256,192,121476,1,0
256,192,121637,1,8
256,192,121718,1,0
256,192,121798,1,0
256,192,121960,1,8
256,192,122040,1,0
256,192,122121,1,0
256,192,122202,1,0
256,192,122282,1,8
256,192,122363,1,0
256,192,122444,1,8
256,192,122524,1,8
256,192,122605,1,8
256,192,122766,1,0
256,192,122847,1,0
256,192,122928,1,8
256,192,123089,1,8
256,192,123169,1,8
256,192,123250,1,8
256,192,123331,1,8
256,192,123411,1,0
256,192,123492,1,0
256,192,123573,1,0
256,192,123734,1,0
256,192,123895,1,0
256,192,124057,1,8
256,192,124137,1,8
256,192,124218,1,0
256,192,124379,1,8
256,192,124540,1,12
256,192,124782,1,4
256,192,125024,1,0
256,192,125186,1,8
256,192,125266,1,8
256,192,125347,1,0
256,192,125428,1,0
256,192,125508,1,8
256,192,125589,1,8
256,192,125669,1,0
256,192,125750,1,0
256,192,125831,1,8
256,192,125992,1,0
256,192,126073,1,0
256,192,126153,1,8
256,192,126315,1,8
256,192,126395,1,8
256,192,126476,1,0
256,192,126637,1,4
256,192,126798,1,4
256,192,126960,1,12
256,192,127121,1,4
256,192,127444,1,12
256,192,127766,1,0
256,192,127847,1,0
256,192,127928,1,0
256,192,128008,1,0
256,192,128089,5,0
256,192,128250,1,4
256,192,128411,1,8
256,192,128492,1,8
256,192,128573,1,8
256,192,128653,1,8
256,192,128734,1,8
256,192,128895,1,12
256,192,129057,1,0
256,192,129298,1,0
256,192,129379,1,0
256,192,129540,1,0
256,192,129702,1,8
256,192,129782,1,8
256,192,129944,1,0
256,192,130024,1,0
256,192,130105,1,8
256,192,130186,1,8
256,192,130266,1,8
256,192,130347,1,8
256,192,130508,1,0
256,192,130589,1,0
256,192,130669,1,0
256,192,130831,1,8
256,192,130992,1,8
256,192,131073,1,0
256,192,131153,1,0
256,192,131315,1,8
256,192,131395,1,0
256,192,131476,1,0
256,192,131637,1,12
256,192,131960,1,4
256,192,132121,1,4
256,192,132282,1,12
256,192,132444,1,12
256,192,132605,1,0
256,192,132686,1,8
256,192,132766,1,0
256,192,132847,1,0
256,192,132928,1,8
256,192,133089,1,0
256,192,133169,1,8
256,192,133250,1,0
256,192,133411,1,0
256,192,133573,1,0
256,192,133653,1,8
256,192,133734,1,0
256,192,133815,1,0
256,192,133895,1,8
256,192,134057,1,0
256,192,134218,1,8
256,192,134298,1,0
256,192,134379,1,0
256,192,134460,1,8
256,192,134540,1,0
256,192,134702,1,0
256,192,134863,1,8
256,192,134944,1,0
256,192,135024,1,0
256,192,135105,1,8
256,192,135186,1,0
256,192,135347,1,8
256,192,135508,1,0
256,192,135669,1,8
256,192,135750,1,8
256,192,135831,1,8
256,192,135992,1,0
256,192,136073,1,0
256,192,136153,1,0
256,192,136315,1,8
256,192,136396,1,8
256,192,136476,1,8
256,192,136638,1,0
256,192,136718,1,0
256,192,136799,1,0
256,192,136960,1,8
256,192,137122,1,12
256,192,137283,1,8
256,192,137444,1,12
256,192,137605,1,0
256,192,137767,1,0
256,192,137847,1,0
256,192,137928,1,0
256,192,138009,1,0
256,192,138089,5,8
256,192,138251,1,0
256,192,138331,1,0
256,192,138412,1,0
256,192,138573,1,0
256,192,138734,1,8
256,192,138896,1,0
256,192,138976,1,0
256,192,139057,1,0
256,192,139218,1,0
256,192,139380,1,8
256,192,139541,1,0
256,192,139702,1,8
256,192,139863,1,0
256,192,140025,1,0
256,192,140105,1,8
256,192,140186,1,8
256,192,140267,1,0
256,192,140347,1,0
256,192,140428,1,8
256,192,140509,1,0
256,192,140589,1,0
256,192,140670,1,8
256,192,141315,1,12
256,192,141638,1,0
256,192,141799,1,4
256,192,141960,1,8
256,192,142041,1,0
256,192,142122,1,0
256,192,142202,1,0
256,192,142283,1,8
256,192,142363,1,0
256,192,142444,1,0
256,192,142525,1,0
256,192,142605,1,8
256,192,142686,1,0
256,192,142767,1,8
256,192,142847,1,0
256,192,142928,1,8
256,192,143009,1,8
256,192,143089,1,8
256,192,143170,1,8
256,192,143251,1,0
256,192,143412,1,0
256,192,143573,1,8
256,192,143734,1,0
256,192,143896,1,0
256,192,144057,1,0
256,192,144218,1,8
256,192,144299,1,0
256,192,144380,1,0
256,192,144460,1,8
256,192,144541,1,0
256,192,144702,1,8
256,192,144863,1,0
256,192,144944,1,0
256,192,145025,1,0
256,192,145186,1,8
256,192,145347,1,0
256,192,145508,1,0
256,192,145589,1,0
256,192,145670,1,8
256,192,145751,1,0
256,192,145831,1,0
256,192,145912,1,0
256,192,145992,1,8
256,192,146073,1,0
256,192,146154,1,0
256,192,146234,1,0
256,192,146315,1,8
256,192,146396,1,0
256,192,146476,1,8
256,192,146557,1,0
256,192,146638,1,8
256,192,146718,1,0
256,192,146799,1,8
256,192,146880,1,8
256,192,146960,1,8
256,192,147041,1,0
256,192,147122,1,8
256,192,147202,1,0
256,192,147283,1,8
256,192,147363,1,0
256,192,147444,1,8
256,192,147525,1,0
256,192,147605,1,8
256,192,147686,1,0
256,192,147767,1,8
256,192,147847,1,0
256,192,147927,1,8
256,192,148009,1,0
256,192,148089,1,8
256,192,148170,1,0
256,192,148251,1,8
256,192,148331,1,8
256,192,148412,5,0
256,192,148573,1,12
256,192,149057,1,4
256,192,149218,1,12
256,192,149702,1,4
256,192,150025,1,4
256,192,150347,1,12
256,192,150509,1,8
256,192,150670,1,8
256,192,150751,1,0
256,192,150831,1,8
256,192,150912,1,0
256,192,150993,1,8
256,192,151154,1,0
256,192,151476,1,0
256,192,151557,1,0
256,192,151638,1,0
256,192,151799,1,8
256,192,152122,1,0
256,192,152202,1,0
256,192,152283,1,0
256,192,152444,1,8
256,192,152605,1,4
256,192,152928,1,4
256,192,153089,1,0
256,192,153251,1,8
256,192,153331,1,0
256,192,153412,1,0
256,192,153493,1,0
256,192,153573,1,0
256,192,153734,1,0
256,192,153896,1,8
256,192,154057,1,0
256,192,154218,1,0
256,192,154541,1,8
256,192,154702,1,0
256,192,154863,1,8
256,192,155025,1,0
256,192,155186,1,0
256,192,155267,1,0
256,192,155347,1,0
256,192,155509,1,8
256,192,155589,1,8
256,192,155670,1,8
256,192,155831,1,0
256,192,155939,1,0
256,192,156046,1,0
256,192,156154,1,0
256,192,156638,1,0
256,192,156799,1,12
256,192,157283,1,0
256,192,157444,1,12
256,192,157605,1,0
256,192,157767,1,8
256,192,158089,1,12
256,192,158251,1,0
256,192,158412,1,8
256,192,158493,1,0
256,192,158573,1,8
256,192,158654,1,0
256,192,158734,1,0
256,192,159057,1,0
256,192,159218,1,0
256,192,159380,1,8
256,192,159541,1,0
256,192,159622,1,0
256,192,159702,1,8
256,192,159863,1,8
256,192,160025,1,0
256,192,160186,1,0
256,192,160347,1,8
256,192,160509,1,8
256,192,160670,1,0
256,192,160777,1,0
256,192,160885,1,0
256,192,160993,1,0
256,192,161100,1,0
256,192,161208,1,0
256,192,161960,1,0
256,192,162282,1,8
256,192,162605,1,12
256,192,162927,5,0
256,192,163089,1,0
256,192,163250,1,8
256,192,163573,1,0
256,192,163734,1,0
256,192,163895,1,0
256,192,164057,1,0
256,192,164137,1,0
256,192,164218,1,8
256,192,164379,1,0
256,192,164540,1,8
256,192,164863,1,0
256,192,165025,1,8
256,192,165186,1,0
256,192,165347,1,0
256,192,165427,1,0
256,192,165508,1,8
256,192,165669,1,8
256,192,165750,1,0
256,192,165831,1,8
256,192,165992,1,0
256,192,166073,1,0
256,192,166153,1,8
256,192,166315,1,8
256,192,166476,1,12
256,192,166799,1,0
256,192,166960,1,0
256,192,167122,1,8
256,192,167283,1,0
256,192,167444,1,8
256,192,167525,1,8
256,192,167605,1,0
256,192,167686,1,0
256,192,167767,5,8
256,192,167927,1,0
256,192,168007,1,0
256,192,168088,1,8
256,192,168249,1,0
256,192,168411,1,8
256,192,168491,1,8
256,192,168572,1,0
256,192,168653,1,0
256,192,168733,1,8
256,192,168895,1,0
256,192,169056,1,8
256,192,169217,1,0
256,192,169298,1,0
256,192,169378,1,8
256,192,169540,1,0
256,192,169701,1,8
256,192,169782,1,0
256,192,169862,1,8
256,192,169943,1,8
256,192,170024,1,0
256,192,170185,1,8
256,192,170346,1,0
256,192,170507,1,0
256,192,170588,1,0
256,192,170669,1,8
256,192,170830,1,8
256,192,170911,1,8
256,192,170991,1,0
256,192,171153,1,0
256,192,171233,1,0
256,192,171314,1,8
256,192,171475,1,0
256,192,171636,1,0
256,192,171717,1,0
256,192,171798,1,8
256,192,171959,1,12
256,192,172120,1,4
256,192,172283,1,8
256,192,172444,1,0
256,192,172525,1,0
256,192,172605,1,8
256,192,172686,1,8
256,192,172767,1,8
256,192,172847,1,8
256,192,172928,5,0
256,192,173089,1,0
256,192,173170,1,0
256,192,173251,1,8
256,192,173411,1,8
256,192,173572,1,0
256,192,173733,1,0
256,192,173814,1,8
256,192,173894,1,0
256,192,174056,1,8
256,192,174217,1,0
256,192,174297,1,8
256,192,174378,1,8
256,192,174459,1,0
256,192,174539,1,8
256,192,174701,1,0
256,192,174862,1,0
256,192,175023,1,8
256,192,175104,1,0
256,192,175185,1,0
256,192,175346,1,8
256,192,175507,1,0
256,192,175669,1,8
256,192,175749,1,8
256,192,175830,1,0
256,192,175991,1,0
256,192,176152,1,0
256,192,176233,1,0
256,192,176314,1,8
256,192,176394,1,0
256,192,176475,1,0
256,192,176636,1,8
256,192,176798,1,0
256,192,176878,1,0
256,192,176959,1,0
256,192,177120,1,8
256,192,177201,1,0
256,192,177281,1,0
256,192,177443,1,8
256,192,177523,1,0
256,192,177604,1,0
256,192,177685,1,0
256,192,177765,1,8
256,192,177926,1,0
256,192,178007,1,0
256,192,178088,1,8
256,192,178249,1,0
256,192,178330,1,0
256,192,178411,1,8
256,192,178572,1,8
256,192,178652,1,8
256,192,178733,1,0
256,192,178894,1,0
256,192,179056,1,8
256,192,179217,1,0
256,192,179378,1,0
256,192,179540,1,8
256,192,179620,1,8
256,192,179701,1,0
256,192,179781,1,0
256,192,179862,1,8
256,192,180023,1,4
256,192,180347,5,0
256,192,180507,1,8
256,192,180669,1,4
256,192,180830,1,8
256,192,180911,1,8
256,192,180991,1,0
256,192,181152,1,8
256,192,181233,1,8
256,192,181314,1,0
256,192,181395,1,0
256,192,181475,1,8
256,192,181638,1,8
256,192,181718,1,0
256,192,181799,1,0
256,192,181960,1,12
256,192,182122,1,0
256,192,182283,1,4
256,192,182444,1,4
256,192,182605,1,12
256,192,182767,1,0
256,192,182928,1,8
256,192,183009,1,0
256,192,183089,1,0
256,192,183170,1,0
256,192,183251,1,8
256,192,183412,1,8
256,192,183492,1,0
256,192,183573,1,0
256,192,183734,1,8
256,192,183896,1,8
256,192,183976,1,0
256,192,184057,1,0
256,192,184138,1,0
256,192,184218,1,8
256,192,184380,1,8
256,192,184579,5,0
256,192,184764,1,8
256,192,184979,1,0
256,192,185194,1,8
256,192,185376,1,8
256,192,185631,1,8
256,192,185861,1,8
256,192,186153,1,8
256,192,188059,5,0
256,192,188220,1,0
256,192,188300,1,0
256,192,188381,1,8
256,192,188542,1,0
256,192,188623,1,0
256,192,188703,1,8
256,192,188864,1,0
256,192,188945,1,0
256,192,189026,1,8
256,192,189187,1,8
256,192,189268,1,8
256,192,189348,1,0
256,192,189510,1,0
256,192,189671,1,8
256,192,189832,1,0
256,192,189993,1,4
256,192,190316,1,4
256,192,190639,1,4
