osu file format v12

[General]
AudioFilename: JubyPhonic.mp3
AudioLeadIn: 0
PreviewTime: 45481
Countdown: 0
SampleSet: None
StackLeniency: 0.2
Mode: 0
LetterboxInBreaks: 1
WidescreenStoryboard: 1

[Editor]
DistanceSpacing: 1
BeatDivisor: 4
GridSize: 4

[Metadata]
Title:Lonely Hide & Seek
TitleUnicode:Lonely Hide & Seek
Artist:IA
ArtistUnicode:IA
Creator:Simon
Version:JubyPhonic
Source:
Tags:vocaloid 150p
BeatmapID:348694
BeatmapSetID:139601

[Difficulty]
HPDrainRate:6
CircleSize:4
OverallDifficulty:7
ApproachRate:10
SliderMultiplier:1.7
SliderTickRate:1

[Events]
//Background and Video events
0,0,"vorishka.jpg",0,0
Video,0,"vid.flv"
//Break Periods
2,61550,67445
2,113698,115015
//Storyboard Layer 0 (Background)
//Storyboard Layer 1 (Fail)
//Storyboard Layer 2 (Pass)
//Storyboard Layer 3 (Foreground)
//Storyboard Sound Samples
//Background Colour Transformations
3,100,163,162,255

[TimingPoints]
1350,272.727272727273,4,2,0,25,1,0
1350,-166.666666666667,4,2,0,25,0,0
7895,-181.818181818182,4,2,0,20,0,0
9531,-200,4,2,0,20,0,0
13350,-90.9090909090909,4,3,0,45,0,0
13486,-90.9090909090909,4,2,0,45,0,0
14440,-90.9090909090909,4,1,0,50,0,0
35031,-111.111111111111,4,1,0,45,0,0
36259,-100,4,1,0,55,0,0
37077,-100,4,3,0,55,0,0
37213,-125,4,2,0,40,0,0
41168,-100,4,2,0,45,0,0
41713,-80,4,2,0,55,0,0
44031,-90.9090909090909,4,1,0,60,0,0
44986,-90.9090909090909,4,2,0,65,0,0
45259,-90.9090909090909,4,1,0,55,0,0
45395,-100,4,2,0,45,0,0
46077,-83.3333333333333,4,1,0,65,0,1
52622,-86.9565217391304,4,3,0,65,0,1
54259,-86.9565217391304,4,1,0,55,0,1
54804,-83.3333333333333,4,1,0,65,0,1
61350,-90.9090909090909,4,1,0,50,0,0
70077,-83.3333333333333,4,1,0,45,0,0
76486,-95.2380952380952,4,1,0,40,0,0
77713,-86.9565217391304,4,1,0,40,0,0
78259,-83.3333333333333,4,1,0,45,0,0
78804,-83.3333333333333,4,1,0,50,0,0
87395,545.454545454546,4,2,0,20,1,0
92985,272.727272727273,4,1,0,45,1,0
94075,-86.9565217391304,4,1,0,45,0,0
96257,-80,4,1,0,65,0,1
104439,-90.9090909090909,4,1,0,55,0,1
104712,-83.3333333333333,4,1,0,60,0,1
104985,-80,4,1,0,65,0,1
111531,245.901639344262,4,3,0,65,1,0
115465,-200,4,2,0,45,0,0
119399,-57.1428571428571,4,2,0,40,0,0
123334,-50,4,2,0,45,0,0
125301,-57.1428571428571,4,2,0,40,0,0
126285,-80,4,2,0,45,0,0
127268,-66.6666666666667,4,1,0,65,0,0
135137,-80,4,1,0,65,0,0
143990,-76.9230769230769,4,2,0,40,0,0
144235,-74.0740740740741,4,2,0,45,0,0
144481,-71.4285714285714,4,2,0,50,0,0
146940,-71.4285714285714,4,1,0,45,0,0
149645,-71.4285714285714,4,3,0,55,0,0
149891,-71.4285714285714,4,1,0,20,0,0
150137,-71.4285714285714,4,1,0,40,0,0
150383,-71.4285714285714,4,1,0,55,0,0
152104,-71.4285714285714,4,3,0,50,0,0
152350,-71.4285714285714,4,1,0,55,0,0
159604,-71.4285714285714,4,3,0,60,0,0
159727,272.727272727273,4,2,0,25,1,0
160136,-200,4,2,0,15,0,0
160817,-200,4,2,0,20,0,0
165727,-200,4,3,0,20,0,0
166136,-200,4,2,0,20,0,0
166681,-200,4,3,0,20,0,0
166954,-200,4,2,0,20,0,0
177590,-100,4,1,0,50,0,0
177999,-100,4,1,0,50,0,0
178136,-100,4,1,0,25,0,0
178272,-100,4,1,0,5,0,0
178545,272.727272727273,4,1,0,60,1,1
178545,-74.0740740740741,4,1,0,60,0,1
185090,-66.6666666666667,4,3,0,55,0,1
186590,-76.9230769230769,4,1,0,60,0,1
189454,-76.9230769230769,4,1,0,60,0,1
194363,545.454545454546,4,2,0,25,1,0
194363,-111.111111111111,4,2,0,40,0,0
198726,272.727272727273,4,1,0,40,1,0
203089,-90.9090909090909,4,1,0,45,0,0
211271,-90.9090909090909,4,3,0,20,0,0
211544,-90.9090909090909,4,2,0,20,0,0
211816,-90.9090909090909,4,1,0,20,0,0
212089,-90.9090909090909,4,1,0,40,0,0
212362,-90.9090909090909,4,3,0,60,0,0
212430,-90.9090909090909,4,1,0,35,0,0
222930,-200,4,3,0,10,0,0
224157,-200,4,3,0,30,0,0

[Colours]
Combo1 : 128,255,0
Combo2 : 0,255,255
Combo3 : 128,255,255
Combo4 : 255,255,0

[HitObjects]
370,128,1350,1,2,0:0:0:0:
416,219,1622,1,0,0:0:0:0:
364,307,1895,2,0,L|333:252,1,50.9999984436036
293,285,2168,1,0,0:0:0:0:
246,304,2304,2,0,P|204:271|238:126,1,203.999993774414
281,79,2986,5,0,0:0:0:0:
340,124,3122,2,0,P|372:120|400:96,2,50.9999984436036,0|2|0,0:0|0:0|0:0,0:0:0:0:
317,196,3531,2,0,P|240:255|154:211,1,203.999993774414
44,38,4350,1,0,0:0:0:0:
247,57,4622,2,0,B|211:106|154:116|154:116|115:102,2,152.999995330811,0|2|0,0:0|0:0|0:0,0:0:0:0:
360,104,5713,6,0,P|392:144|400:212,1,101.999996887207
300,200,6122,1,0,0:0:0:0:
336,296,6259,2,0,P|297:265|280:218,1,101.999996887207
212,156,6668,1,0,0:0:0:0:
132,204,6804,2,0,P|96:212|80:232,1,50.9999984436036
36,296,7077,2,0,P|44:332|64:348,1,50.9999984436036
136,296,7350,2,0,P|140:272|157:252,1,50.9999984436036
245,236,7622,2,0,P|270:240|290:257,1,50.9999984436036
372,280,7895,6,0,P|396:211|472:188,2,140.25000428009,0|2|0,0:0|0:0|0:0,0:0:0:0:
292,324,8986,1,0,0:0:0:0:
292,248,9531,6,0,P|276:188|180:192,1,170,0|4,0:0|0:0,0:0:0:0:
256,192,10145,12,0,13350,0:0:0:0:
388,224,13486,5,0,0:0:0:0:
268,108,13622,1,0,0:0:0:0:
300,136,13690,1,0,0:0:0:0:
308,176,13759,1,0,0:0:0:0:
292,216,13827,1,0,0:0:0:0:
256,240,13895,1,0,0:0:0:0:
212,232,13963,1,0,0:0:0:0:
168,204,14031,1,0,0:0:0:0:
116,196,14100,1,0,0:0:0:0:
72,232,14168,1,8,0:0:0:0:
140,300,14304,5,4,0:0:0:0:
168,120,14440,2,0,P|200:36|304:32,1,187.000005706787,8|0,0:0|0:0,0:0:0:0:
400,112,14850,1,0,0:0:0:0:
444,244,14986,2,0,P|352:228|304:172,1,140.25000428009
292,160,15259,5,4,0:0:0:0:
172,160,15395,1,0,0:0:0:0:
92,276,15531,2,0,P|128:332|164:352,1,93.5000028533936,8|0,0:0|0:0,0:0:0:0:
336,332,15804,2,0,P|300:276|264:256,1,93.5000028533936,8|0,0:0|0:0,0:0:0:0:
164,224,16077,5,4,0:0:0:0:
79,139,16213,1,0,0:0:0:0:
166,53,16350,1,4,0:0:0:0:
252,139,16486,1,0,0:0:0:0:
338,225,16622,6,0,P|388:268|436:288,1,93.5000028533936,8|4,0:0|0:0,0:0:0:0:
416,92,16895,2,0,P|356:67|304:76,1,93.5000028533936,8|4,0:0|0:0,0:0:0:0:
248,184,17168,2,0,B|208:208|208:208|144:212,2,93.5000028533936,0|2|4,0:0|0:0|0:0,0:0:0:0:
452,136,17577,6,0,P|460:236|396:316,1,187.000005706787,8|4,0:0|0:0,0:0:0:0:
60,248,18122,2,0,P|52:148|116:68,1,187.000005706787,8|4,0:0|0:0,0:0:0:0:
256,192,18668,1,0,0:0:0:0:
256,188,19895,5,0,0:0:0:0:
256,192,20168,1,0,0:0:0:0:
264,200,20304,1,0,0:0:0:0:
136,276,20440,1,0,0:0:0:0:
144,288,20577,1,0,0:0:0:0:
112,128,20713,1,0,0:0:0:0:
120,140,20850,1,0,0:0:0:0:
240,48,20986,2,0,L|184:152,1,93.5000028533936,8|0,0:0|0:0,0:0:0:0:
168,316,21259,2,0,L|213:234,1,93.5000028533936,8|0,0:0|0:0,0:0:0:0:
388,100,21531,5,8,0:0:0:0:
480,264,21668,1,0,0:0:0:0:
140,112,21940,1,4,0:0:0:0:
144,120,22350,6,0,P|212:152|236:148,1,93.5000028533936
344,76,22622,1,4,0:0:0:0:
412,200,22759,2,0,P|440:248|440:292,2,93.5000028533936,0|2|0,0:0|0:0|0:0,0:0:0:0:
313,101,23168,1,0,0:0:0:0:
215,200,23304,1,0,0:0:0:0:
314,299,23440,2,2,B|340:320|340:320|264:344,1,93.5000028533936
408,264,23713,5,8,0:0:0:0:
272,136,23850,2,2,P|304:152|328:152,2,46.7500014266968,0|0|0,0:0|0:0|0:0,0:0:0:0:
84,140,24122,1,4,0:0:0:0:
96,132,24531,6,0,P|144:80|152:48,1,93.5000028533936,8|0,0:0|0:0,0:0:0:0:
148,200,24804,2,0,P|130:243|94:273,1,93.5000028533936,8|0,0:0|0:0,0:0:0:0:
232,244,25077,1,4,0:0:0:0:
292,116,25213,1,2,0:0:0:0:
216,336,25350,6,0,B|256:276|256:276|312:284,2,93.5000028533936,0|10|0,0:0|0:0|0:0,0:0:0:0:
356,324,25759,5,0,0:0:0:0:
440,184,25895,1,8,0:0:0:0:
264,332,26031,1,0,0:0:0:0:
152,48,26304,6,0,P|172:116|368:156,1,280.500008560181,4|0,0:0|0:0,0:0:0:0:
272,68,26850,1,4,0:0:0:0:
180,236,26986,2,0,B|164:272|164:272|152:284|152:284|132:360,2,93.5000028533936,2|8|2,0:0|0:0|0:0,0:0:0:0:
264,192,27395,1,0,0:0:0:0:
320,116,27531,2,0,P|376:160|352:236,2,140.25000428009,8|2|4,0:0|0:0|0:0,0:0:0:0:
200,92,28077,5,2,0:0:0:0:
161,106,28145,1,0,0:0:0:0:
130,134,28213,1,8,0:0:0:0:
114,172,28281,1,0,0:0:0:0:
114,214,28350,1,2,0:0:0:0:
236,196,28486,5,4,0:0:0:0:
236,196,28554,1,0,0:0:0:0:
236,196,28622,2,0,P|272:256|312:280,1,93.5000028533936,8|4,0:0|0:0,0:0:0:0:
424,308,28895,2,0,P|417:239|391:200,1,93.5000028533936,8|4,0:0|0:0,0:0:0:0:
336,140,29168,1,8,0:0:0:0:
244,96,29304,2,0,P|172:84|140:52,2,93.5000028533936,4|8|4,0:0|0:0|0:0,0:0:0:0:
364,88,29713,6,0,B|388:112|388:112|388:120|388:120|440:168,1,93.5000028533936,8|4,0:0|0:0,0:0:0:0:
432,308,29986,2,0,B|408:284|408:284|408:276|408:276|356:228,1,93.5000028533936,8|4,0:0|0:0,0:0:0:0:
212,240,30259,5,8,0:0:0:0:
80,108,30395,1,0,0:0:0:0:
456,116,30668,1,4,0:0:0:0:
448,120,31077,6,0,L|380:220,1,93.5000028533936,8|4,0:0|0:0,0:0:0:0:
264,268,31350,2,0,L|317:191,1,93.5000028533936,8|4,0:0|0:0,0:0:0:0:
364,40,31622,1,8,0:0:0:0:
256,76,31759,1,4,0:0:0:0:
180,156,31895,2,0,P|132:204|72:192,1,93.5000028533936,8|4,0:0|0:0,0:0:0:0:
232,260,32168,2,0,P|280:212|340:224,1,93.5000028533936,8|4,0:0|0:0,0:0:0:0:
424,220,32440,5,4,0:0:0:0:
428,212,32509,1,0,0:0:0:0:
432,204,32577,2,2,B|432:180|432:180|456:168,2,46.7500014266968
304,240,32850,1,4,0:0:0:0:
296,232,33122,5,4,0:0:0:0:
228,132,33259,1,2,0:0:0:0:
204,160,33327,1,0,0:0:0:0:
168,172,33395,1,2,0:0:0:0:
132,164,33463,1,0,0:0:0:0:
104,140,33531,2,0,P|64:176|80:248,1,93.5000028533936,8|4,0:0|0:0,0:0:0:0:
116,312,33804,1,0,0:0:0:0:
192,232,33940,1,0,0:0:0:0:
244,332,34077,6,0,B|284:292|284:292|304:228,2,93.5000028533936
140,236,34486,2,0,P|88:248|56:280,2,93.5000028533936,8|4|8,0:0|0:0|0:0,0:0:0:0:
148,228,35031,6,0,P|208:96|268:116,1,229.499992996216,8|4,0:0|0:0,0:0:0:0:
328,200,35577,1,2,0:0:0:0:
436,160,35713,2,0,B|456:144|456:144|456:136|456:136|500:96,2,76.4999976654053,8|4|8,0:0|0:0|0:0,0:0:0:0:
340,280,36122,1,0,0:0:0:0:
176,324,36259,5,12,0:0:0:0:
95,223,36395,1,4,0:0:0:0:
56,98,36531,1,12,0:0:0:0:
169,156,36668,1,4,0:0:0:0:
297,143,36804,2,0,P|360:136|388:236,1,170,12|4,0:0|0:0,0:0:0:0:
292,308,37213,6,0,P|208:256|180:152,1,204,8|4,0:0|0:0,0:0:0:0:
448,196,37895,2,2,L|312:252,1,136
256,128,38304,2,0,P|148:116|120:232,1,204,8|4,0:0|0:0,0:0:0:0:
372,128,38986,2,2,L|424:48,2,68
284,232,39395,6,0,P|236:308|112:300,1,204,8|4,0:0|0:0,0:0:0:0:
64,216,39940,1,0,0:0:0:0:
136,124,40077,2,2,P|180:116|224:64,1,68
308,32,40350,2,0,P|412:96|292:256,1,340,8|4,0:0|0:0,0:0:0:0:
224,180,41168,6,0,P|200:136|148:112,1,85,8|0,0:0|0:0,0:0:0:0:
112,232,41440,2,0,P|136:276|188:300,1,85,8|0,0:0|0:0,0:0:0:0:
304,304,41713,6,0,L|384:304,3,53.125,4|0|0|0,0:0|0:0|0:0|0:0,0:0:0:0:
420,216,41986,2,0,L|500:216,3,53.125,8|0|0|0,0:0|0:0|0:0|0:0,0:0:0:0:
444,112,42259,2,0,L|464:56,3,53.125,4|0|0|0,0:0|0:0|0:0|0:0,0:0:0:0:
356,68,42531,2,0,L|339:119,3,53.125,8|0|0|0,0:0|0:0|0:0|0:0,0:0:0:0:
244,156,42804,6,0,L|88:252,1,141.666666666667,4|0,0:0|0:0,0:0:0:0:
256,256,43077,2,0,L|377:182,1,141.666666666667,8|0,0:0|0:0,0:0:0:0:
408,48,43350,2,0,B|292:104|292:104|288:123,2,141.666666666667,0|6|6,0:0|0:0|0:0,0:0:0:0:
372,296,44031,6,0,L|432:104,1,187.000005706787,4|0,0:0|0:0,0:0:0:0:
140,88,44440,2,0,L|80:280,1,187.000005706787,4|0,0:0|0:0,0:0:0:0:
272,116,44850,2,0,B|312:84|312:84|344:28,2,93.5000028533936,4|2|0,0:0|0:0|0:0,0:0:0:0:
168,272,45259,1,4,0:0:0:0:
172,280,45395,5,2,0:0:0:0:
320,244,45531,1,0,0:0:0:0:
328,252,45668,1,2,0:0:0:0:
240,128,45804,1,0,0:0:0:0:
232,120,45940,1,2,0:0:0:0:
368,80,46077,6,0,P|432:132|432:268,1,203.999993774414,8|8,0:0|0:0,0:0:0:0:
328,316,46486,1,4,0:0:0:0:
236,220,46622,2,0,P|264:176|276:120,2,101.999996887207,8|4|8,0:0|0:0|0:0,0:0:0:0:
164,304,47031,1,0,0:0:0:0:
40,304,47168,6,0,B|24:288|24:288|84:108,1,203.999993774414,8|8,0:0|0:0,0:0:0:0:
212,56,47577,1,4,0:0:0:0:
320,148,47713,2,0,P|348:108|408:76,1,101.999996887207,8|4,0:0|0:0,0:0:0:0:
452,212,47986,2,0,P|429:255|373:293,1,101.999996887207,8|4,0:0|0:0,0:0:0:0:
316,284,48190,5,0,0:0:0:0:
316,284,48259,2,0,P|272:244|224:232,1,101.999996887207
88,224,48531,2,2,P|36:144|36:112,2,101.999996887207,8|4|8,0:0|0:0|0:0,0:0:0:0:
196,300,48940,1,4,0:0:0:0:
172,168,49077,1,8,0:0:0:0:
328,244,49213,6,4,B|368:276|368:276|456:268|484:152,1,203.999993774414
420,48,49622,2,2,B|380:72|380:72|360:72|360:72|304:96,1,101.999996887207
240,200,49895,2,2,B|280:176|280:176|300:176|300:176|356:152,1,101.999996887207,10|6,0:0|0:0,0:0:0:0:
208,92,50168,1,8,0:0:0:0:
196,80,50304,1,4,0:0:0:0:
56,48,50440,6,8,P|32:124|120:232,1,203.999993774414
248,252,50850,2,0,P|184:304|124:308,1,101.999996887207,4|8,0:0|0:0,0:0:0:0:
168,156,51122,2,0,P|188:110|225:75,1,101.999996887207,4|8,0:0|0:0,0:0:0:0:
352,108,51395,5,4,0:0:0:0:
352,108,51463,1,0,0:0:0:0:
352,108,51531,2,8,P|400:156|380:304,1,203.999993774414
256,320,51940,2,2,P|180:264|176:184,1,152.999995330811,6|2,0:0|0:0,0:0:0:0:
132,148,52213,2,0,B|88:132|88:132|32:160,2,101.999996887207,8|4|8,0:0|0:0|0:0,0:0:0:0:
300,172,52622,6,0,L|396:219,1,97.7500018644333
220,180,52895,1,0,0:0:0:0:
64,248,53031,2,0,L|163:185,1,97.7500018644333
264,84,53304,1,0,0:0:0:0:
420,124,53440,1,0,0:0:0:0:
472,276,53577,2,0,L|350:213,1,97.7500018644333
228,200,53850,2,0,P|257:154|320:136,2,97.7500018644333
135,261,54259,5,0,0:0:0:0:
58,149,54395,1,0,0:0:0:0:
177,48,54531,1,0,0:0:0:0:
338,122,54668,1,0,0:0:0:0:
465,271,54804,6,0,P|442:228|432:144,1,101.999996887207,8|4,0:0|0:0,0:0:0:0:
444,44,55077,1,8,0:0:0:0:
352,136,55213,1,4,0:0:0:0:
212,168,55350,2,0,P|168:152|132:88,1,101.999996887207,8|4,0:0|0:0,0:0:0:0:
132,252,55622,2,0,P|176:268|212:332,1,101.999996887207,8|4,0:0|0:0,0:0:0:0:
352,320,55895,6,8,P|428:252|448:144,1,203.999993774414
356,48,56304,1,4,0:0:0:0:
336,76,56372,1,0,0:0:0:0:
316,104,56440,2,0,B|288:128|288:128|296:168|296:168|272:192,2,101.999996887207,8|4|8,0:0|0:0|0:0,0:0:0:0:
260,16,56850,1,4,0:0:0:0:
168,140,56986,6,8,P|112:168|52:296,1,203.999993774414
344,244,57531,2,8,P|400:216|460:88,1,203.999993774414
72,192,58077,5,4,0:0:0:0:
256,360,58259,1,4,0:0:0:0:
440,192,58440,1,4,0:0:0:0:
248,88,58622,2,0,P|184:112|156:144,1,101.999996887207,8|2,0:0|0:0,0:0:0:0:
160,260,58895,2,0,P|224:236|252:204,1,101.999996887207,8|2,0:0|0:0,0:0:0:0:
380,236,59168,5,4,0:0:0:0:
392,192,59236,1,0,0:0:0:0:
372,152,59304,1,0,0:0:0:0:
332,132,59372,1,0,0:0:0:0:
288,136,59440,1,0,0:0:0:0:
252,164,59509,1,0,0:0:0:0:
236,208,59577,5,4,0:0:0:0:
372,60,59850,1,10,0:0:0:0:
128,72,60122,2,2,P|72:136|92:188,1,101.999996887207
36,232,60395,1,2,0:0:0:0:
124,212,60531,1,2,0:0:0:0:
216,192,60668,2,2,B|232:184|232:184|280:100,2,101.999996887207
128,292,61077,5,2,0:0:0:0:
120,280,61350,1,4,0:0:0:0:
320,276,67895,5,2,0:0:0:0:
320,276,67963,1,0,0:0:0:0:
320,276,68031,2,0,B|372:208|456:240|456:240|504:204|476:128,1,249.333340942383,12|0,0:0|0:0,0:0:0:0:
440,108,68440,2,0,P|368:128|368:40,1,187.000005706787,8|0,0:0|0:0,0:0:0:0:
244,76,68804,2,0,B|264:140|264:140|268:188|268:188|280:228|280:228|256:296|184:256,1,249.333340942383,12|0,0:0|0:0,0:0:0:0:
148,156,69259,2,0,P|80:172|48:216,1,93.5000028533936,8|4,0:0|0:0,0:0:0:0:
112,76,69531,5,8,0:0:0:0:
152,44,69600,1,0,0:0:0:0:
204,44,69668,1,0,0:0:0:0:
252,64,69736,1,0,0:0:0:0:
280,108,69804,1,8,0:0:0:0:
324,136,69872,1,0,0:0:0:0:
372,120,69940,1,0,0:0:0:0:
396,76,70009,1,0,0:0:0:0:
436,44,70077,6,0,P|488:68|504:148,1,101.999996887207,8|4,0:0|0:0,0:0:0:0:
476,196,70350,1,8,0:0:0:0:
464,204,70486,1,4,0:0:0:0:
336,228,70622,1,8,0:0:0:0:
348,220,70759,2,0,P|376:160|368:120,2,101.999996887207,4|8|4,0:0|0:0|0:0,0:0:0:0:
228,252,71168,2,0,L|116:324,1,101.999996887207,8|2,0:0|0:0,0:0:0:0:
24,276,71440,2,0,L|110:221,1,101.999996887207,8|2,0:0|0:0,0:0:0:0:
272,96,71713,5,8,0:0:0:0:
68,124,71850,1,0,0:0:0:0:
420,324,72122,1,4,0:0:0:0:
408,312,72531,6,0,P|348:284|332:244,1,101.999996887207,8|4,0:0|0:0,0:0:0:0:
324,152,72804,2,0,B|344:136|344:136|344:124|344:124|376:112|384:72,2,101.999996887207,8|4|8,0:0|0:0|0:0,0:0:0:0:
204,172,73213,1,4,0:0:0:0:
192,176,73350,6,0,P|136:240|116:296,1,101.999996887207,8|4,0:0|0:0,0:0:0:0:
48,332,73622,1,0,0:0:0:0:
60,220,73759,1,0,0:0:0:0:
108,108,73895,2,0,P|152:72|136:32,2,101.999996887207,8|2|0,0:0|0:0|0:0,0:0:0:0:
292,92,74304,2,2,B|312:152|312:152|376:196|448:152,1,203.999993774414,4|0,0:0|0:0,0:0:0:0:
396,268,74713,6,0,L|316:344,1,101.999996887207,8|4,0:0|0:0,0:0:0:0:
184,340,74986,2,0,L|238:254,1,101.999996887207,8|4,0:0|0:0,0:0:0:0:
292,148,75259,1,8,0:0:0:0:
300,140,75395,1,4,0:0:0:0:
188,76,75531,2,0,B|109:40|109:40|88:48,2,101.999996887207,8|2|8,0:0|0:0|0:0,0:0:0:0:
232,176,75940,1,2,0:0:0:0:
340,240,76077,5,8,0:0:0:0:
424,84,76213,2,2,B|396:124|396:124|400:152|448:176,1,101.999996887207
268,224,76486,6,8,P|216:256|160:108,1,267.749991828919
312,80,77031,1,4,0:0:0:0:
348,248,77168,2,8,P|388:273|429:162,1,178.499994552612
320,164,77577,1,4,0:0:0:0:
216,268,77713,2,0,P|152:296|100:288,1,97.7500018644333,8|4,0:0|0:0,0:0:0:0:
28,200,77986,2,0,P|92:172|144:180,1,97.7500018644333,8|4,0:0|0:0,0:0:0:0:
256,128,78259,5,8,0:0:0:0:
288,96,78327,1,0,0:0:0:0:
332,88,78395,1,2,0:0:0:0:
376,104,78463,1,0,0:0:0:0:
400,144,78531,1,8,0:0:0:0:
392,188,78599,1,0,0:0:0:0:
348,204,78668,1,2,0:0:0:0:
404,320,78804,6,0,P|344:296|300:252,1,101.999996887207,8|4,0:0|0:0,0:0:0:0:
248,172,79077,1,8,0:0:0:0:
204,56,79213,1,0,0:0:0:0:
116,144,79350,2,0,B|67:199|67:199|71:245,1,101.999996887207,8|2,0:0|0:0,0:0:0:0:
192,236,79622,2,0,B|260:264|260:264|276:308,1,101.999996887207,8|2,0:0|0:0,0:0:0:0:
412,284,79895,5,8,0:0:0:0:
428,272,80031,1,4,0:0:0:0:
408,128,80168,2,0,P|348:135|377:65,1,152.999995330811,8|0,0:0|0:0,0:0:0:0:
372,56,80440,5,8,0:0:0:0:
468,236,80577,1,0,0:0:0:0:
84,92,80850,2,2,B|116:116|116:160|116:160|144:136|144:136|148:196|204:224,1,203.999993774414,4|0,0:0|0:0,0:0:0:0:
196,200,81259,5,8,0:0:0:0:
312,136,81395,2,0,L|396:72,1,101.999996887207,8|4,0:0|0:0,0:0:0:0:
416,204,81668,2,0,B|380:248|380:248|335:266,1,101.999996887207,8|4,0:0|0:0,0:0:0:0:
216,272,81940,1,2,0:0:0:0:
100,236,82077,2,0,B|80:188|36:224|16:168,1,101.999996887207,8|4,0:0|0:0,0:0:0:0:
140,80,82350,2,0,B|160:128|204:92|224:148,1,101.999996887207,8|4,0:0|0:0,0:0:0:0:
296,232,82622,5,8,0:0:0:0:
384,92,82759,2,0,B|408:84|408:84|436:128|436:128|432:156|432:156|448:216,1,152.999995330811,4|0,0:0|0:0,0:0:0:0:
460,280,83031,2,0,B|436:308|436:308|384:324|352:304,2,101.999996887207,4|2|4,0:0|0:0|0:0,0:0:0:0:
360,204,83440,6,0,L|258:153,1,101.999996887207,8|4,0:0|0:0,0:0:0:0:
245,163,83645,1,0,0:0:0:0:
221,174,83713,1,2,0:0:0:0:
203,190,83781,1,0,0:0:0:0:
191,211,83850,1,0,0:0:0:0:
190,237,83918,1,0,0:0:0:0:
198,259,83986,6,0,P|175:309|98:332,1,101.999996887207,8|4,0:0|0:0,0:0:0:0:
52,256,84259,1,8,0:0:0:0:
108,160,84395,1,4,0:0:0:0:
204,104,84531,2,0,P|253:79|328:109,1,101.999996887207,8|4,0:0|0:0,0:0:0:0:
356,180,84804,5,8,0:0:0:0:
440,268,84940,2,0,B|456:292|456:292|448:308|448:308|392:336|328:280,1,152.999995330811,4|0,0:0|0:0,0:0:0:0:
312,260,85213,2,0,B|300:244|300:244|224:284,1,101.999996887207,4|8,0:0|0:0,0:0:0:0:
56,172,85486,2,0,B|68:188|68:188|144:148,1,101.999996887207,4|8,0:0|0:0,0:0:0:0:
332,72,85759,5,2,0:0:0:0:
468,220,85895,2,0,P|424:148|392:132,1,101.999996887207,8|4,0:0|0:0,0:0:0:0:
140,156,86168,2,0,P|184:228|216:244,1,101.999996887207,8|4,0:0|0:0,0:0:0:0:
256,128,86440,5,8,0:0:0:0:
256,256,86577,1,4,0:0:0:0:
244,123,86713,1,8,0:0:0:0:
269,262,86850,1,4,0:0:0:0:
230,120,86986,1,8,0:0:0:0:
283,265,87123,1,4,0:0:0:0:
384,96,87395,6,0,P|400:216|220:216,1,340,8|4,0:0|0:0,0:0:0:0:
128,288,89576,2,0,P|138:138|288:161,1,340,8|4,0:0|0:0,0:0:0:0:
440,232,91349,1,2,0:0:0:0:
440,232,91486,1,0,0:0:0:0:
440,232,91622,1,2,0:0:0:0:
440,232,91758,1,0,0:0:0:0:
440,232,91895,6,0,B|396:196|400:136|400:136|388:96|336:88,2,170,8|0|4,0:0|0:0|0:0,0:0:0:0:
192,172,93395,5,4,0:0:0:0:
244,104,93531,2,2,P|272:140|120:200,1,297.5
120,200,94075,5,4,0:0:0:0:
148,76,94212,2,0,L|260:108,1,97.7500018644333,8|4,0:0|0:0,0:0:0:0:
120,200,94485,5,4,0:0:0:0:
228,133,94622,2,0,L|285:235,1,97.7500018644333,8|4,0:0|0:0,0:0:0:0:
120,200,94894,5,4,0:0:0:0:
244,228,95031,2,0,L|212:340,1,97.7500018644333,8|4,0:0|0:0,0:0:0:0:
352,268,95303,2,0,P|376:224|379:175,1,97.7500018644333,8|4,0:0|0:0,0:0:0:0:
292,60,95575,5,2,0:0:0:0:
280,60,95712,1,0,0:0:0:0:
104,144,95848,1,2,0:0:0:0:
116,144,95985,1,0,0:0:0:0:
436,232,96257,6,8,P|360:244|280:136,1,212.5,0|0,0:0|0:0,0:0:0:0:
332,56,96666,1,4,0:0:0:0:
368,156,96803,1,8,0:0:0:0:
292,256,96939,1,4,0:0:0:0:
168,288,97075,1,2,0:0:0:0:
260,340,97212,1,4,0:0:0:0:
208,224,97348,6,8,B|212:208|212:208|104:176|104:52,1,212.5
240,36,97757,2,0,P|268:92|324:120,1,106.25,4|8,0:0|0:0,0:0:0:0:
440,144,98030,2,0,P|412:88|356:60,1,106.25,4|8,0:0|0:0,0:0:0:0:
328,184,98303,5,4,0:0:0:0:
328,184,98371,1,0,0:0:0:0:
328,184,98439,2,8,P|280:252|144:284,1,212.5
60,208,98848,1,4,0:0:0:0:
60,80,98985,2,0,L|160:144,1,106.25,8|4,0:0|0:0,0:0:0:0:
296,136,99257,2,0,L|207:79,1,106.25,8|4,0:0|0:0,0:0:0:0:
196,228,99530,6,8,B|223:279|223:279|298:228|371:315,1,212.5
444,208,99939,1,4,0:0:0:0:
368,104,100075,2,0,B|396:104|396:104|432:88|432:88|480:88,1,106.25,8|4,0:0|0:0,0:0:0:0:
256,120,100348,2,0,B|295:120|295:120|331:104|331:104|359:104,1,106.25,8|4,0:0|0:0,0:3:0:0:
248,40,100621,6,8,B|196:48|196:48|120:116|192:204,1,212.5
124,304,101030,2,0,B|84:328|84:328|48:320|28:264,2,106.25,4|8|4,0:0|0:0|0:0,0:0:0:0:
240,228,101439,5,2,0:0:0:0:
248,220,101575,2,0,B|300:200|300:200|364:136|364:136|436:104,1,212.5,8|8,0:0|0:0,0:0:0:0:
284,104,101985,1,2,0:0:0:0:
396,232,102121,2,0,B|404:256|404:256|432:284|480:280,1,106.25,4|8,0:0|0:0,0:0:0:0:
460,112,102394,2,0,B|452:88|452:88|424:60|376:64,1,106.25,4|8,0:0|0:0,0:0:0:0:
228,120,102666,5,0,0:0:0:0:
228,120,102735,1,0,0:0:0:0:
228,120,102803,2,0,P|184:156|128:156,1,106.25,8|4,0:0|0:0,0:0:0:0:
348,144,103075,1,0,0:0:0:0:
348,144,103144,1,0,0:0:0:0:
348,144,103212,2,0,P|392:108|448:108,1,106.25,8|4,0:0|0:0,0:0:0:0:
312,276,103485,1,2,0:0:0:0:
312,276,103553,1,0,0:0:0:0:
312,276,103621,2,0,P|264:240|252:180,1,106.25,8|4,0:0|0:0,0:0:0:0:
172,48,103894,5,8,0:0:0:0:
328,72,104030,2,0,B|360:60|360:60|384:88|448:92,1,106.25,4|8,0:0|0:0,0:0:0:0:
480,204,104303,1,0,0:0:0:0:
384,288,104439,5,2,0:0:0:0:
347,315,104507,1,0,0:0:0:0:
304,303,104575,1,4,0:0:0:0:
284,262,104643,1,0,0:0:0:0:
280,212,104712,1,2,0:0:0:0:
253,171,104780,1,0,0:0:0:0:
204,164,104848,1,4,0:0:0:0:
166,196,104916,1,0,0:0:0:0:
172,248,104985,6,8,P|140:312|28:264,1,212.5,8|8,0:0|0:0,0:0:0:0:
64,148,105394,1,2,0:0:0:0:
156,60,105530,2,0,P|212:68|256:116,1,106.25,8|4,0:0|0:0,0:0:0:0:
372,72,105803,2,0,P|406:118|404:183,1,106.25,8|4,0:0|0:0,0:0:0:0:
340,272,106075,6,8,B|296:224|296:224|244:224|244:224|240:160|176:136,1,212.5
96,228,106485,1,2,0:0:0:0:
116,104,106621,2,0,B|96:80|96:80|68:80|68:80|40:40,1,106.25,8|4,0:0|0:0,0:0:0:0:
232,44,106894,1,8,0:0:0:0:
240,56,107030,1,4,0:0:0:0:
432,80,107166,6,0,P|376:132|136:120,1,318.75,8|4,0:0|0:0,0:0:0:0:
80,84,107712,2,0,P|136:136|376:124,1,318.75,8|4,0:0|0:0,0:0:0:0:
256,288,108257,2,0,B|243:280|243:280|236:272|236:272|224:280|224:280|212:264|212:264|148:280|124:216,2,159.375,8|0|4,0:0|0:0|0:0,0:0:0:0:
364,276,108803,2,0,P|436:244|460:196,1,106.25,8|4,0:0|0:0,0:0:0:0:
448,84,109075,2,0,P|376:116|352:164,1,106.25,8|4,0:0|0:0,0:0:0:0:
256,224,109348,5,4,0:0:0:0:
212,256,109416,1,0,0:0:0:0:
160,252,109484,1,0,0:0:0:0:
124,212,109552,1,0,0:0:0:0:
128,160,109620,1,0,0:0:0:0:
168,124,109689,1,0,0:0:0:0:
220,140,109757,5,4,0:0:0:0:
72,296,110030,1,10,0:0:0:0:
104,316,110303,2,0,P|184:328|232:288,2,106.25,4|8|4,0:0|0:0|0:0,0:0:0:0:
160,224,110712,1,0,0:0:0:0:
240,156,110848,2,0,B|184:100|184:100|144:104,2,106.25,8|4|0,0:0|0:0|0:0,0:0:0:0:
256,192,111257,1,8,0:0:0:0:
256,192,111531,1,4,0:0:0:0:
256,192,111776,12,0,113498,0:0:0:0:
400,112,115465,5,8,0:0:0:0:
112,112,116449,1,8,0:0:0:0:
400,112,117432,1,8,0:0:0:0:
112,112,117924,1,8,0:0:0:0:
400,112,118416,1,8,0:0:0:0:
442,211,118539,1,4,0:0:0:0:
343,254,118662,1,8,0:0:0:0:
301,154,118785,1,4,0:0:0:0:
204,108,118908,5,0,0:0:0:0:
191,93,118969,1,0,0:0:0:0:
172,83,119030,1,0,0:0:0:0:
151,80,119092,1,0,0:0:0:0:
131,86,119153,1,0,0:0:0:0:
114,98,119215,1,0,0:0:0:0:
103,116,119276,1,0,0:0:0:0:
99,137,119338,1,0,0:0:0:0:
103,158,119399,6,0,L|172:300,1,148.750001418591,4|0,0:0|0:0,0:0:0:0:
312,332,119645,2,0,L|247:199,1,148.750001418591,0|0,0:0|0:0,0:0:0:0:
312,64,119891,2,0,P|360:148|336:220,1,148.750001418591,4|0,0:0|0:0,0:0:0:0:
200,188,120137,2,0,P|152:104|176:32,1,148.750001418591,0|0,0:0|0:0,0:0:0:0:
340,36,120383,6,0,P|448:80|464:124,1,148.750001418591,4|0,0:0|0:0,0:0:0:0:
328,176,120629,1,8,0:0:0:0:
328,176,120752,1,2,0:0:0:0:
208,264,120875,2,8,B|196:252|196:252|248:156|248:156|224:124,2,148.750001418591
100,320,121244,1,0,0:0:0:0:
92,312,121367,6,0,P|36:224|32:144,1,148.750001418591,4|0,0:0|0:0,0:0:0:0:
100,52,121612,2,0,P|156:140|160:220,1,148.750001418591,0|0,0:0|0:0,0:0:0:0:
244,308,121858,2,0,P|342:270|392:208,1,148.750001418591,4|0,0:0|0:0,0:0:0:0:
391,93,122104,2,0,P|294:132|256:180,1,148.750001418591,0|0,0:0|0:0,0:0:0:0:
128,228,122350,6,8,L|180:56,2,148.750001418591
256,192,122719,1,2,0:0:0:0:
384,156,122842,2,8,L|332:328,2,148.750001418591
268,60,123211,5,8,0:0:0:0:
268,60,123272,1,0,0:0:0:0:
268,60,123334,2,0,P|184:144|176:220,1,170,4|0,0:0|0:0,0:0:0:0:
244,324,123580,2,0,P|328:240|336:164,1,170,0|0,0:0|0:0,0:0:0:0:
124,181,123826,2,0,P|209:264|285:272,1,170,4|0,0:0|0:0,0:0:0:0:
389,205,124071,2,0,P|304:121|228:113,1,170,0|0,0:0|0:0,0:0:0:0:
88,100,124317,6,0,P|48:176|172:256,1,226.666666666667,4|0,0:0|0:0,0:0:0:0:
192,160,124563,2,0,P|252:140|340:296,1,226.666666666667,4|0,0:0|0:0,0:0:0:0:
240,256,124809,2,2,B|192:320|192:320|112:316,2,113.333333333333,2|0|2,0:0|0:0|0:0,0:0:0:0:
288,152,125055,2,0,B|343:77|343:77|388:80|420:152,1,170,8|0,0:0|0:0,0:0:0:0:
432,208,125301,6,0,P|392:280|304:288,1,148.750001418591,4|0,0:0|0:0,0:0:0:0:
180,296,125547,2,0,P|220:224|308:216,1,148.750001418591,4|0,0:0|0:0,0:0:0:0:
380,140,125793,1,8,0:0:0:0:
260,140,125916,1,0,0:0:0:0:
152,192,126039,1,8,0:0:0:0:
108,304,126162,1,0,0:0:0:0:
268,312,126285,6,0,B|308:305|308:305|315:299|315:299|378:287,1,106.25
464,160,126530,2,0,B|408:171|408:171|401:177|401:177|362:185,1,106.25
224,208,126776,1,8,0:0:0:0:
92,160,126899,1,4,0:0:0:0:
200,72,127022,1,8,0:0:0:0:
244,76,127084,1,0,0:0:0:0:
284,92,127145,1,0,0:0:0:0:
312,124,127207,1,0,0:0:0:0:
320,168,127268,6,0,P|332:232|392:264,1,127.500004863739,8|4,0:0|0:0,0:0:0:0:
464,164,127514,1,8,0:0:0:0:
388,60,127637,1,4,0:0:0:0:
268,100,127760,2,0,P|184:128|168:164,1,127.500004863739,8|4,0:0|0:0,0:0:0:0:
136,316,128006,2,0,P|220:288|236:252,1,127.500004863739,8|4,0:0|0:0,0:0:0:0:
216,124,128252,5,8,0:0:0:0:
312,216,128375,1,4,0:0:0:0:
440,252,128498,2,2,B|452:194|452:194|464:175|464:175|475:117,1,127.500004863739,8|4,0:0|0:0,0:0:0:0:
472,128,128867,5,4,0:0:0:0:
344,168,128990,1,8,0:0:0:0:
340,160,129112,1,4,0:0:0:0:
232,80,129235,6,0,P|184:164|144:176,1,127.500004863739,8|4,0:0|0:0,0:0:0:0:
32,174,129481,1,2,0:0:0:0:
32,174,129604,1,2,0:0:0:0:
192,280,129727,2,0,P|250:255|310:271,1,127.500004863739,8|4,0:0|0:0,0:0:0:0:
420,336,129973,1,2,0:0:0:0:
420,336,130096,1,2,0:0:0:0:
460,228,130219,5,8,0:0:0:0:
405,128,130342,1,4,0:0:0:0:
304,185,130465,1,8,0:0:0:0:
249,85,130588,1,4,0:0:0:0:
148,141,130711,2,0,B|122:103|122:103|110:103|110:103|67:62|78:24,1,127.500004863739,8|4,0:0|0:0,0:0:0:0:
36,140,130957,5,10,0:0:0:0:
108,244,131080,1,4,0:0:0:0:
120,260,131141,1,0,0:0:0:0:
132,276,131203,2,0,P|180:312|252:328,1,127.500004863739,8|4,0:0|0:0,0:0:0:0:
360,272,131449,1,8,0:0:0:0:
260,196,131571,2,0,P|308:148|384:148,2,127.500004863739,4|8|4,0:0|0:0|0:0,0:0:0:0:
176,296,131940,6,2,B|146:306|146:306|103:329|103:329|53:345,1,127.500004863739
56,240,132186,1,4,0:0:0:0:
108,152,132309,1,8,0:0:0:0:
220,216,132432,1,4,0:0:0:0:
272,128,132555,1,8,0:0:0:0:
264,112,132801,5,4,0:0:0:0:
380,60,132924,2,0,L|456:168,1,127.500004863739,8|4,0:0|0:0,0:0:0:0:
448,216,133108,1,0,0:0:0:0:
428,244,133170,2,0,P|380:292|304:292,1,127.500004863739,8|4,0:0|0:0,0:0:0:0:
68,284,133416,2,0,P|116:236|192:236,1,127.500004863739,8|4,0:0|0:0,0:0:0:0:
160,104,133662,1,2,0:0:0:0:
168,92,133785,1,4,0:0:0:0:
256,188,133908,1,2,0:0:0:0:
264,176,134030,1,4,0:0:0:0:
372,112,134153,6,0,L|404:188,1,63.7500024318696,0|0,0:0|0:0,0:0:0:0:
372,284,134276,2,0,L|348:226,1,63.7500024318696,0|0,0:0|0:0,0:0:0:0:
248,164,134399,2,0,L|280:240,1,63.7500024318696,0|0,0:0|0:0,0:0:0:0:
244,336,134522,2,0,L|220:278,1,63.7500024318696,0|0,0:0|0:0,0:0:0:0:
132,200,134645,1,8,0:0:0:0:
68,128,134891,5,8,0:0:0:0:
68,128,135014,1,4,0:0:0:0:
48,232,135137,2,0,P|56:284|112:328,1,106.25,8|4,0:0|0:0,0:0:0:0:
200,324,135383,1,8,0:0:0:0:
288,264,135506,1,4,0:0:0:0:
56,216,135629,2,2,B|81:181|81:181|84:164|84:164|124:108,1,106.25
188,52,135875,5,10,0:0:0:0:
80,52,135998,1,0,0:0:0:0:
272,144,136121,2,0,P|320:172|408:172,2,106.25,8|4|8,0:0|0:0|0:0,0:0:0:0:
180,88,136490,1,4,0:0:0:0:
76,88,136612,2,2,B|68:132|68:132|60:151|60:151|50:202,1,106.25,0|0,0:0|0:0,0:0:0:0:
104,284,136858,2,0,B|120:316|120:316|184:336|260:280,1,159.375,8|0,0:0|0:0,0:0:0:0:
276,256,137104,6,0,P|332:240|376:184,1,106.25,8|4,0:0|0:0,0:0:0:0:
400,104,137350,1,0,0:0:0:0:
480,176,137473,2,0,P|468:224|412:272,2,106.25,4|8|4,0:0|0:0|0:0,0:0:0:0:
440,64,137842,5,8,0:0:0:0:
436,56,137965,1,4,0:0:0:0:
308,64,138088,2,2,P|224:96|224:120,1,106.25,8|4,0:0|0:0,0:0:0:0:
236,224,138334,2,2,P|223:274|174:289,1,106.25,8|4,0:0|0:0,0:0:0:0:
100,184,138580,2,2,P|114:135|160:100,2,106.25,10|6|10,0:0|0:0|0:0,0:0:0:0:
445,280,139071,5,8,0:0:0:0:
386,169,139194,1,0,0:0:0:0:
258,189,139317,1,4,0:0:0:0:
126,216,139440,1,0,0:0:0:0:
68,105,139563,1,8,0:0:0:0:
256,348,139809,5,2,0:0:0:0:
68,280,140055,5,8,0:0:0:0:
127,169,140178,1,0,0:0:0:0:
255,189,140301,1,4,0:0:0:0:
387,216,140424,1,0,0:0:0:0:
445,105,140547,1,8,0:0:0:0:
256,36,140793,5,0,0:0:0:0:
335,296,141039,1,8,0:0:0:0:
380,150,141162,1,0,0:0:0:0:
254,62,141285,1,4,0:0:0:0:
132,154,141408,1,0,0:0:0:0:
182,299,141530,1,8,0:0:0:0:
256,16,141776,5,0,0:0:0:0:
352,192,142022,5,0,0:0:0:0:
160,192,142145,1,0,0:0:0:0:
376,192,142268,1,0,0:0:0:0:
136,192,142391,1,0,0:0:0:0:
256,36,142514,2,14,B|260:52|260:52|252:52|252:52|264:60|264:60|248:60|248:60|272:68|272:68|240:68|240:68|264:76|264:76|248:76|248:76|260:84|260:84|252:84|252:84|256:92|256:92|256:152,1,212.5
256,124,142821,1,0,0:0:0:0:
256,132,142883,1,4,0:0:0:0:
256,140,142944,1,0,0:0:0:0:
256,148,143006,6,0,B|252:192|252:192|260:200|260:200|256:256,1,106.25,8|4,0:0|0:0,0:0:0:0:
112,324,143252,2,0,B|137:280|137:280|133:270|133:270|156:231,1,106.25,8|4,0:0|0:0,0:0:0:0:
128,116,143498,1,8,0:0:0:0:
96,136,143559,1,0,0:0:0:0:
60,140,143621,1,4,0:0:0:0:
120,40,143744,5,0,0:0:0:0:
280,56,143867,1,0,0:0:0:0:
456,136,143990,5,0,0:0:0:0:
446,190,144051,1,0,0:0:0:0:
406,227,144112,1,0,0:0:0:0:
353,233,144174,1,0,0:0:0:0:
318,192,144235,5,0,0:0:0:0:
283,148,144297,1,0,0:0:0:0:
230,130,144358,1,0,0:0:0:0:
175,146,144420,1,0,0:0:0:0:
148,200,144481,6,0,P|96:236|32:244,1,118.999996368408
148,304,144727,1,2,0:0:0:0:
168,292,144789,1,0,0:0:0:0:
188,280,144850,1,2,0:0:0:0:
292,336,144973,6,0,P|316:252|356:224,1,118.999996368408,8|4,0:0|0:0,0:0:0:0:
452,96,145219,2,0,P|376:139|328:130,1,118.999996368408,8|4,0:0|0:0,0:0:0:0:
232,176,145465,2,0,L|144:96,1,118.999996368408,4|8,0:0|0:0,0:0:0:0:
236,20,145711,2,0,P|294:24|336:86,1,118.999996368408,4|8,0:0|0:0,0:0:0:0:
459,135,145957,5,10,0:0:0:0:
462,150,146018,1,0,0:0:0:0:
454,166,146080,1,0,0:0:0:0:
435,168,146141,1,0,0:0:0:0:
416,155,146203,1,2,0:0:0:0:
410,134,146264,1,0,0:0:0:0:
393,116,146326,1,0,0:0:0:0:
367,117,146387,1,0,0:0:0:0:
348,136,146449,5,10,0:0:0:0:
348,166,146510,1,0,0:0:0:0:
369,185,146571,1,0,0:0:0:0:
402,179,146633,1,0,0:0:0:0:
402,148,146694,1,2,0:0:0:0:
382,118,146756,1,0,0:0:0:0:
344,111,146817,1,0,0:0:0:0:
304,124,146879,1,0,0:0:0:0:
280,161,146940,6,0,P|233:207|161:181,1,118.999996368408,8|4,0:0|0:0,0:0:0:0:
65,190,147186,2,0,P|89:129|165:122,1,118.999996368408,8|4,0:0|0:0,0:0:0:0:
264,86,147432,2,0,B|299:67|299:67|322:36|322:36|360:18,2,118.999996368408,8|4|8,0:0|0:0|0:0,0:0:0:0:
219,103,147740,1,0,0:0:0:0:
188,142,147801,1,2,0:0:0:0:
194,195,147862,1,0,0:0:0:0:
226,243,147924,6,0,P|176:282|107:289,1,118.999996368408,8|4,0:0|0:0,0:0:0:0:
28,216,148170,1,8,0:0:0:0:
41,205,148293,1,2,0:0:0:0:
76,108,148416,2,0,P|136:92|184:60,1,118.999996368408,8|4,0:0|0:0,0:0:0:0:
361,79,148662,2,0,P|301:95|253:127,1,118.999996368408,8|4,0:0|0:0,0:0:0:0:
306,261,148908,6,0,P|346:189|344:147,1,118.999996368408,8|4,0:0|0:0,0:0:0:0:
161,200,149153,2,0,P|121:272|123:314,1,118.999996368408,8|4,0:0|0:0,0:0:0:0:
223,344,149399,1,0,0:0:0:0:
259,243,149522,1,0,0:0:0:0:
292,141,149645,2,2,P|370:93|411:112,1,118.999996368408
438,239,149891,5,0,0:0:0:0:
429,225,149953,1,0,0:0:0:0:
422,212,150014,1,0,0:0:0:0:
414,198,150076,1,0,0:0:0:0:
402,177,150137,5,0,0:0:0:0:
374,168,150199,1,0,0:0:0:0:
345,167,150260,1,0,0:0:0:0:
320,183,150321,1,0,0:0:0:0:
304,216,150383,5,0,0:0:0:0:
267,234,150444,1,0,0:0:0:0:
225,234,150506,1,0,0:0:0:0:
187,219,150567,1,0,0:0:0:0:
156,183,150629,1,0,0:0:0:0:
136,141,150690,1,0,0:0:0:0:
140,94,150752,1,0,0:0:0:0:
164,54,150813,1,0,0:0:0:0:
208,35,150875,6,0,P|262:73|318:73,2,118.999996368408,8|2|8,0:0|0:0|0:0,0:0:0:0:
88,44,151244,1,4,0:0:0:0:
80,56,151367,2,0,B|66:111|66:111|59:121|59:121|45:175,1,118.999996368408,8|4,0:0|0:0,0:0:0:0:
96,288,151612,2,0,B|111:234|111:234|118:224|118:224|132:170,2,118.999996368408,8|4|8,0:0|0:0|0:0,0:0:0:0:
176,360,151981,5,0,0:0:0:0:
212,260,152104,2,2,P|256:208|316:196,2,118.999996368408
324,304,152473,1,4,0:0:0:0:
444,240,152596,2,2,B|413:335|413:335|391:342,1,118.999996368408,8|4,0:0|0:0,0:0:0:0:
272,352,152842,6,0,P|208:320|168:248,1,118.999996368408,8|4,0:0|0:0,0:0:0:0:
140,120,153088,2,0,P|204:152|244:224,1,118.999996368408,8|4,0:0|0:0,0:0:0:0:
90,303,153334,2,0,P|123:239|195:198,1,118.999996368408,8|4,0:0|0:0,0:0:0:0:
322,170,153580,2,0,P|290:234|218:275,1,118.999996368408,8|4,0:0|0:0,0:0:0:0:
132,256,153826,5,8,0:0:0:0:
56,164,153949,1,4,0:0:0:0:
40,48,154071,1,8,0:0:0:0:
46,53,154194,5,4,0:0:0:0:
136,152,154317,1,2,0:0:0:0:
267,192,154440,2,2,P|328:228|184:284,1,297.499990921021,6|2,0:0|0:0,0:0:0:0:
228,272,154809,6,2,B|232:260|232:260|132:200,1,118.999996368408,8|4,0:0|0:0,0:0:0:0:
152,60,155055,2,0,P|204:136|248:144,1,118.999996368408,8|4,0:0|0:0,0:0:0:0:
288,120,155240,1,0,0:0:0:0:
288,120,155301,2,0,B|352:136|352:136|380:184,2,118.999996368408,4|8|4,0:0|0:0|0:0,0:0:0:0:
184,144,155670,1,8,0:0:0:0:
108,216,155793,5,8,0:0:0:0:
108,216,155834,1,0,0:0:0:0:
108,216,155875,1,0,0:0:0:0:
108,216,155916,1,0,0:0:0:0:
108,216,155957,1,0,0:0:0:0:
108,216,155998,1,0,0:0:0:0:
108,216,156039,1,4,0:0:0:0:
108,216,156080,1,0,0:0:0:0:
108,216,156121,1,0,0:0:0:0:
108,216,156162,6,0,P|156:172|220:164,1,118.999996368408
312,224,156408,1,0,0:0:0:0:
348,112,156530,2,0,P|396:148|456:144,1,118.999996368408
404,256,156776,5,0,0:0:0:0:
404,256,156838,1,0,0:0:0:0:
404,256,156899,1,0,0:0:0:0:
404,256,156961,1,0,0:0:0:0:
404,256,157022,1,0,0:0:0:0:
404,256,157084,1,0,0:0:0:0:
404,256,157145,1,0,0:0:0:0:
404,256,157207,1,0,0:0:0:0:
404,256,157268,1,0,0:0:0:0:
404,256,157330,1,0,0:0:0:0:
404,256,157391,1,0,0:0:0:0:
404,256,157453,1,0,0:0:0:0:
404,256,157514,6,0,L|370:277,1,29.7499990921021
404,256,157576,2,0,L|371:277,1,29.7499990921021
404,256,157637,2,0,L|371:276,1,29.7499990921021
404,256,157699,2,0,L|370:275,1,29.7499990921021
404,256,157760,2,0,L|370:275,1,29.7499990921021
404,256,157821,2,0,L|370:274,1,29.7499990921021
404,256,157883,6,2,B|360:276|336:312|336:312|252:304|264:216|264:216|200:208|176:288,1,297.499990921021
172,268,158252,2,4,P|136:288|112:280,6,59.4999981842042
416,192,158744,6,0,B|440:216|440:216|464:256|448:304,1,118.999996368408,8|4,0:0|0:0,0:0:0:0:
96,192,158990,2,0,B|72:168|72:168|48:128|63:87,1,118.999996368408,8|4,0:0|0:0,0:0:0:0:
256,344,159358,1,2,0:0:0:0:
256,48,159604,2,2,B|256:59|256:59|264:64|264:64|248:64|248:64|240:72|240:72|272:72|272:72|256:80|256:80|256:152,1,118.999996368408
256,192,160136,5,0,0:0:0:0:
256,192,160272,1,0,0:0:0:0:
256,192,160408,1,0,0:0:0:0:
256,192,160545,1,0,0:0:0:0:
256,192,160681,1,0,0:0:0:0:
256,192,160817,2,0,P|200:220|164:224,2,85,6|0|2,0:0|0:0|0:0,0:0:0:0:
292,116,161499,5,0,0:0:0:0:
376,108,161636,1,0,0:0:0:0:
436,168,161772,1,0,0:0:0:0:
416,252,161908,2,0,P|364:288|324:296,1,85,6|0,0:0|0:0,0:0:0:0:
172,280,162454,6,0,P|204:226|237:202,1,85,6|0,0:0|0:0,0:0:0:0:
304,208,162863,1,0,0:0:0:0:
360,144,162999,2,0,P|384:112|388:64,1,85,8|0,0:0|0:0,0:0:0:0:
220,76,163545,2,0,P|196:108|192:156,1,85,4|0,0:0|0:0,0:0:0:0:
268,192,163954,2,0,P|292:208|288:304,1,127.5,0|2,0:0|0:0,0:0:0:0:
124,280,164636,5,0,0:0:0:0:
288,320,164908,1,0,0:0:0:0:
444,252,165181,2,0,P|464:192|368:160,1,170,0|4,0:0|0:0,0:0:0:0:
156,272,166136,2,0,P|82:249|95:172,1,170,0|4,0:0|0:0,0:0:0:0:
264,140,166954,2,0,L|304:120,2,42.5,0|2|0,0:0|0:0|0:0,0:0:0:0:
256,224,167363,6,0,P|208:272|220:328,1,113.333333333333,8|0,0:0|0:0,0:0:0:0:
268,328,167817,2,0,P|309:290|369:290,1,113.333333333333,8|0,0:0|0:0,0:0:0:0:
408,212,168317,2,0,L|448:244,2,42.5,8|0|0,0:0|0:0|0:0,0:0:0:0:
368,136,168727,1,2,0:0:0:0:
200,104,168999,6,0,P|156:116|116:112,1,85
284,80,169545,1,4,0:0:0:0:
292,88,169954,5,0,0:0:0:0:
320,168,170090,2,0,P|344:172|368:192,2,42.5
240,200,170499,1,0,0:0:0:0:
188,268,170636,2,0,P|224:300|304:224,1,170,4|0,0:0|0:0,0:0:0:0:
300,220,171454,2,0,L|348:200,1,42.5,2|0,0:0|0:0,0:0:0:0:
416,168,171727,6,0,P|384:120|348:116,1,85,0|8,0:0|0:0,0:0:0:0:
280,140,172136,1,0,0:0:0:0:
200,112,172272,1,0,0:0:0:0:
200,112,172408,2,0,P|168:84|144:72,2,63.75,0|2|8,0:0|0:0|0:0,0:0:0:0:
160,220,173363,5,0,0:0:0:0:
316,148,173636,1,0,0:0:0:0:
92,300,173908,2,0,P|44:260|64:152,1,170
172,288,174727,1,0,0:0:0:0:
232,228,174863,6,0,L|252:184,1,42.5
336,188,175136,2,0,L|319:227,2,42.5
176,100,175817,1,6,0:0:0:0:
256,192,176090,5,8,0:0:0:0:
480,68,176363,1,8,0:0:0:0:
444,192,176499,1,8,0:0:0:0:
224,64,176772,1,8,0:0:0:0:
112,292,177045,2,8,P|72:248|72:176,1,127.5
116,112,177590,5,8,0:0:0:0:
212,76,177727,1,8,0:0:0:0:
324,116,177863,1,8,0:0:0:0:
336,252,177999,2,2,P|340:284|328:316,6,42.5,10|2|2|2|2|2|2,0:0|0:0|0:0|0:0|0:0|0:0|0:0,0:2:0:0:
376,88,178545,6,8,B|320:76|320:76|276:56|276:56|220:24|152:60,1,229.500000875473
88,176,178954,1,4,0:0:0:0:
164,292,179090,2,0,P|208:252|280:256,1,114.750000437737,8|4,0:0|0:0,0:0:0:0:
432,252,179363,2,0,P|388:292|316:288,1,114.750000437737,8|4,0:0|0:0,0:0:0:0:
308,124,179635,6,8,B|296:96|272:92|272:92|176:144|188:248,1,229.500000875473
76,324,180045,1,4,0:0:0:0:
64,296,180113,1,0,0:0:0:0:
52,268,180181,2,0,P|40:208|84:180,1,114.750000437737,8|4,0:0|0:0,0:0:0:0:
196,108,180454,1,8,0:0:0:0:
60,96,180590,1,2,0:0:0:0:
140,208,180726,6,0,B|148:232|148:232|344:312,1,229.500000875473,8|4,0:0|0:0,0:0:0:0:
468,260,181135,1,4,0:0:0:0:
368,164,181272,2,0,B|360:140|360:140|164:60,1,229.500000875473,8|4,0:0|0:0,0:0:0:0:
60,164,181681,2,0,P|100:268|336:288,1,344.25000131321,4|8,0:0|0:0,0:0:0:0:
310,307,182158,1,2,0:0:0:0:
310,307,182226,1,2,0:0:0:0:
404,192,182363,5,4,0:0:0:0:
267,138,182499,1,8,0:0:0:0:
130,81,182635,1,4,0:0:0:0:
316,44,182772,1,8,0:0:0:0:
400,208,182908,6,8,P|368:256|196:288,1,229.500000875473
116,192,183317,1,2,0:0:0:0:
116,192,183385,1,0,0:0:0:0:
116,192,183454,2,0,P|176:144|188:88,1,114.750000437737,8|4,0:0|0:0,0:0:0:0:
316,64,183726,1,2,0:0:0:0:
452,96,183863,6,0,P|432:148|348:208,1,114.750000437737,8|4,0:0|0:0,0:0:0:0:
256,224,184135,1,8,0:0:0:0:
340,332,184272,2,0,P|368:280|436:288,2,114.750000437737,4|8|4,0:0|0:0|0:0,0:0:0:0:
208,293,184681,2,0,P|186:280|179:248,1,57.3750002188683,2|0,0:0|0:0,0:0:0:0:
209,293,184817,2,0,P|166:268|151:208,1,114.750000437737,12|0,0:0|0:0,0:0:0:0:
256,96,185090,5,8,0:0:0:0:
256,96,185158,1,0,0:0:0:0:
256,96,185226,2,0,L|384:152,1,127.500004863739,4|8,0:0|0:0,0:0:0:0:
360,300,185499,1,8,0:0:0:0:
360,300,185567,1,0,0:0:0:0:
360,300,185635,2,0,L|232:244,1,127.500004863739,4|8,0:0|0:0,0:0:0:0:
164,88,185908,1,8,0:0:0:0:
164,88,185976,1,0,0:0:0:0:
164,88,186044,2,0,L|292:144,1,127.500004863739,4|8,0:0|0:0,0:0:0:0:
428,184,186317,5,4,0:0:0:0:
396,32,186454,2,0,P|372:104|304:156,1,127.500004863739,8|4,0:0|0:0,0:0:0:0:
204,144,186726,1,8,0:0:0:0:
56,196,186863,1,2,0:0:0:0:
184,316,186999,1,8,0:0:0:0:
372,252,187135,1,2,0:0:0:0:
260,60,187272,6,8,B|280:120|280:120|328:160|328:160|304:228|240:236,1,220.999989883423
124,244,187681,1,4,0:0:0:0:
152,104,187817,2,0,P|104:104|52:36,1,110.499994941712,8|4,0:0|0:0,0:0:0:0:
164,192,188090,2,0,P|198:226|187:311,1,110.499994941712,8|4,0:0|0:0,0:0:0:0:
316,180,188363,6,8,B|344:132|344:132|396:132|408:188|408:188|448:200|468:252,1,220.999989883423
444,264,188704,1,2,0:0:0:0:
428,292,188772,1,2,0:0:0:0:
396,304,188840,1,2,0:0:0:0:
364,308,188908,6,0,P|308:284|224:320,1,110.499994941712,8|4,0:0|0:0,0:0:0:0:
136,336,189181,1,8,0:0:0:0:
128,324,189317,1,4,0:0:0:0:
124,192,189454,6,4,P|172:104|280:40,1,220.999989883423,4|12,0:0|0:0,0:0:0:0:
388,192,189999,2,4,P|340:280|232:344,1,220.999989883423,4|12,0:0|0:0,0:0:0:0:
296,80,190545,6,0,B|326:124|326:124|392:124,1,110.499994941712,8|4,0:0|0:0,0:0:0:0:
216,304,190817,2,0,B|187:261|187:261|120:260,1,110.499994941712,8|4,0:0|0:0,0:0:0:0:
156,96,191090,5,8,0:0:0:0:
232,176,191226,1,4,0:0:0:0:
344,52,191363,1,8,0:0:0:0:
420,132,191499,1,4,0:0:0:0:
376,268,191635,5,2,0:0:0:0:
323,280,191703,1,0,0:0:0:0:
269,270,191771,1,4,0:0:0:0:
224,239,191839,1,0,0:0:0:0:
196,192,191907,1,2,0:0:0:0:
188,137,191975,1,0,0:0:0:0:
203,85,192044,1,12,0:0:0:0:
376,268,192317,6,2,P|292:280|220:232,1,165.749992412568,8|0,0:0|0:0,0:0:0:0:
292,208,192590,1,4,0:0:0:0:
456,60,192863,1,0,0:0:0:0:
348,84,192999,2,0,P|364:132|440:168,2,110.499994941712
248,40,193408,1,0,0:0:0:0:
184,156,193545,1,2,0:0:0:0:
356,44,194363,6,0,B|400:84|404:196|344:248|272:288|144:260|144:140|212:-44|464:92|436:264|380:356|204:364|112:284|112:284|192:152|48:104|48:104|124:-8|240:68,1,1223.99996264649
400,64,198998,6,4,P|448:132|444:236,1,170,8|0,0:0|0:0,0:0:0:0:
244,136,199544,1,8,0:0:0:0:
148,188,199680,2,0,B|112:168|112:168|108:212|80:236|80:236|48:248|32:276,1,170,4|4,0:0|0:0,0:0:0:0:
152,328,200089,1,8,0:0:0:0:
280,284,200226,1,4,0:0:0:0:
332,152,200362,1,8,0:0:0:0:
344,140,200498,5,4,0:0:0:0:
424,168,200635,1,0,0:0:0:0:
444,252,200771,1,0,0:0:0:0:
348,308,200907,5,8,0:0:0:0:
348,308,200976,1,0,0:0:0:0:
348,308,201044,2,0,B|344:300|344:300|256:280,1,85,4|8,0:0|0:0,0:0:0:0:
164,244,201316,1,8,0:0:0:0:
164,244,201385,1,0,0:0:0:0:
164,244,201453,2,0,B|168:236|168:236|256:216,1,85,4|8,0:0|0:0,0:0:0:0:
348,180,201726,5,8,0:0:0:0:
348,180,201795,1,0,0:0:0:0:
348,180,201863,2,0,B|344:172|344:172|256:152,1,85,4|8,0:0|0:0,0:0:0:0:
164,116,202135,1,8,0:0:0:0:
164,116,202204,1,0,0:0:0:0:
164,116,202272,2,0,B|168:108|168:108|256:88,1,85,4|8,0:0|0:0,0:0:0:0:
328,104,202544,2,2,L|336:56,3,42.5
376,72,202816,2,2,L|376:108,7,21.25
396,104,203089,6,8,P|384:160|260:200,1,187.000005706787
184,272,203498,1,2,0:0:0:0:
96,200,203635,2,8,B|93:151|56:100|56:100|87:69|87:69|127:73,1,187.000005706787,8|8,0:0|0:0,2:0:0:0:
260,80,204044,1,2,0:0:0:0:
368,168,204180,6,0,P|328:244|300:256,1,93.5000028533936
220,340,204453,2,0,P|144:300|133:272,1,93.5000028533936
240,196,204726,2,0,P|280:120|308:108,1,93.5000028533936
388,24,204999,2,0,P|465:64|476:92,1,93.5000028533936
440,124,205203,5,0,0:0:0:0:
440,124,205271,2,8,B|456:184|456:184|464:192|464:192|480:240|480:240|420:296,1,187.000005706787
312,296,205680,1,2,0:0:0:0:
200,248,205816,2,8,B|168:208|168:208|136:200|136:200|132:140|192:112,2,187.000005706787,8|12|8,0:0|0:0|0:0,0:0:0:0:
320,236,206498,1,2,0:0:0:0:
216,332,206635,1,8,0:0:0:0:
76,276,206771,1,2,0:0:0:0:
140,80,206907,6,0,B|156:84|156:84|172:156|220:188,1,140.25000428009,8|0,0:0|0:0,0:0:0:0:
264,180,207180,2,4,L|232:144,3,46.7500014266968
280,124,207453,6,0,P|332:104|396:132,1,93.5000028533936,8|2,0:0|0:0,0:0:0:0:
456,208,207726,2,0,P|434:259|369:285,1,93.5000028533936,8|2,0:0|0:0,0:0:0:0:
276,252,207998,1,8,0:0:0:0:
264,260,208135,1,2,0:0:0:0:
144,260,208271,1,0,0:0:0:0:
132,140,208407,5,2,0:0:0:0:
132,140,208476,1,0,0:0:0:0:
132,140,208544,2,0,P|180:88|184:52,2,93.5000028533936,8|4|8,0:0|0:0|0:0,0:0:0:0:
68,232,208953,1,0,0:0:0:0:
160,292,209089,6,2,B|200:288|200:288|232:272|232:240,1,93.5000028533936
244,128,209362,2,2,B|251:105|286:99|286:99|325:106,1,93.5000028533936
400,200,209635,5,8,0:0:0:0:
192,200,209771,2,0,L|300:200,1,93.5000028533936,4|8,0:0|0:0,0:0:0:0:
192,104,210044,1,8,0:0:0:0:
400,104,210180,2,0,L|292:104,1,93.5000028533936,4|8,0:0|0:0,0:0:0:0:
124,156,210453,1,8,0:0:0:0:
124,156,210521,1,0,0:0:0:0:
124,156,210589,2,0,B|80:132|80:132|56:88,2,93.5000028533936,4|8|4,0:0|0:0|0:0,0:0:0:0:
220,260,210998,6,0,P|264:276|328:244,1,93.5000028533936,8|4,0:0|0:0,0:0:0:0:
380,144,211271,2,2,P|396:112|428:104,16,46.7500014266968,0|0|0|0|0|0|0|0|0|0|0|0|0|0|0|0|12,0:0|0:0|0:0|0:0|0:0|0:0|0:0|0:0|0:0|0:0|0:0|0:0|0:0|0:0|0:0|0:0|0:0,0:0:0:0:
256,192,212430,12,2,221021,0:0:0:0:
332,128,222930,6,0,B|366:106|366:106|368:70|368:70|416:69|416:69|458:111|458:111|459:167|459:167|356:172|368:268,1,382.5,0|8,0:0|0:0,0:0:0:0:
