osu file format v9

[General]
AudioFilename: IAxxx.mp3
AudioLeadIn: 0
PreviewTime: 64356
Countdown: 0
SampleSet: Soft
StackLeniency: 0.7
Mode: 0
LetterboxInBreaks: 0

[Editor]
DistanceSpacing: 1.2
BeatDivisor: 4
GridSize: 4

[Metadata]
Title:Kisaragi Attention
Artist:IA
Creator:tutuhaha
Version:Easy
Source:Jin
Tags:vocaloid vocaloid3 spboxer3 KayeSara

[Difficulty]
HPDrainRate:3
CircleSize:3
OverallDifficulty:3
ApproachRate:4
SliderMultiplier:1.4
SliderTickRate:1

[Events]
//Background and Video events
Video,0,"Video.flv"
0,0,"BG.jpg"
//Break Periods
2,39355,42636
2,83755,91836
2,112556,115836
2,175956,184236
2,214555,222636
//Storyboard Layer 0 (Background)
//Storyboard Layer 1 (Fail)
//Storyboard Layer 2 (Pass)
//Storyboard Layer 3 (Foreground)
//Storyboard Sound Samples
//Background Colour Transformations
3,100,0,0,0

[TimingPoints]
756,300,4,2,1,80,1,0
10356,-200,4,2,2,100,0,0
19956,-200,4,2,1,50,0,0
20106,-200,4,1,1,40,0,0
29556,-200,4,2,1,50,0,0
29706,-200,4,1,1,40,0,0
39156,-200,4,2,1,60,0,0
43956,-200,4,2,1,50,0,0
44106,-200,4,1,1,40,0,0
52956,-200,4,2,2,80,0,0
53556,-200,4,1,1,40,0,0
64356,-200,4,2,1,80,0,1
64506,-200,4,2,2,100,0,1
83556,-200,4,2,0,80,0,0
93456,-200,4,2,2,60,0,0
102756,-200,4,2,1,50,0,0
102906,-200,4,1,1,40,0,0
112356,-200,4,2,1,60,0,0
117156,-200,4,2,1,50,0,0
117306,-200,4,1,1,40,0,0
137556,-200,4,2,1,80,0,1
137706,-200,4,2,2,100,0,1
156606,-200,4,1,1,30,0,0
174606,-200,4,2,1,60,0,0
185856,-200,4,2,2,60,0,0
192756,-200,4,2,1,50,0,0
195156,-200,4,2,1,80,0,1
195306,-200,4,2,2,100,0,1
214356,-200,4,2,1,80,0,0
223656,-200,4,2,2,80,0,0
232356,-200,4,2,1,50,0,0
233556,-200,4,2,1,60,0,0
233706,-200,4,2,2,80,0,0
238356,-200,4,2,1,60,0,0
238506,-200,4,2,2,80,0,0
242556,-200,4,2,1,60,0,0

[Colours]
Combo1 : 255,255,83
Combo2 : 255,151,47
Combo3 : 91,173,255
Combo4 : 148,255,40
SliderBorder : 255,255,255

[HitObjects]
112,196,10356,2,0,B|128:276|200:304,2,140,0|2|0
216,64,12156,2,0,B|292:64,1,70,2|8
320,140,12756,2,0,B|392:128|440:56,2,140,4|2|0
300,220,14256,2,0,B|152:220,1,140,0|8
104,284,15156,6,0,B|36:252|32:160,1,140,4|2
60,92,16056,1,0
144,108,16356,2,0,B|284:108,1,140,0|2
360,148,17256,1,8
408,216,17556,6,0,B|380:280|288:304,1,140,4|2
232,256,18456,2,0,B|16:256,1,210,0|0
148,144,19956,6,0,B|212:128|256:48,1,140,4|0
388,152,21156,2,0,B|388:232,1,70
332,284,21756,2,0,B|280:232|192:232,1,140
64,324,22956,5,0
100,160,23556,2,0,B|116:88|200:48,1,140
244,116,24456,1,0
304,176,24756,6,0,B|452:176|448:176,2,140
208,312,26556,2,0,B|128:312,1,70
56,292,27156,6,0,B|56:220|116:156,1,140
88,84,28056,2,0,B|168:84,1,70
236,48,28656,2,0,B|312:56|352:128,1,140
324,204,29556,6,0,B|348:276|420:304,2,140,4|0|0
184,292,31356,1,0
20,260,31956,6,0,B|28:188|100:136,1,140
128,68,32856,1,0
208,44,33156,2,0,B|348:44,1,140
384,120,34056,1,0
356,200,34356,6,0,B|388:272|464:296,2,140
232,312,36156,1,0
64,296,36756,6,0,B|36:216|64:148,1,140
116,96,37656,1,0
184,144,37956,2,0,B|260:136|304:64,2,140,0|0|4
144,96,43956,6,0,B|292:96,2,140,4|0|0
84,252,45756,2,0,B|44:236|36:192,1,70
120,176,46356,6,0,B|264:176,1,140
336,324,47556,1,0
500,280,48156,2,0,B|496:240|464:216,1,70
416,284,48756,6,0,B|356:240|344:160,1,140
208,72,49956,2,0,B|124:72,1,70
108,148,50556,2,0,B|36:192|24:264,2,140
156,216,52056,6,0,B|304:216,1,140
344,284,52956,2,0,B|424:268|460:204,1,140,4|0
452,124,53856,6,0,B|376:124,2,70,0|0|8
452,40,54756,2,0,B|308:40,1,140
244,88,55656,1,8
184,148,55956,6,0,B|152:216|72:236,1,140
44,312,56856,1,8
112,364,57156,2,0,B|224:364,2,105,0|0|8
136,284,58356,6,0,B|288:284,1,140,4|0
404,176,59556,2,0,B|252:176,1,140
124,84,60756,6,0,B|268:84,1,140,4|0
344,104,61656,2,0,B|384:116|400:160,2,70,0|8|0
320,184,62556,2,0,B|320:288,1,105,4|0
56,72,64356,6,0,B|60:144|140:192,2,140,4|2|0
140,60,65856,2,0,B|216:60,1,70,0|8
276,216,66756,6,0,B|356:212|408:144,1,140,0|2
232,124,67956,2,0,B|176:176|176:256,1,140,0|2
124,312,68856,1,8
44,332,69156,6,0,B|44:192,2,140,4|2|0
212,332,70956,2,0,B|288:332,1,70,2|0
328,260,71556,6,0,B|408:256|452:184,1,140,0|2
416,116,72456,1,8
340,76,72756,2,0,B|192:76,1,140,0|2
84,196,73956,5,4
176,336,74556,1,2
308,232,75156,2,0,B|348:236|384:220,2,70,0|0|8
412,100,76356,6,0,B|344:76|264:96,1,140,0|2
192,84,77256,1,0
108,80,77556,2,0,B|48:124|40:208,1,140,0|2
48,284,78456,1,0
120,328,78756,6,0,B|192:304|216:216,2,140,4|2|0
116,160,80556,2,0,B|160:96,1,70,2|0
220,48,81156,2,0,B|296:64|340:140,1,140,0|2
256,276,82356,1,4
412,336,82956,2,0,B|412:260,2,70,0|2|4
256,112,93156,6,0,B|300:60|380:60,2,140,0|8|0
124,216,94956,2,0,B|200:216,1,70,8|0
232,292,95556,2,0,B|292:336|380:316,2,140,0|8|0
284,224,97056,1,0
368,228,97356,2,0,B|428:192|432:96,1,140,8|0
276,48,98556,6,0,B|204:48,2,70,8|0|0
160,168,99756,1,8
88,320,100356,2,0,B|164:320|216:248,1,140,0|8
248,184,101256,1,0
316,136,101556,2,0,B|332:100|372:84,1,70,4|0
456,324,102756,6,0,B|308:324,1,140,4|0
240,292,103656,1,0
204,216,103956,2,0,B|188:172|152:160,2,70
312,88,105156,6,0,B|312:232,1,140
388,268,106056,1,0
424,192,106356,2,0,B|492:228|512:304,2,140
364,132,107856,5,0
296,84,108156,2,0,B|152:84,1,140
88,132,109056,1,0
48,204,109356,6,0,B|52:284|128:324,2,140
132,200,110856,1,0
196,252,111156,2,0,B|344:252,2,140,0|0|4
256,124,117156,6,0,B|340:124,1,70,4|0
384,184,117756,2,0,B|368:264|304:300,2,140
224,232,119556,6,0,B|72:232,1,140
44,156,120456,1,0
116,112,120756,2,0,B|192:88|228:20,1,140
312,172,121956,6,0,B|332:260|404:284,1,140
388,112,123156,2,0,B|368:84|320:72,1,70
248,100,123756,2,0,B|104:100,1,140
52,164,124656,5,0
28,244,124956,2,0,B|168:244,1,140
200,320,125856,2,0,B|272:308|304:224,1,140
336,156,126756,6,0,B|368:84|448:72,1,140,4|0
468,152,127656,1,8
456,236,127956,2,0,B|432:308|348:328,1,140
276,300,128856,1,8
228,232,129156,6,0,B|192:172|100:164,2,140,0|0|4
340,104,130956,2,0,B|480:104,1,140
472,188,131856,5,0
408,244,132156,2,0,B|380:316|288:320,1,140
188,192,133356,1,0
272,48,133956,6,0,B|336:84|352:168,2,140
204,100,135456,1,0
124,128,135756,2,0,B|8:128,1,105
336,336,137556,6,0,B|336:260,1,70,4|0
296,192,138156,2,0,B|320:116|396:88,2,140,2|0|2
168,300,139956,6,0,B|88:300,1,70
64,224,140556,2,0,B|48:144|88:84,1,140,2|0
160,128,141456,1,0
236,164,141756,2,0,B|376:164,1,140,2|4
300,316,142956,6,0,B|224:316,1,70,2|0
164,264,143556,2,0,B|152:192|64:152,1,140,0|2
212,60,144756,6,0,B|280:60,1,70
364,80,145356,2,0,B|376:168|444:196,2,140,2|4|2
236,188,147156,6,0,B|156:188,1,70,4|0
84,204,147756,2,0,B|24:252|24:340,2,140,2|0|2
152,48,149556,6,0,B|228:48,2,70,0|0|2
256,180,150756,2,0,B|328:180,2,70,0|0|2
224,344,151956,6,0,B|144:328|116:248,1,140,4|2
52,208,152856,1,0
44,124,153156,2,0,B|196:124,1,140,0|2
256,276,154356,6,0,B|316:272|340:212,2,105,4|2|0
256,192,155556,1,2
368,68,156156,6,0,B|256:68,2,105
424,132,157356,2,0,B|416:212|464:268,2,140
268,192,159156,6,0,B|184:192,1,70
116,212,159756,2,0,B|44:240|28:316,2,140
220,80,161556,6,0,B|364:80,1,140
424,136,162456,1,0
428,220,162756,2,0,B|400:272|332:276,2,105
348,188,163956,6,0,B|200:188,1,140
76,84,165156,2,0,B|76:192,2,105
156,108,166356,6,0,B|204:48|284:56,1,140,0|0
436,108,167556,2,0,B|388:168|308:164,1,140
256,228,168456,1,0
188,276,168756,6,0,B|80:276,2,105
180,192,169956,2,0,B|72:192,2,105
224,120,171156,6,0,B|304:116|352:44,1,140
452,184,172356,2,0,B|452:332,1,140
368,332,173256,1,0
296,292,173556,5,0
256,128,174156,2,0,B|152:128,1,105,0|4
256,280,185556,6,0,B|336:280,1,70,4|8
352,200,186156,2,0,B|336:124|264:84,2,140,0|0|0
400,268,187656,1,8
360,344,187956,6,0,B|216:344,1,140,0|8
96,232,189156,2,0,B|248:232,1,140
256,148,190056,1,8
264,64,190356,6,0,B|344:64|392:136,2,140,0|8|0
152,188,192156,2,0,B|72:188,1,70,0|8
64,268,192756,6,0,B|60:328|116:368,2,105,4|2|2
148,280,193956,2,0,B|296:280,1,140,0|2
456,312,195156,6,0,B|452:240|372:192,2,140,4|2|0
372,324,196656,2,0,B|296:324,1,70,0|8
236,168,197556,6,0,B|156:172|104:240,1,140,0|2
280,260,198756,2,0,B|336:208|336:128,1,140,0|2
388,72,199656,1,8
468,52,199956,6,0,B|468:192,2,140,4|2|0
300,52,201756,2,0,B|224:52,1,70,2|0
184,124,202356,6,0,B|104:128|60:200,1,140,0|2
96,268,203256,1,8
172,308,203556,2,0,B|320:308,1,140,0|2
428,188,204756,5,4
336,48,205356,1,2
204,152,205956,2,0,B|164:148|128:164,2,70,0|0|8
100,284,207156,6,0,B|168:308|248:288,1,140,0|2
320,300,208056,1,0
404,304,208356,2,0,B|464:260|472:176,1,140,0|2
464,100,209256,1,0
392,56,209556,6,0,B|320:80|296:168,2,140,4|2|0
396,224,211356,2,0,B|352:288,1,70,2|0
292,336,211956,2,0,B|216:320|172:244,1,140,0|2
256,108,213156,1,4
100,48,213756,2,0,B|100:124,2,70,0|2|4
260,116,223956,6,0,B|112:116,1,140,4|2
52,168,224856,1,0
32,248,225156,2,0,B|64:324|136:336,2,140,0|8|4
192,192,226956,2,0,B|272:192,1,70,2|0
344,200,227556,2,0,B|420:168|432:96,1,140,0|8
460,264,228756,6,0,B|460:376,2,105,4|2|0
392,212,229956,2,0,B|316:212|268:272,1,140,0|2
192,304,230856,1,8
120,260,231156,2,0,B|120:120,1,140,0|2
280,64,232356,2,0,B|280:208,1,140,4|2
320,276,233256,1,2
404,280,233556,6,0,B|476:256|504:168,2,140,4|8|0
236,284,235356,2,0,B|160:284,2,70,8|8|0
148,140,236556,2,0,B|172:72|248:48,1,140,8|0
256,216,237756,2,0,B|256:296,1,70,8|8
340,280,238356,6,0,B|376:216|468:200,1,140,4|8
440,36,239556,2,0,B|296:36,1,140,0|8
224,76,240456,1,8
164,136,240756,2,0,B|128:200|48:212,1,140,0|8
180,320,241956,2,0,B|256:320,2,70,8|8|4
