osu file format v14

[General]
AudioFilename: IA IA, Night of Desire MMD HD.mp3
AudioLeadIn: 0
PreviewTime: 203295
Countdown: 0
SampleSet: Normal
StackLeniency: 0.7
Mode: 2
LetterboxInBreaks: 1
WidescreenStoryboard: 1

[Editor]
Bookmarks: 32583,68873,105533,141453,166264,190704,204036,228476
DistanceSpacing: 1
BeatDivisor: 4
GridSize: 4
TimelineZoom: 1

[Metadata]
Title:IA IA, Night of Desire
TitleUnicode:IA IA, Night of Desire
Artist:IA
ArtistUnicode:IA
Creator:afk98
Version:Chaos
Source:
Tags:
BeatmapID:688221
BeatmapSetID:307446

[Difficulty]
HPDrainRate:6
CircleSize:4.5
OverallDifficulty:9
ApproachRate:9
SliderMultiplier:1.9
SliderTickRate:1

[Events]
//Background and Video events
//Break Periods
2,20007,32538
2,93698,105119
2,166094,176958
//Storyboard Layer 0 (Background)
//Storyboard Layer 1 (Fail)
//Storyboard Layer 2 (Pass)
//Storyboard Layer 3 (Foreground)
//Storyboard Sound Samples

[TimingPoints]
4810,370.30865226166,4,1,0,100,1,0
57023,-66.6666666666667,4,1,0,100,0,0
68873,-100,4,1,0,100,0,1
93684,-100,4,1,0,100,0,0
141083,-100,4,1,0,100,0,1
166264,-100,4,1,0,100,0,0
204036,-66.6666666666667,4,1,0,100,0,1
228476,-100,4,1,0,100,0,0
253657,-66.6666666666667,4,1,0,75,0,0
255879,-66.6666666666667,4,1,0,50,0,0
257360,-50,4,2,0,25,0,0

[Colours]
Combo1 : 255,0,128
Combo2 : 128,128,128
Combo3 : 255,128,255
Combo4 : 255,128,128

[HitObjects]
0,192,6291,5,0,0:0:0:0:
492,192,6476,2,0,L|456:152,1,47.5
224,192,6661,1,0,0:0:0:0:
40,192,7031,2,0,L|144:72,1,142.5
460,192,7587,1,0,0:0:0:0:
40,192,7957,6,0,L|84:144,1,47.5
432,192,8142,2,0,L|320:192,1,95
40,192,8513,2,0,L|152:88,1,142.5
504,192,9068,1,0,0:0:0:0:
456,204,9161,1,0,0:0:0:0:
416,216,9253,1,0,0:0:0:0:
376,224,9346,1,0,0:0:0:0:
340,232,9438,1,0,0:0:0:0:
40,192,9624,6,0,L|112:96,2,95
472,184,10272,1,0,0:0:0:0:
0,192,10549,1,0,0:0:0:0:
260,192,10734,6,0,L|296:152,1,47.5
48,192,10920,2,0,L|80:148,1,47.5
468,196,11105,2,0,L|436:144,1,47.5
192,192,11290,2,0,L|224:148,1,47.5
432,196,11475,1,0,0:0:0:0:
48,192,11753,1,0,0:0:0:0:
504,196,12031,2,0,L|404:112,1,95
48,192,12401,5,0,0:0:0:0:
48,192,12586,1,0,0:0:0:0:
484,208,12956,2,0,P|392:200|320:160,1,142.5
48,192,13512,1,0,0:0:0:0:
252,192,13882,6,0,L|292:152,1,47.5
48,192,14067,2,0,L|88:148,1,47.5
472,192,14252,2,0,L|440:144,1,47.5
48,192,14438,1,0,0:0:0:0:
360,192,14715,2,0,L|184:192,1,142.5
48,192,15363,5,0,0:0:0:0:
472,192,15548,1,0,0:0:0:0:
48,192,15734,1,0,0:0:0:0:
472,192,15919,2,0,L|336:92,1,142.5
48,192,16474,1,0,0:0:0:0:
472,192,16845,5,0,0:0:0:0:
48,192,17030,1,0,0:0:0:0:
40,276,17400,5,0,0:0:0:0:
472,284,17585,1,0,0:0:0:0:
0,276,17770,1,0,0:0:0:0:
512,280,17955,1,0,0:0:0:0:
40,184,18511,6,0,L|-24:96,1,95
480,184,18881,2,0,L|540:96,1,95
4,184,19252,2,0,L|56:288,1,95
508,184,19622,2,0,L|456:288,1,95
32,192,33138,5,0,0:0:0:0:
56,192,33231,1,0,0:0:0:0:
428,192,33323,2,0,L|316:272,1,95
56,192,33694,2,0,P|92:244|136:244,1,95
416,192,34064,1,0,0:0:0:0:
344,192,34249,1,0,0:0:0:0:
48,192,34434,6,0,L|136:252,1,95
472,192,34805,1,0,0:0:0:0:
44,192,34990,1,0,0:0:0:0:
112,192,35360,2,0,L|32:192,1,47.5
344,192,35545,1,0,0:0:0:0:
52,48,35730,2,0,L|136:96,2,95
440,56,36286,1,0,0:0:0:0:
56,300,36841,5,0,0:0:0:0:
504,308,37026,1,0,0:0:0:0:
56,300,37212,1,0,0:0:0:0:
40,192,37397,6,0,L|112:92,1,95
476,192,37767,2,0,L|408:104,1,95
4,192,38137,2,0,L|52:320,1,95
508,192,38508,2,0,L|464:296,1,95
32,192,39063,6,0,L|112:96,1,95
476,192,39341,1,0,0:0:0:0:
256,192,39433,1,0,0:0:0:0:
32,192,39526,1,0,0:0:0:0:
256,192,39619,1,0,0:0:0:0:
32,192,39989,6,0,P|128:176|160:168,1,95
452,192,40359,1,0,0:0:0:0:
4,192,40544,1,0,0:0:0:0:
308,192,40729,2,0,L|504:192,1,190
4,192,41655,6,0,L|128:192,1,95
460,192,42026,1,0,0:0:0:0:
4,192,42211,1,0,0:0:0:0:
72,188,42581,2,0,P|144:160|232:60,1,190
48,52,43507,5,0,0:0:0:0:
464,48,43692,1,0,0:0:0:0:
0,52,43877,2,0,L|76:144,1,95
512,48,44247,2,0,L|452:160,2,95
52,104,44988,6,0,L|-20:184,1,95
464,104,45358,2,0,L|536:204,1,95
368,192,45636,1,0,0:0:0:0:
156,192,45729,1,0,0:0:0:0:
296,192,45821,1,0,0:0:0:0:
224,192,45914,1,0,0:0:0:0:
40,192,46099,2,0,L|124:100,1,95
440,192,46469,1,0,0:0:0:0:
48,124,46840,6,0,P|152:124|232:196,1,190
512,184,47395,1,0,0:0:0:0:
0,64,47580,2,0,L|72:140,1,95
448,184,47950,2,0,L|508:272,1,95
248,188,48228,1,0,0:0:0:0:
348,192,48321,1,0,0:0:0:0:
32,192,48506,2,0,L|112:96,2,95
56,44,49247,6,0,L|96:76,2,47.5
472,40,49617,2,0,L|436:76,2,47.5
76,188,49987,2,0,L|108:124,1,47.5
404,192,50172,2,0,L|360:120,1,47.5
76,184,50357,1,0,0:0:0:0:
248,192,50450,1,0,0:0:0:0:
400,188,50543,1,0,0:0:0:0:
168,188,50635,1,0,0:0:0:0:
320,188,50728,1,0,0:0:0:0:
76,184,50913,6,0,L|136:96,1,95
400,188,51283,2,0,P|300:168|280:156,1,95
264,152,51561,1,0,0:0:0:0:
224,124,51654,1,0,0:0:0:0:
180,96,51746,1,0,0:0:0:0:
140,68,51839,1,0,0:0:0:0:
400,312,52024,6,0,L|456:188,2,95
56,256,52579,2,0,L|96:152,1,95
448,256,52950,2,0,L|396:132,1,95
52,240,53320,1,0,0:0:0:0:
448,248,53505,2,0,L|320:248,1,95
4,164,54061,5,0,0:0:0:0:
504,160,54246,1,0,0:0:0:0:
4,164,54431,1,0,0:0:0:0:
504,160,54616,1,0,0:0:0:0:
4,164,54801,1,0,0:0:0:0:
504,160,54986,1,0,0:0:0:0:
32,236,56097,6,0,L|112:136,1,95
332,168,56468,1,0,0:0:0:0:
16,312,57023,2,0,L|84:176,1,142.500005435944
296,188,57301,1,0,0:0:0:0:
79,184,57393,2,0,L|-4:60,1,142.500005435944
508,312,57764,6,0,L|424:192,1,142.500005435944
216,188,58041,1,0,0:0:0:0:
426,195,58134,2,0,L|528:44,1,142.500005435944
12,188,58504,6,0,L|172:188,1,142.500005435944
504,192,58875,2,0,L|360:192,1,142.500005435944
40,192,59615,5,0,0:0:0:0:
476,188,59800,1,0,0:0:0:0:
40,192,59985,2,0,L|176:320,1,142.500005435944
476,188,60356,2,0,L|376:308,1,142.500005435944
256,192,60726,2,0,P|192:164|180:60,1,142.500005435944
256,192,61282,2,0,P|340:128|320:88,1,142.500005435944
56,192,62022,5,0,0:0:0:0:
464,192,62207,1,0,0:0:0:0:
8,196,62392,1,0,0:0:0:0:
8,320,63318,2,0,L|76:180,1,142.500005435944
256,192,63596,1,0,0:0:0:0:
72,192,63689,2,0,L|-12:40,1,142.500005435944
256,192,64059,5,0,0:0:0:0:
336,192,64151,1,0,0:0:0:0:
84,192,64244,1,0,0:0:0:0:
168,192,64337,1,0,0:0:0:0:
416,192,64429,1,0,0:0:0:0:
168,272,64522,1,0,0:0:0:0:
336,276,64614,1,0,0:0:0:0:
84,272,64707,1,0,0:0:0:0:
420,272,64800,1,0,0:0:0:0:
416,192,65540,6,0,L|320:192,3,71.2500027179719
52,192,65910,6,0,L|-32:192,3,71.2500027179719
452,192,66281,6,0,L|408:192,7,35.625001358986
52,192,66651,6,0,L|100:192,6,35.625001358986
452,192,67021,5,0,0:0:0:0:
52,192,67114,1,0,0:0:0:0:
504,192,67207,1,0,0:0:0:0:
0,192,67299,1,0,0:0:0:0:
452,192,67392,1,0,0:0:0:0:
52,192,67484,1,0,0:0:0:0:
504,192,67577,1,0,0:0:0:0:
0,192,67669,1,0,0:0:0:0:
480,128,67762,5,0,0:0:0:0:
24,128,67808,1,0,0:0:0:0:
480,256,67855,1,0,0:0:0:0:
24,256,67901,1,0,0:0:0:0:
84,128,67947,1,0,0:0:0:0:
420,256,67993,1,0,0:0:0:0:
84,256,68040,1,0,0:0:0:0:
420,128,68086,1,0,0:0:0:0:
0,80,68132,5,0,0:0:0:0:
512,76,68179,1,0,0:0:0:0:
8,308,68225,1,0,0:0:0:0:
496,312,68271,1,0,0:0:0:0:
76,48,68341,5,0,0:0:0:0:
332,44,68364,1,0,0:0:0:0:
56,328,68387,1,0,0:0:0:0:
408,320,68410,1,0,0:0:0:0:
104,192,68433,1,0,0:0:0:0:
472,64,68456,1,0,0:0:0:0:
124,276,68479,1,0,0:0:0:0:
408,196,68503,1,4,0:0:0:0:
288,192,68688,6,0,L|364:76,1,106.875004076958
56,192,69243,6,0,P|144:196|168:200,2,95
456,192,69799,1,0,0:0:0:0:
56,192,69984,1,0,0:0:0:0:
44,300,70354,6,0,L|112:220,1,95
512,240,70724,1,0,0:0:0:0:
56,192,71095,1,0,0:0:0:0:
456,192,71280,1,0,0:0:0:0:
4,192,71650,1,0,0:0:0:0:
256,192,71835,2,0,L|300:144,1,47.5
96,192,72021,2,0,L|60:152,1,47.5
416,192,72206,2,0,L|456:156,1,47.5
96,192,72391,6,0,P|96:280|116:320,1,95
416,192,72946,2,0,L|192:192,1,190
56,192,73687,6,0,L|132:192,1,47.5
368,192,73872,1,0,0:0:0:0:
472,116,74057,2,0,L|420:116,1,47.5
116,112,74242,1,0,0:0:0:0:
116,276,74428,1,0,0:0:0:0:
324,276,74520,1,0,0:0:0:0:
504,276,74613,1,0,0:0:0:0:
32,228,75168,5,0,0:0:0:0:
68,228,75261,1,0,0:0:0:0:
480,228,75353,1,0,0:0:0:0:
440,228,75446,1,0,0:0:0:0:
32,228,75538,2,0,L|112:144,1,95
468,200,76279,5,0,0:0:0:0:
40,196,76649,2,0,P|108:156|128:128,2,95
468,200,77205,2,0,L|400:272,1,95
40,196,77575,2,0,L|76:160,1,47.5
356,196,77760,1,0,0:0:0:0:
16,196,78316,5,0,0:0:0:0:
512,196,78501,1,0,0:0:0:0:
16,196,78686,1,0,0:0:0:0:
280,192,78871,1,0,0:0:0:0:
56,192,79056,1,0,0:0:0:0:
320,192,79242,1,0,0:0:0:0:
360,192,79427,1,0,0:0:0:0:
96,196,79612,1,0,0:0:0:0:
400,192,79797,1,0,0:0:0:0:
96,196,79982,2,0,L|28:112,1,95
256,192,80352,12,0,81093,0:0:0:0:
256,192,81463,5,0,0:0:0:0:
40,120,82019,6,0,L|112:36,1,95
468,120,82389,1,0,0:0:0:0:
40,120,82574,1,0,0:0:0:0:
48,280,82667,1,0,0:0:0:0:
36,276,82759,2,0,L|-28:200,1,95
472,284,83130,1,0,0:0:0:0:
472,284,83222,1,0,0:0:0:0:
296,288,83315,1,0,0:0:0:0:
68,192,83500,6,0,L|148:100,1,95
432,192,83870,1,0,0:0:0:0:
68,192,84241,1,0,0:0:0:0:
432,192,84426,1,0,0:0:0:0:
68,192,84611,1,0,0:0:0:0:
68,192,84981,6,0,L|144:112,1,95
432,192,85352,1,0,0:0:0:0:
68,192,85722,2,0,L|0:100,1,95
508,192,86092,5,0,0:0:0:0:
12,192,86277,1,0,0:0:0:0:
508,192,86463,2,0,L|424:80,1,95
12,192,86833,2,0,L|92:88,1,95
508,192,87203,1,0,0:0:0:0:
12,192,87388,1,0,0:0:0:0:
508,192,87573,1,0,0:0:0:0:
12,192,87759,2,0,L|212:192,1,190
508,192,88499,6,0,L|316:192,1,190
12,192,89240,6,0,L|148:192,2,95
440,192,89795,2,0,L|328:192,2,95
8,192,90351,1,0,0:0:0:0:
440,192,90536,1,0,0:0:0:0:
92,192,90721,6,0,L|132:148,1,47.5
480,192,90906,2,0,L|452:144,1,47.5
28,192,91091,2,0,L|-24:120,1,47.5
508,192,91277,2,0,L|524:140,3,47.5
28,192,91647,2,0,L|8:112,4,47.5
256,192,92202,6,0,L|292:192,6,23.75
24,192,93128,5,0,0:0:0:0:
492,192,93313,1,0,0:0:0:0:
24,192,93498,1,0,0:0:0:0:
64,192,105719,6,0,L|160:192,1,95
504,192,106089,1,0,1:0:0:0:
64,192,106274,1,0,1:0:0:0:
504,192,106459,2,0,L|440:192,2,47.5
64,192,106830,5,0,0:0:0:0:
256,192,106922,1,0,0:0:0:0:
160,192,107015,1,0,0:0:0:0:
256,192,107200,1,0,0:0:0:0:
412,192,107292,1,0,0:0:0:0:
336,192,107385,1,0,0:0:0:0:
64,192,107570,6,0,L|-16:120,1,95
432,192,107940,2,0,L|504:116,1,95
64,192,108496,2,0,P|192:184|244:140,2,190
432,192,109422,1,0,0:0:0:0:
64,192,109607,2,0,L|12:100,1,95
52,296,110347,5,0,0:0:0:0:
352,288,110533,1,0,0:0:0:0:
72,296,110718,1,0,0:0:0:0:
368,288,110903,1,0,0:0:0:0:
96,296,111088,1,0,0:0:0:0:
388,288,111273,1,0,0:0:0:0:
116,296,111458,1,0,0:0:0:0:
440,192,111644,5,0,0:0:0:0:
440,192,111829,2,0,L|344:100,1,95
371,126,112199,1,0,0:0:0:0:
36,180,112569,2,0,L|132:104,1,95
508,196,112940,2,0,L|440:112,1,95
32,196,113310,5,0,0:0:0:0:
488,192,113495,1,0,0:0:0:0:
32,196,113680,1,0,0:0:0:0:
488,192,113865,1,0,0:0:0:0:
32,196,114051,1,0,0:0:0:0:
488,192,114236,2,0,L|428:192,1,47.5
32,196,114421,1,0,0:0:0:0:
348,192,114606,2,0,P|256:176|252:168,1,95
32,196,114976,5,0,0:0:0:0:
464,196,115347,2,0,L|260:192,1,190
32,196,116087,5,0,0:0:0:0:
408,192,116272,2,0,L|352:108,1,95
8,192,116643,2,0,L|84:100,1,95
484,192,117013,2,0,L|528:108,1,95
476,200,117568,6,0,L|416:156,1,47.5
104,192,117754,1,0,0:0:0:0:
472,200,117939,2,0,L|360:204,1,95
72,192,118494,1,0,0:0:0:0:
460,196,118679,1,0,0:0:0:0:
72,192,118865,2,0,P|148:168|160:116,1,95
404,192,119235,5,0,0:0:0:0:
104,192,119327,1,0,0:0:0:0:
264,192,119420,1,0,0:0:0:0:
140,192,119513,1,0,0:0:0:0:
380,192,119605,1,0,0:0:0:0:
72,192,119790,6,0,L|144:104,1,95
444,192,120161,2,0,B|308:132|328:140,1,95
72,192,120531,1,0,0:0:0:0:
444,192,120716,1,0,0:0:0:0:
72,192,120901,1,0,0:0:0:0:
0,192,121272,5,0,0:0:0:0:
512,192,121457,1,0,0:0:0:0:
0,192,121642,1,0,0:0:0:0:
488,196,122012,2,0,L|372:196,1,95
0,192,122382,1,0,0:0:0:0:
132,192,122568,1,0,0:0:0:0:
424,192,123493,5,0,0:0:0:0:
220,192,123586,1,0,0:0:0:0:
296,192,123679,2,0,L|168:192,1,95
28,192,124049,2,0,L|152:44,1,190
444,192,124790,1,0,0:0:0:0:
444,192,124975,1,0,0:0:0:0:
176,200,125345,6,0,L|36:40,1,190
28,192,125900,5,0,0:0:0:0:
256,188,126086,1,0,0:0:0:0:
488,196,126271,1,0,0:0:0:0:
28,192,126641,6,0,L|244:192,1,190
488,196,127197,2,0,L|384:196,1,95
16,192,127567,1,0,0:0:0:0:
488,196,127752,6,0,L|352:200,2,95
16,192,128678,5,0,0:0:0:0:
492,196,128863,1,0,0:0:0:0:
52,196,129048,2,0,L|8:88,1,95
456,196,129604,5,0,0:0:0:0:
52,196,129974,2,0,L|124:100,1,95
472,108,130344,2,0,L|404:192,1,95
56,196,130714,1,0,0:0:0:0:
464,208,131085,5,0,0:0:0:0:
8,196,131270,1,0,0:0:0:0:
464,208,131455,1,0,0:0:0:0:
32,192,131825,6,0,L|72:140,1,47.5
468,196,132011,1,0,0:0:0:0:
468,196,132196,2,0,L|428:144,1,47.5
56,196,132473,2,0,L|40:152,1,47.5
408,192,132751,2,0,L|432:152,1,47.5
108,192,133029,2,0,L|88:132,1,47.5
448,192,133307,1,0,0:0:0:0:
40,192,133399,1,0,0:0:0:0:
448,192,133584,1,0,0:0:0:0:
40,192,133677,1,0,0:0:0:0:
448,192,133862,2,0,L|368:108,1,95
20,192,134603,5,0,0:0:0:0:
508,192,134788,1,0,0:0:0:0:
8,192,134973,1,0,0:0:0:0:
420,160,135158,2,0,L|488:64,1,95
256,160,135436,1,0,0:0:0:0:
56,160,135528,1,0,0:0:0:0:
104,160,135899,5,0,0:0:0:0:
420,160,136084,2,0,L|316:160,1,95
56,160,136454,5,0,0:0:0:0:
420,160,136825,2,0,L|332:264,2,95
120,128,138121,5,0,0:0:0:0:
256,128,138213,1,0,0:0:0:0:
400,128,138306,1,0,0:0:0:0:
184,128,138398,1,0,0:0:0:0:
328,128,138491,1,0,0:0:0:0:
256,208,138584,5,0,0:0:0:0:
116,208,138676,1,0,0:0:0:0:
400,208,138769,1,0,0:0:0:0:
184,204,138861,1,0,0:0:0:0:
40,40,139046,6,0,L|84:64,2,47.5
460,40,139417,2,0,L|408:80,2,47.5
40,40,139787,1,0,0:0:0:0:
376,204,139972,5,0,0:0:0:0:
336,204,140065,1,0,0:0:0:0:
296,204,140157,1,0,0:0:0:0:
152,204,140250,1,0,0:0:0:0:
104,204,140342,1,0,0:0:0:0:
292,128,140435,1,0,0:0:0:0:
328,128,140528,5,0,0:0:0:0:
356,128,140620,1,0,0:0:0:0:
388,128,140666,1,0,0:0:0:0:
368,92,140713,1,0,0:0:0:0:
160,88,140759,1,0,0:0:0:0:
112,88,140805,1,0,0:0:0:0:
132,120,140852,1,0,0:0:0:0:
180,120,140898,1,0,0:0:0:0:
216,120,140944,1,0,0:0:0:0:
468,124,140991,1,0,0:0:0:0:
428,124,141037,1,0,0:0:0:0:
400,124,141083,1,0,0:0:0:0:
40,112,141268,5,0,0:0:0:0:
480,116,141453,1,0,0:0:0:0:
4,192,141824,5,0,0:0:0:0:
504,192,142009,1,0,0:0:0:0:
4,192,142194,1,0,0:0:0:0:
504,192,142379,1,0,0:0:0:0:
40,192,142935,6,0,L|88:120,1,47.5
436,192,143120,1,0,0:0:0:0:
40,192,143305,2,0,L|-16:104,1,95
436,192,143675,1,0,0:0:0:0:
388,192,143860,1,0,0:0:0:0:
340,192,144046,1,0,0:0:0:0:
40,192,144231,6,0,L|-28:108,1,95
340,192,144508,1,0,0:0:0:0:
40,192,144971,2,0,L|140:104,2,95
512,188,145527,1,0,0:0:0:0:
40,192,145619,1,0,0:0:0:0:
40,192,145897,6,0,L|104:80,1,95
512,188,146267,2,0,L|452:96,1,95
40,192,146638,2,0,L|-12:88,1,95
512,188,147008,2,0,L|548:80,1,95
40,192,147378,1,0,0:0:0:0:
512,188,147749,5,0,0:0:0:0:
4,192,147934,1,0,0:0:0:0:
512,188,148119,1,0,0:0:0:0:
4,192,148304,1,0,0:0:0:0:
480,192,148674,6,0,L|432:192,1,47.5
128,192,148859,1,0,0:0:0:0:
52,96,149045,2,0,L|116:96,1,47.5
412,88,149230,1,0,0:0:0:0:
52,284,149415,2,0,L|104:284,1,47.5
424,296,149600,1,0,0:0:0:0:
112,161,149785,2,0,L|212:256,1,95
464,196,150156,1,0,0:0:0:0:
28,164,150896,6,0,L|0:52,1,95
496,192,151267,1,0,0:0:0:0:
4,188,151452,1,0,0:0:0:0:
496,192,151637,1,0,0:0:0:0:
4,188,151822,1,0,0:0:0:0:
496,192,152007,2,0,L|536:88,1,95
4,188,152563,5,0,0:0:0:0:
496,192,152748,1,0,0:0:0:0:
256,192,152933,12,0,154044,0:0:0:0:
256,192,154414,5,0,0:0:0:0:
0,192,154599,6,0,L|108:192,1,95
496,192,154970,1,0,0:0:0:0:
128,192,155155,1,0,0:0:0:0:
0,192,155340,2,0,L|104:192,1,95
496,192,155710,1,0,0:0:0:0:
128,192,155895,1,0,0:0:0:0:
40,120,156081,6,0,L|-12:24,1,95
460,116,156451,2,0,L|512:32,1,95
64,288,156821,2,0,L|-12:352,1,95
456,280,157192,2,0,L|528:356,1,95
4,192,157562,5,0,0:0:0:0:
512,192,157747,1,0,0:0:0:0:
4,192,157932,1,0,0:0:0:0:
512,192,158302,1,0,0:0:0:0:
4,192,158488,1,0,0:0:0:0:
4,192,158673,6,0,P|44:140|76:116,1,95
512,192,159043,2,0,P|496:116|456:108,1,95
4,192,159413,1,0,0:0:0:0:
372,192,159599,1,0,0:0:0:0:
76,192,159784,1,0,0:0:0:0:
444,192,159969,1,0,0:0:0:0:
40,196,160339,6,0,B|152:100|276:64|396:112,1,380
390,109,161265,1,0,0:0:0:0:
40,196,161450,2,0,L|120:280,1,95
468,216,161820,1,0,0:0:0:0:
68,212,162191,6,0,L|296:212,1,190
4,212,162931,1,0,0:0:0:0:
376,188,163302,5,0,0:0:0:0:
336,192,163348,1,0,0:0:0:0:
296,188,163394,1,0,0:0:0:0:
320,160,163440,1,0,0:0:0:0:
360,160,163487,1,0,0:0:0:0:
152,192,163533,1,0,0:0:0:0:
124,196,163579,1,0,0:0:0:0:
96,196,163626,1,0,0:0:0:0:
280,188,163672,5,0,0:0:0:0:
312,188,163718,1,0,0:0:0:0:
300,232,163764,1,0,0:0:0:0:
60,140,163811,1,0,0:0:0:0:
80,140,163857,1,0,0:0:0:0:
120,140,163903,1,0,0:0:0:0:
148,120,163950,1,0,0:0:0:0:
160,88,163996,1,0,0:0:0:0:
4,212,164042,5,0,0:0:0:0:
508,204,164089,1,0,0:0:0:0:
4,144,164135,1,0,0:0:0:0:
508,144,164181,1,0,0:0:0:0:
0,84,164227,1,0,0:0:0:0:
508,84,164274,1,0,0:0:0:0:
4,276,164320,1,0,0:0:0:0:
508,268,164366,1,0,0:0:0:0:
4,212,164459,6,0,L|148:100,1,166.25
500,204,164968,2,0,L|408:124,1,95
4,212,165523,1,0,0:0:0:0:
504,216,165709,1,0,0:0:0:0:
4,212,165894,1,0,0:0:0:0:
8,192,177558,6,0,L|88:112,1,95
508,192,177929,1,0,0:0:0:0:
12,188,178114,1,0,0:0:0:0:
508,192,178484,6,0,P|432:180|316:128,1,190
12,188,179225,2,0,P|72:180|180:92,1,190
420,192,179780,6,0,L|344:104,1,95
12,192,180151,1,0,0:0:0:0:
420,192,181076,6,0,L|460:128,1,47.5
44,192,181261,1,0,0:0:0:0:
44,192,181447,1,0,0:0:0:0:
464,192,181632,1,0,0:0:0:0:
44,192,181817,2,0,L|116:128,2,95
464,192,182372,5,0,0:0:0:0:
44,192,182558,1,0,0:0:0:0:
464,192,182743,1,0,0:0:0:0:
44,192,182928,2,0,L|136:96,1,95
464,192,184039,6,0,L|432:136,1,47.5
44,192,184224,2,0,L|76:140,1,47.5
464,192,184409,1,0,0:0:0:0:
104,156,184594,5,0,0:0:0:0:
392,160,184687,1,0,0:0:0:0:
256,156,184780,1,0,0:0:0:0:
180,156,184872,1,0,0:0:0:0:
324,156,184965,1,0,0:0:0:0:
36,192,185150,5,0,0:0:0:0:
256,192,185242,1,0,0:0:0:0:
476,192,185335,1,0,0:0:0:0:
256,192,185428,1,0,0:0:0:0:
36,192,185520,1,0,0:0:0:0:
288,192,185613,1,0,0:0:0:0:
220,192,185705,1,0,0:0:0:0:
0,192,185798,1,0,0:0:0:0:
256,192,185890,1,0,0:0:0:0:
476,192,185983,1,0,0:0:0:0:
36,192,186076,1,0,0:0:0:0:
104,228,186261,5,0,0:0:0:0:
396,228,186353,1,0,0:0:0:0:
180,228,186446,1,0,0:0:0:0:
396,228,186538,1,0,0:0:0:0:
32,228,186631,1,0,0:0:0:0:
396,228,186724,1,0,0:0:0:0:
472,228,187001,5,0,0:0:0:0:
32,228,187372,6,0,L|112:124,1,95
472,228,187742,2,0,L|544:132,1,95
32,228,188112,1,0,0:0:0:0:
508,228,188297,1,0,0:0:0:0:
0,228,188483,1,0,0:0:0:0:
472,228,188668,1,0,0:0:0:0:
256,224,188853,2,0,L|364:224,1,95
32,160,189223,5,0,0:0:0:0:
480,160,189408,2,0,B|400:160|292:168|224:228|284:288|356:304|532:304,1,475
28,192,190704,5,0,0:0:0:0:
484,192,190890,1,0,0:0:0:0:
28,192,191075,1,0,0:0:0:0:
484,192,191260,1,0,0:0:0:0:
28,192,191630,6,0,L|-48:112,1,95
484,192,192001,1,0,0:0:0:0:
28,192,192186,1,0,0:0:0:0:
92,192,192556,6,0,L|36:304,1,95
256,192,192926,1,0,0:0:0:0:
96,192,193111,1,0,0:0:0:0:
416,192,193852,6,0,L|472:192,2,47.5
96,192,194222,2,0,L|40:192,2,47.5
24,192,194778,2,0,L|128:192,1,95
508,188,195148,2,0,L|408:188,1,95
252,192,195518,5,0,0:0:0:0:
24,192,195611,1,0,0:0:0:0:
252,192,195704,2,0,L|168:112,1,95
472,188,196259,1,0,0:0:0:0:
24,192,196629,6,0,L|160:192,1,95
119,192,197000,2,0,L|224:192,1,95
420,192,197555,1,0,0:0:0:0:
44,192,197740,1,0,0:0:0:0:
420,192,198111,1,0,0:0:0:0:
44,192,198481,5,0,0:0:0:0:
420,192,198666,1,0,0:0:0:0:
44,192,198851,1,0,0:0:0:0:
420,192,199036,1,0,0:0:0:0:
44,192,199222,1,0,0:0:0:0:
256,192,199592,12,0,203295,0:0:0:0:
24,192,203480,5,0,0:0:0:0:
504,192,203665,1,0,0:0:0:0:
40,260,204036,6,0,L|124:260,2,71.2500027179719
156,208,204313,1,0,0:0:0:0:
128,208,204406,2,0,L|52:208,1,71.2500027179719
192,208,204591,2,0,L|292:208,1,71.2500027179719
128,208,204776,1,0,0:0:0:0:
0,196,205146,6,0,L|76:104,1,71.2500027179719
504,192,205332,1,0,0:0:0:0:
24,196,205517,1,0,0:0:0:0:
504,192,205887,2,0,L|412:108,1,71.2500027179719
24,196,206072,1,0,0:0:0:0:
452,192,206257,2,0,L|284:192,2,142.500005435944
24,196,206998,1,0,0:0:0:0:
8,196,207368,5,0,0:0:0:0:
500,192,207553,1,0,0:0:0:0:
8,196,207739,2,0,L|160:196,1,142.500005435944
500,192,208109,2,0,L|348:192,1,142.500005435944
8,196,208479,2,0,L|184:196,1,142.500005435944
500,192,208850,2,0,L|348:192,1,142.500005435944
8,196,209220,1,0,0:0:0:0:
496,192,209405,1,0,0:0:0:0:
112,192,209960,5,0,0:0:0:0:
344,192,210053,2,0,L|292:136,1,71.2500027179719
256,192,210238,1,0,0:0:0:0:
112,192,210331,1,0,0:0:0:0:
468,192,210423,2,0,L|412:120,1,71.2500027179719
8,192,210609,2,0,L|96:204,1,71.2500027179719
8,192,211071,6,0,L|84:68,1,142.500005435944
508,192,211442,1,0,0:0:0:0:
8,192,211627,1,0,0:0:0:0:
416,192,211812,6,0,L|340:120,1,71.2500027179719
464,192,211997,1,0,0:0:0:0:
436,192,212090,2,0,L|376:136,1,71.2500027179719
384,192,212275,1,0,0:0:0:0:
356,192,212367,1,0,0:0:0:0:
8,192,212553,1,0,0:0:0:0:
508,192,212738,2,0,L|352:192,1,142.500005435944
8,192,213293,5,0,0:0:0:0:
508,192,213478,2,0,L|352:192,1,142.500005435944
8,192,213849,2,0,L|188:192,1,142.500005435944
432,192,214219,1,0,0:0:0:0:
24,192,214404,6,0,L|72:128,1,71.2500027179719
464,192,214589,1,0,0:0:0:0:
136,192,214682,1,0,0:0:0:0:
360,192,214775,2,0,L|320:132,1,71.2500027179719
8,192,214960,2,0,L|68:248,1,71.2500027179719
420,192,215145,1,0,0:0:0:0:
468,192,215515,6,0,L|320:192,2,142.500005435944
8,192,216256,5,0,0:0:0:0:
504,192,216626,1,0,0:0:0:0:
309,308,216811,6,0,L|485:308,1,142.500005435944
40,312,217182,1,0,0:0:0:0:
308,308,217367,1,0,0:0:0:0:
156,244,217552,6,0,L|-12:244,1,142.500005435944
440,248,217922,1,0,0:0:0:0:
152,240,218107,1,0,0:0:0:0:
304,156,218292,6,0,L|460:156,1,142.500005435944
40,156,218663,1,0,0:0:0:0:
304,156,218848,1,0,0:0:0:0:
152,68,219033,6,0,L|-8:68,1,142.500005435944
440,72,219403,1,0,0:0:0:0:
152,68,219589,1,0,0:0:0:0:
436,252,219774,6,0,L|552:348,1,142.500005435944
40,264,220144,1,0,0:0:0:0:
500,260,220329,1,0,0:0:0:0:
0,188,220514,5,0,0:0:0:0:
504,192,220699,1,0,0:0:0:0:
0,188,220885,2,0,P|88:160|120:108,1,142.500005435944
0,188,221255,1,0,0:0:0:0:
504,192,221440,2,0,P|424:168|356:116,2,142.500005435944
256,192,221903,1,0,0:0:0:0:
0,188,221996,1,0,0:0:0:0:
304,188,222181,2,0,L|424:64,1,142.500005435944
256,192,222551,12,0,224773,0:0:0:0:
0,192,225143,5,0,0:0:0:0:
508,192,225328,1,0,0:0:0:0:
0,192,225513,5,0,0:0:0:0:
256,192,225606,1,0,0:0:0:0:
508,192,225699,1,0,0:0:0:0:
256,192,225791,1,0,0:0:0:0:
0,192,225884,5,0,0:0:0:0:
256,192,225976,1,0,0:0:0:0:
256,192,226069,1,0,0:0:0:0:
0,192,226161,1,0,0:0:0:0:
256,192,226254,1,0,0:0:0:0:
508,192,226347,1,0,0:0:0:0:
0,192,226439,5,0,0:0:0:0:
128,192,226486,1,0,0:0:0:0:
256,192,226532,1,0,0:0:0:0:
388,192,226578,1,0,0:0:0:0:
508,192,226624,1,0,0:0:0:0:
388,192,226671,1,0,0:0:0:0:
256,192,226717,1,0,0:0:0:0:
128,192,226763,1,0,0:0:0:0:
0,192,226810,1,0,0:0:0:0:
256,192,226995,5,0,0:0:0:0:
488,188,227180,6,0,L|384:88,1,142.500005435944
256,60,227735,2,0,B|480:60|480:60|252:320|252:320|44:240|44:240|216:128|216:128|28:36|28:36|264:36,1,1425.00005435944
0,192,227920,6,0,L|112:100,1,142.500005435944
508,192,228291,1,0,0:0:0:0:
0,192,228476,6,0,P|88:104|160:72,1,190
508,192,229217,2,0,P|496:272|400:320,1,190
32,192,229957,6,0,L|68:140,1,47.5
0,288,229957,2,0,B|204:288|204:288|340:160|340:160|160:52,1,570
484,184,230142,1,0,0:0:0:0:
4,192,230235,1,0,0:0:0:0:
444,188,230327,1,0,0:0:0:0:
48,192,230420,1,0,0:0:0:0:
416,184,230513,1,0,0:0:0:0:
76,192,230605,2,0,L|120:144,1,47.5
392,188,230790,2,0,L|268:76,1,142.5
4,192,231438,6,0,L|64:100,3,95
480,192,232179,2,0,L|280:192,1,190
192,96,232827,2,0,L|292:96,1,95
4,192,232920,6,0,L|68:96,1,95
384,216,233197,2,0,L|324:308,1,95
508,192,233290,2,0,L|456:92,1,95
108,228,233568,2,0,L|200:320,1,95
32,192,233660,2,0,L|-12:96,1,95
276,52,233938,2,0,L|396:76,1,95
480,192,234031,2,0,L|536:104,1,95
148,192,234401,6,0,P|200:168|272:96,2,142.5
464,192,235141,2,0,L|372:268,1,95
8,192,235882,5,0,0:0:0:0:
132,96,235882,2,0,L|336:96,3,190
500,192,235975,1,0,0:0:0:0:
4,116,236067,1,0,0:0:0:0:
216,236,236067,2,0,L|412:236,3,190
496,112,236160,1,0,0:0:0:0:
8,272,236252,1,0,0:0:0:0:
504,268,236345,1,0,0:0:0:0:
0,40,236438,1,0,0:0:0:0:
496,36,236530,1,0,0:0:0:0:
8,192,236623,6,0,L|64:120,1,47.5
500,192,236808,2,0,L|452:144,1,47.5
8,192,236993,2,0,L|204:188,1,190
340,256,237641,2,0,P|392:208|440:128,1,142.5
12,192,238104,1,0,0:0:0:0:
240,188,238289,1,0,0:0:0:0:
480,192,238474,1,0,0:0:0:0:
8,196,238845,5,0,0:0:0:0:
496,192,238891,1,0,0:0:0:0:
20,196,238937,2,0,L|56:144,1,47.5
480,192,239215,5,0,0:0:0:0:
16,200,239261,1,0,0:0:0:0:
480,192,239307,2,0,L|452:152,1,47.5
88,108,239585,6,8,P|144:108|272:164,1,190
16,196,240326,6,0,L|112:116,3,95
496,136,241066,2,0,P|424:136|336:212,1,190
4,192,241807,5,0,0:0:0:0:
20,128,241900,1,0,0:0:0:0:
512,192,241992,1,0,0:0:0:0:
472,140,242085,1,0,0:0:0:0:
32,192,242177,5,0,0:0:0:0:
472,196,242224,1,0,0:0:0:0:
60,192,242270,1,0,0:0:0:0:
440,192,242316,1,0,0:0:0:0:
4,240,242363,1,0,0:0:0:0:
504,240,242409,1,0,0:0:0:0:
0,156,242455,1,0,0:0:0:0:
504,160,242501,1,0,0:0:0:0:
8,192,242548,6,0,L|160:64,1,190
464,204,243288,6,0,P|420:188|384:96,2,142.5
8,200,244029,2,0,L|88:104,4,95
8,196,244955,6,0,L|68:136,1,47.5
500,192,245140,1,0,0:0:0:0:
44,192,245325,2,0,L|80:148,1,47.5
464,192,245510,1,0,0:0:0:0:
248,192,245695,1,0,0:0:0:0:
440,192,245880,2,4,L|268:328,1,190
48,192,246528,6,0,L|172:80,1,142.5
436,192,246991,2,0,L|208:192,1,190
0,192,247732,5,0,0:0:0:0:
52,324,247732,2,0,L|392:120,2,380
252,100,247732,2,0,L|252:328,4,190
80,56,247732,2,0,B|276:56|276:56|448:136,2,380
500,192,247825,1,0,0:0:0:0:
156,280,247825,1,0,0:0:0:0:
28,192,247917,1,0,0:0:0:0:
32,68,247917,1,0,0:0:0:0:
480,192,248010,1,0,0:0:0:0:
108,152,248010,1,0,0:0:0:0:
64,192,248102,1,0,0:0:0:0:
416,48,248195,1,0,0:0:0:0:
444,192,248195,1,0,0:0:0:0:
28,124,248287,5,0,0:0:0:0:
336,160,248287,1,0,0:0:0:0:
468,128,248334,1,0,0:0:0:0:
404,300,248380,1,0,0:0:0:0:
0,124,248380,1,0,0:0:0:0:
496,128,248426,1,0,0:0:0:0:
64,124,248473,1,0,0:0:0:0:
432,128,248519,1,0,0:0:0:0:
4,264,248565,5,0,0:0:0:0:
32,288,248565,1,0,0:0:0:0:
504,268,248611,1,0,0:0:0:0:
332,40,248658,1,0,0:0:0:0:
32,264,248658,1,0,0:0:0:0:
256,268,248704,1,0,0:0:0:0:
472,272,248750,1,0,0:0:0:0:
40,128,248750,1,0,0:0:0:0:
20,264,248797,1,0,0:0:0:0:
432,36,248843,1,0,0:0:0:0:
492,272,248843,1,0,0:0:0:0:
4,264,248889,1,0,0:0:0:0:
180,64,248935,1,0,0:0:0:0:
504,276,248935,1,0,0:0:0:0:
80,264,248982,1,0,0:0:0:0:
448,272,249028,1,0,0:0:0:0:
448,288,249028,1,0,0:0:0:0:
0,192,249121,5,0,0:0:0:0:
500,192,249213,1,0,0:0:0:0:
256,192,249584,12,0,257360,0:0:0:0:
76,192,257453,6,0,L|176:192,7,95
