osu file format v14

[General]
AudioFilename: IA IA, Night of Desire MMD HD.mp3
AudioLeadIn: 0
PreviewTime: 203295
Countdown: 0
SampleSet: Normal
StackLeniency: 0.7
Mode: 2
LetterboxInBreaks: 1
WidescreenStoryboard: 1

[Editor]
Bookmarks: 32583,68873,105533,141453,166264,190704,204036,228476
DistanceSpacing: 1
BeatDivisor: 4
GridSize: 4
TimelineZoom: 1

[Metadata]
Title:IA IA, Night of Desire
TitleUnicode:IA IA, Night of Desire
Artist:IA
ArtistUnicode:IA
Creator:afk98
Version:AR0 Easy m8
Source:
Tags:
BeatmapID:689399
BeatmapSetID:307446

[Difficulty]
HPDrainRate:5.9
CircleSize:4.7
OverallDifficulty:8
ApproachRate:0
SliderMultiplier:3
SliderTickRate:1

[Events]
//Background and Video events
//Break Periods
//Storyboard Layer 0 (Background)
//Storyboard Layer 1 (Fail)
//Storyboard Layer 2 (Pass)
//Storyboard Layer 3 (Foreground)
//Storyboard Sound Samples

[TimingPoints]
4810,370.30865226166,4,1,0,100,1,0
18141,-50,4,1,0,100,0,0
21103,-100,4,1,0,100,0,0
28509,-50,4,1,0,100,0,0
29990,-100,4,1,0,100,0,0
43322,-50,4,1,0,100,0,0
44803,-100,4,1,0,100,0,0
57023,-50,4,1,0,100,0,0
68873,-100,4,1,0,100,0,1
93684,-100,4,1,0,100,0,0
141083,-100,4,1,0,100,0,1
166264,-100,4,1,0,100,0,0
204036,-66.6666666666667,4,1,0,100,0,1
228476,-100,4,1,0,100,0,0
253657,-66.6666666666667,4,1,0,75,0,0
255879,-66.6666666666667,4,1,0,50,0,0
257360,-66.6666666666667,4,1,0,25,0,0

[Colours]
Combo1 : 255,0,128
Combo2 : 128,128,128
Combo3 : 255,128,255
Combo4 : 255,128,128

[HitObjects]
252,192,4810,6,0,L|408:192,1,150
440,192,6291,5,0,0:0:0:0:
72,192,6476,2,0,L|204:192,2,75
492,192,7031,2,0,L|256:192,2,225
492,192,7957,6,0,L|412:192,2,75
28,192,8513,2,0,L|256:192,2,225
408,88,9438,6,0,L|460:32,1,75
124,88,9624,1,0,0:0:0:0:
253,192,9994,2,0,L|-3:192,1,225
504,188,10549,1,0,0:0:0:0:
124,88,10920,6,0,L|68:32,1,75
408,88,11105,1,0,0:0:0:0:
253,192,11475,2,0,L|500:192,1,225
40,188,12031,1,0,0:0:0:0:
252,192,12401,6,4,L|416:192,1,150
40,188,12771,2,0,L|120:324,1,150,0|4,0:0|0:0,0:0:0:0:
416,192,13141,2,0,L|492:192|488:192,1,75,0|4,0:0|0:0,0:0:0:0:
152,192,13327,2,0,L|76:192,1,75
416,192,13512,1,4,0:0:0:0:
152,192,13697,1,8,0:0:0:0:
416,192,13882,6,4,L|256:192,1,150
4,192,14252,2,0,L|160:192,1,150,0|4,0:0|0:0,0:0:0:0:
416,192,14623,2,0,L|320:192,1,75,0|4,0:0|0:0,0:0:0:0:
112,192,14808,2,0,L|192:192,1,75
468,192,14993,1,4,0:0:0:0:
480,80,15363,6,0,L|304:136,1,150
28,288,15919,5,0,0:0:0:0:
484,296,16196,1,0,0:0:0:0:
28,288,16474,1,0,0:0:0:0:
40,80,16845,5,0,0:0:0:0:
512,76,17030,1,0,0:0:0:0:
40,232,17400,5,0,0:0:0:0:
512,232,17493,1,0,0:0:0:0:
80,176,17585,1,0,0:0:0:0:
512,180,17678,1,0,0:0:0:0:
116,120,17770,1,0,0:0:0:0:
512,128,17863,1,0,0:0:0:0:
160,64,17955,1,0,0:0:0:0:
0,240,18511,6,0,L|600:240,1,600
68,160,19252,2,0,L|372:160,1,300
48,68,19807,2,0,L|356:68,1,300
512,284,20362,2,14,L|-88:284,1,600
0,192,21103,6,0,L|232:192,1,225
512,192,21659,2,0,L|332:192,1,150
512,192,22214,1,0,0:0:0:0:
437,192,22584,6,0,L|531:192,1,75
52,192,22769,2,0,L|-24:192,1,75
440,192,22955,2,0,L|524:192,1,75
52,192,23140,2,0,L|-48:192,1,75
440,192,23325,2,0,L|352:192,1,75
52,192,23510,2,0,L|128:192,1,75
440,192,23695,2,0,L|308:192,1,75
52,192,23880,2,0,L|132:192,1,75
304,192,24066,6,0,L|-56:192,1,300
512,284,24806,2,0,L|172:284,1,300
256,192,25547,6,0,L|408:192,1,150
200,128,25917,2,0,L|44:128,1,150
316,256,26287,2,0,L|144:256,1,150
388,80,26658,2,0,L|544:80,1,150
284,192,27028,6,0,L|524:192,1,225
0,192,27583,1,0,0:0:0:0:
150,192,27769,2,0,L|-22:192,1,150,4|0,0:0|0:0,0:0:0:0:
150,192,28139,1,4,0:0:0:0:
360,192,28509,6,0,L|524:192,1,150
204,120,28694,2,0,L|376:120,1,150
48,40,28880,2,0,L|240:40,1,150
152,284,29065,2,0,L|2:284,1,150
300,192,29250,2,0,L|136:192,1,150
456,108,29435,2,0,L|304:108,1,150
8,192,29620,1,0,0:0:0:0:
512,192,29713,1,0,0:0:0:0:
8,192,29805,1,0,0:0:0:0:
512,192,29898,1,0,0:0:0:0:
150,192,29990,6,0,L|322:192,1,150
104,276,30361,2,0,L|-72:276,1,150
452,108,30731,2,0,L|324:232,1,150
16,112,31101,2,0,L|228:112,1,150
512,192,31472,6,0,L|512:112,1,75
0,196,31657,2,0,L|0:116,1,75
512,192,31842,1,0,0:0:0:0:
0,196,31935,1,0,0:0:0:0:
452,192,32027,1,0,0:0:0:0:
60,196,32120,1,0,0:0:0:0:
0,196,32212,1,0,0:0:0:0:
512,192,32305,1,0,0:0:0:0:
256,192,32397,1,0,0:0:0:0:
256,192,32490,1,0,0:0:0:0:
256,192,32583,1,0,0:0:0:0:
512,192,32768,1,0,0:0:0:0:
0,196,32953,6,4,L|168:196,1,150,4|0,0:0|0:0,0:0:0:0:
452,192,33323,1,0,0:0:0:0:
140,192,33508,2,0,L|56:64,1,150
512,192,34064,2,0,L|196:192,1,300
212,192,34619,1,0,0:0:0:0:
0,192,34990,5,0,0:0:0:0:
0,192,35175,2,0,L|172:192,2,150
508,192,35730,1,0,0:0:0:0:
256,192,36101,2,0,L|396:52,1,150
0,192,36656,1,0,0:0:0:0:
508,192,36841,6,0,L|332:192,2,150
0,192,37397,6,0,L|184:152,1,150
508,192,37767,2,0,L|312:228,1,150
0,192,38137,2,0,L|92:192,1,75
508,192,38322,2,0,L|432:192,1,75
96,192,38508,1,0,0:0:0:0:
256,192,38878,5,12,0:0:0:0:
508,192,39063,2,0,L|352:192,2,150
0,192,39619,2,0,L|172:192,2,150
508,192,40174,2,0,L|344:192,2,150
0,192,40729,2,0,L|88:192,1,75
344,112,40915,1,0,0:0:0:0:
300,96,41007,1,0,0:0:0:0:
252,96,41100,1,0,0:0:0:0:
204,104,41192,1,0,0:0:0:0:
164,128,41285,1,0,0:0:0:0:
132,152,41377,1,0,0:0:0:0:
508,192,41470,6,0,L|324:192,1,150
0,192,41840,1,0,0:0:0:0:
508,192,41933,1,0,0:0:0:0:
508,192,42026,1,0,0:0:0:0:
0,192,42118,1,0,0:0:0:0:
504,80,42211,1,0,0:0:0:0:
232,100,42396,1,0,0:0:0:0:
232,100,42766,2,0,L|-88:100,1,300
304,188,43507,6,0,L|-44:188,1,300
512,268,43877,2,0,L|188:268,1,300
208,36,44247,2,0,L|508:36,1,300
0,192,44618,2,0,L|368:192,1,300,0|4,0:0|0:0,0:0:0:0:
4,104,44988,6,0,L|164:104,2,150
512,96,45543,1,0,0:0:0:0:
400,228,45914,1,0,0:0:0:0:
8,112,46099,1,0,0:0:0:0:
500,200,46284,2,0,L|344:200,1,150
64,64,46840,1,0,0:0:0:0:
256,192,47210,5,0,0:0:0:0:
508,188,47395,1,0,0:0:0:0:
0,192,47580,1,0,0:0:0:0:
75,192,47950,2,0,L|-21:192,1,75
508,188,48136,1,0,0:0:0:0:
436,184,48506,1,0,0:0:0:0:
0,192,48691,2,0,B|104:88|148:72|144:72,2,150
0,196,49432,5,0,0:0:0:0:
364,184,49524,1,0,0:0:0:0:
48,116,49617,2,0,L|112:160,1,75
408,324,49802,2,0,L|316:272,1,75
8,296,49987,1,0,0:0:0:0:
460,48,50080,1,0,0:0:0:0:
432,56,50172,1,0,0:0:0:0:
100,72,50265,2,0,L|20:48,1,75
256,192,50450,2,0,L|304:120,1,75
4,192,50635,1,0,0:0:0:0:
448,192,50728,5,12,0:0:0:0:
4,192,50913,2,0,L|128:192,1,75
448,192,51098,2,0,L|328:80,1,150
496,192,51468,1,0,0:0:0:0:
4,192,51839,2,0,L|200:192,1,150
496,192,52209,1,0,0:0:0:0:
348,192,52394,1,0,0:0:0:0:
4,192,52764,2,0,L|328:192,1,300
4,192,53320,1,0,0:0:0:0:
496,192,53505,5,0,0:0:0:0:
4,192,53690,2,0,L|192:192,1,150
496,192,54061,2,0,L|336:192,1,150
4,192,54431,2,0,L|192:192,1,150
496,192,54801,1,0,0:0:0:0:
256,192,54986,1,0,0:0:0:0:
4,192,55171,1,0,0:0:0:0:
256,192,55357,1,0,0:0:0:0:
496,192,55542,1,0,0:0:0:0:
256,192,55727,1,0,0:0:0:0:
4,192,55912,1,0,0:0:0:0:
496,192,56097,6,0,L|332:192,1,150
4,192,56468,1,0,0:0:0:0:
496,192,56653,1,4,0:0:0:0:
4,192,57023,1,4,0:0:0:0:
4,192,57393,2,4,L|604:192,1,600
4,192,57949,1,0,0:0:0:0:
496,192,58134,1,0,0:0:0:0:
300,192,58319,2,0,L|-16:192,2,300
300,192,58875,1,0,0:0:0:0:
4,192,59245,1,0,0:0:0:0:
496,192,59615,6,0,L|-120:192,1,600
496,264,60356,2,0,L|-136:264,1,600
500,68,60911,2,0,L|-136:68,1,600
500,68,61467,1,0,0:0:0:0:
0,192,62022,5,0,0:0:0:0:
512,188,62207,1,0,0:0:0:0:
512,128,62392,1,0,0:0:0:0:
0,192,62578,2,0,L|604:192,1,600
24,48,63318,2,0,L|560:336,1,600
12,336,63874,2,0,L|552:44,1,600
52,88,64429,1,0,0:0:0:0:
240,80,64614,1,0,0:0:0:0:
240,80,64800,1,0,0:0:0:0:
168,192,65540,6,0,L|-132:192,1,300
384,108,65910,2,0,L|48:108,1,300
512,320,66281,2,0,L|188:320,1,300
56,128,66651,2,0,L|392:128,1,300
60,280,67021,2,0,L|228:280,1,150
472,52,67207,2,0,L|344:140,1,150
16,72,67392,2,0,L|188:72,1,150
440,196,67577,2,0,L|272:220,1,150
56,156,67762,2,0,L|248:56,1,150
448,120,67947,2,0,L|240:196,1,150
512,184,68132,5,0,0:0:0:0:
0,192,68179,1,0,0:0:0:0:
504,248,68225,1,0,0:0:0:0:
4,248,68271,1,0,0:0:0:0:
504,116,68317,1,0,0:0:0:0:
0,112,68364,1,0,0:0:0:0:
504,320,68456,1,0,0:0:0:0:
8,328,68503,1,0,0:0:0:0:
152,104,68688,6,8,L|368:332,1,300
