osu file format v13

[General]
AudioFilename: IA - Death FairyTale.mp3
AudioLeadIn: 0
PreviewTime: -1
Countdown: 1
SampleSet: Soft
StackLeniency: 0.7
Mode: 0
LetterboxInBreaks: 1
WidescreenStoryboard: 0

[Editor]
DistanceSpacing: 0.8
BeatDivisor: 4
GridSize: 4
TimelineZoom: 1

[Metadata]
Title:Death FairyTale
TitleUnicode:Death FairyTale
Artist:IA
ArtistUnicode:IA
Creator:Gaxel
Version:Extra
Source:
Tags:vocaloid Death Fairytale IA
BeatmapID:382579
BeatmapSetID:156097

[Difficulty]
HPDrainRate:7
CircleSize:4
OverallDifficulty:8
ApproachRate:9
SliderMultiplier:1.4
SliderTickRate:1

[Events]
//Background and Video events
0,0,"Ia vocaloid.jpg",0,0
//Break Periods
2,79723,90808
//Storyboard Layer 0 (Background)
//Storyboard Layer 1 (Fail)
//Storyboard Layer 2 (Pass)
//Storyboard Layer 3 (Foreground)
//Storyboard Sound Samples
//Background Colour Transformations
3,100,163,162,255

[TimingPoints]
1870,230.769230769231,6,2,0,100,1,0
24024,230.769230769231,4,2,0,100,1,0
24115,-133.333333333333,4,2,0,90,0,0
24215,-80,4,2,0,63,0,0
24691,-133.333333333333,4,2,0,70,0,0
24947,230.769230769231,6,2,0,100,1,0
24947,-133.333333333333,6,2,0,60,0,0
25615,-133.333333333333,6,2,0,80,0,0
25845,-133.333333333333,6,2,0,60,0,0
27345,-133.333333333333,6,2,0,80,0,0
27461,-133.333333333333,6,2,0,60,0,0
46870,-200,6,2,0,20,0,0
52177,-100,6,2,0,70,0,0
57691,-66.6666666666667,6,2,0,95,0,0
58062,-66.6666666666667,6,2,0,90,0,1
59562,-58.8235294117647,6,2,0,100,0,1
59908,-66.6666666666667,6,2,0,90,0,1
62331,-58.8235294117647,6,2,0,100,0,1
62562,-66.6666666666667,6,2,0,90,0,1
63831,-58.8235294117647,6,2,0,100,0,1
64062,-66.6666666666667,6,2,0,90,0,1
65216,-58.8235294117647,6,2,0,100,0,1
65331,-66.6666666666667,6,2,0,90,0,1
67870,-58.8235294117647,6,2,0,100,0,1
68216,-66.6666666666667,6,2,0,90,0,1
69254,-58.8235294117647,6,2,0,100,0,1
69485,-66.6666666666667,6,2,0,90,0,1
70639,-58.8235294117647,6,2,0,100,0,1
70870,-66.6666666666667,6,2,0,90,0,1
73408,-58.8235294117647,6,2,0,100,0,1
73523,-133.333333333333,6,2,0,70,0,1
74447,-100,6,2,0,85,0,1
74735,-58.8235294117647,6,2,0,100,0,1
75023,-100,6,2,0,85,0,1
77562,-66.6666666666667,6,2,0,90,0,1
77793,-100,6,2,0,85,0,1
79062,-133.333333333333,6,2,0,30,0,0
102230,-200,6,2,0,10,0,0
107653,-100,6,2,0,75,0,0
112178,230.769230769231,4,2,0,100,1,0
112730,-80,4,2,0,75,0,0
114024,230.769230769231,6,2,0,100,1,0
114024,-66.6666666666667,6,2,0,90,0,1
115408,-58.8235294117647,6,2,0,100,0,1
115639,-66.6666666666667,6,2,0,90,0,1
116793,-58.8235294117647,6,2,0,100,0,1
117024,-66.6666666666667,6,2,0,90,0,1
118177,-58.8235294117647,6,2,0,100,0,1
118408,-66.6666666666667,6,2,0,90,0,1
119504,-58.8235294117647,6,2,0,100,0,1
119793,-66.6666666666667,6,2,0,90,0,1
120889,-58.8235294117647,6,2,0,100,0,1
121177,-66.6666666666667,6,2,0,90,0,1
122274,-58.8235294117647,6,2,0,100,0,1
122562,-66.6666666666667,6,2,0,90,0,1
123665,-58.8235294117647,6,2,0,100,0,1
124062,-66.6666666666667,6,2,0,90,0,1
125100,-58.8235294117647,6,2,0,100,0,1
125331,-66.6666666666667,6,2,0,90,0,1
126427,-58.8235294117647,6,2,0,100,0,1
126716,-66.6666666666667,6,2,0,90,0,1
127153,-66.6666666666667,6,2,0,40,0,1
127615,-66.6666666666667,6,2,0,90,0,1
135947,-133.333333333333,6,2,0,40,0,0
138807,-200,6,2,0,10,0,0
142640,500,6,2,0,100,1,0

[Colours]
Combo1 : 128,128,128
Combo2 : 255,255,255
Combo3 : 255,0,128
Combo4 : 20,20,20

[HitObjects]
88,120,24139,5,8,0:0:0:0:
88,132,24196,1,0,0:0:0:0:
88,144,24254,2,0,L|72:244,1,87.5,4|2,0:0|0:0,0:0:0:0:
56,328,24485,1,0,0:0:0:0:
160,376,24600,1,0,0:0:0:0:
208,256,24715,2,0,P|256:272|272:288,1,52.5000020027161
412,320,24947,6,0,P|416:264|412:248,1,52.5000020027161
388,164,25177,1,0,0:0:0:0:
472,52,25293,2,0,P|428:32|368:40,1,105.000004005432
228,104,25639,1,2,0:0:0:0:
216,112,25696,1,0,0:0:0:0:
204,112,25754,1,0,0:0:0:0:
192,112,25812,1,0,0:0:0:0:
184,108,25869,6,0,P|152:120|112:128,1,52.5000020027161,4|2,0:0|0:0,0:0:0:0:
224,228,26100,2,0,L|292:256,1,52.5000020027161
160,312,26331,2,0,P|136:276|132:200,1,105.000004005432
112,64,26677,2,0,P|192:68|216:92,1,105.000004005432
304,216,27023,2,0,L|364:128,1,105.000004005432
472,36,27369,5,2,0:0:0:0:
476,48,27427,1,0,0:0:0:0:
480,60,27485,2,0,P|484:88|488:120,1,52.5000020027161,0|4,0:0|0:0,0:0:0:0:
408,264,27716,2,0,P|368:304|312:320,1,105.000004005432
144,328,28062,2,0,B|108:292|108:292|112:272,1,52.5000020027161
264,252,28292,1,0,0:0:0:0:
368,168,28523,6,0,L|432:204,1,52.5000020027161
336,304,28754,1,0,0:0:0:0:
268,204,28869,2,0,P|264:144|264:136,1,52.5000020027161
156,156,29100,1,0,0:0:0:0:
64,40,29331,1,0,0:0:0:0:
40,148,29446,2,0,L|24:216,1,52.5000020027161
164,156,29792,2,0,B|160:108|116:84|116:84|132:48,1,105.000004005432
312,112,30139,1,8,0:0:0:0:
320,132,30254,2,0,B|344:152|344:152|344:192,1,52.5000020027161
344,196,30427,1,8,0:0:0:0:
336,216,30485,2,4,B|320:240|284:276|284:276|312:296,1,105.000004005432
152,336,31177,22,0,P|112:312|104:300,1,52.5000020027161
172,224,31408,1,0,0:0:0:0:
200,120,31523,1,0,0:0:0:0:
272,200,31639,2,0,B|272:232|272:232|288:252,1,52.5000020027161
88,308,31869,1,0,0:0:0:0:
80,300,31927,1,0,0:0:0:0:
76,292,31985,1,0,0:0:0:0:
96,136,32100,6,0,L|160:136|160:136,1,52.5000020027161
256,216,32331,1,0,0:0:0:0:
256,76,32446,1,0,0:0:0:0:
416,136,32562,6,0,L|352:136|352:136,1,52.5000020027161
344,304,32792,1,8,0:0:0:0:
336,312,32850,1,0,0:0:0:0:
328,320,32908,1,0,0:0:0:0:
320,324,32965,1,0,0:0:0:0:
312,328,33023,2,0,B|284:344|284:344|208:308,1,105.000004005432,4|0,0:0|0:0,0:0:0:0:
308,208,33369,6,0,P|340:184|424:192,1,105.000004005432
76,256,33946,2,0,B|60:224|60:224|48:200,1,52.5000020027161
128,64,34177,2,0,L|152:116,1,52.5000020027161
320,144,34408,2,0,L|288:92,1,52.5000020027161
360,24,34639,1,0,0:0:0:0:
448,72,34754,1,0,0:0:0:0:
448,88,34812,1,0,0:0:0:0:
448,104,34869,1,0,0:0:0:0:
448,120,34927,1,0,0:0:0:0:
448,132,34985,2,0,P|440:164|424:188,1,52.5000020027161,0|0,0:0|0:0,0:0:0:0:
312,272,35215,5,0,0:0:0:0:
292,280,35273,1,0,0:0:0:0:
272,288,35331,1,0,0:0:0:0:
260,300,35446,1,0,0:0:0:0:
248,312,35504,1,0,0:0:0:0:
232,316,35562,1,0,0:0:0:0:
216,324,35619,1,0,0:0:0:0:
200,320,35677,1,0,0:0:0:0:
188,312,35735,1,0,0:0:0:0:
176,296,35792,6,0,B|172:260|172:260|156:244,1,52.5000020027161
156,124,36023,1,0,0:0:0:0:
328,120,36254,1,0,0:0:0:0:
448,216,36369,2,0,P|428:248|396:264,1,52.5000020027161
248,208,36600,1,0,0:0:0:0:
300,344,36715,2,0,P|276:324|260:288,1,52.5000020027161
168,224,36946,6,0,P|179:200|196:180,1,52.5000020027161
312,120,37177,2,0,P|325:142|335:169,1,52.5000020027161
416,280,37408,2,0,P|408:328|356:368,1,105.000004005432
304,188,37754,2,0,P|304:232|336:284,1,105.000004005432
224,372,38100,1,0,0:0:0:0:
112,304,38216,2,0,P|112:256|88:200,1,105.000004005432
132,48,38562,6,0,L|188:72,1,52.5000020027161
328,56,38792,2,0,P|344:100|320:160,1,105.000004005432
248,216,39139,1,0,0:0:0:0:
192,144,39254,1,0,0:0:0:0:
248,80,39369,1,0,0:0:0:0:
328,56,39485,2,0,L|404:140,1,105.000004005432
328,248,39831,5,0,0:0:0:0:
196,304,39946,2,0,P|216:256|212:200,1,105.000004005432
252,44,40292,2,0,P|300:56|336:104,1,105.000004005432
360,332,40639,2,0,L|400:228,1,105.000004005432
380,72,40985,2,0,L|316:104,1,52.5000020027161
172,48,41215,2,0,P|136:80|132:100,1,52.5000020027161
132,96,41389,5,0,0:0:0:0:
132,112,41446,1,0,0:0:0:0:
136,128,41504,1,0,0:0:0:0:
140,144,41562,2,0,P|156:176|152:208,1,52.5000020027161
312,344,41908,2,0,L|328:268,1,52.5000020027161
344,64,42254,2,0,L|328:128,1,52.5000020027161
224,296,42485,5,0,0:0:0:0:
212,304,42542,1,0,0:0:0:0:
44,332,42715,2,0,L|80:272,1,52.5000020027161
36,152,42946,1,0,0:0:0:0:
148,48,43062,2,0,L|248:84,1,105.000004005432
384,40,43408,1,0,0:0:0:0:
404,152,43523,6,0,L|440:160,1,26.2500010013581
416,176,43639,2,0,L|440:192,1,26.2500010013581
432,200,43754,2,0,L|456:216,1,26.2500010013581
336,292,43985,6,0,L|324:264,1,26.2500010013581
312,312,44100,2,0,L|340:344,1,26.2500010013581
288,320,44216,2,0,L|272:276,1,26.2500010013581
264,320,44331,2,0,L|272:344,1,26.2500010013581
240,316,44446,2,0,P|212:292|132:260,1,105.000004005432
72,164,44793,6,0,L|40:144,1,26.2500010013581
104,72,44908,2,0,L|132:40,1,26.2500010013581
168,140,45023,2,0,L|196:156,1,26.2500010013581
216,56,45139,2,0,L|252:40,1,26.2500010013581
304,104,45254,2,0,L|292:144,1,26.2500010013581
368,44,45370,2,0,L|380:68,1,26.2500010013581
468,56,45485,2,0,L|456:100,1,26.2500010013581
400,184,45658,1,0,0:0:0:0:
448,288,45831,6,0,P|408:312|400:332,1,52.5000020027161
392,320,46004,1,0,0:0:0:0:
376,320,46062,1,0,0:0:0:0:
248,376,46292,2,0,L|200:328,1,52.5000020027161
88,288,46523,1,0,0:0:0:0:
80,272,46581,1,0,0:0:0:0:
80,252,46639,2,0,P|76:220|64:180,1,52.5000020027161,0|4,0:0|0:0,0:0:0:0:
208,60,46870,6,0,L|196:96,1,35,0|0,0:0|0:0,0:0:0:0:
128,224,47100,2,0,P|144:244|164:252,1,35
296,204,47331,1,0,0:0:0:0:
176,152,47446,2,0,P|120:136|104:144,1,70
116,28,47792,1,0,0:0:0:0:
276,76,47908,2,0,P|296:100|300:148,1,70
252,296,48254,6,0,P|264:304|288:312,1,35
232,208,48485,2,0,P|212:216|176:252,1,70
100,352,48831,2,0,P|80:328|68:292,1,70
252,300,49177,2,0,P|280:308|296:316,1,35
448,348,49408,2,0,P|448:304|436:272,1,70
484,168,49754,1,0,0:0:0:0:
340,188,49869,6,0,P|324:212|280:248,1,70
220,320,50215,1,0,0:0:0:0:
180,228,50331,1,0,0:0:0:0:
236,144,50446,2,0,P|244:104|244:96,1,35
136,36,50677,2,0,P|96:64|80:96,1,70
132,188,51023,1,0,0:0:0:0:
136,36,51139,5,0,0:0:0:0:
292,56,51254,2,0,P|324:84|336:112,1,70
372,312,51600,2,0,P|332:288|316:260,1,70
188,224,51946,1,0,0:0:0:0:
356,52,52177,1,4,0:0:0:0:
360,64,52235,1,0,0:0:0:0:
364,76,52292,1,0,0:0:0:0:
368,88,52350,1,0,0:0:0:0:
372,100,52408,1,0,0:0:0:0:
376,112,52465,1,0,0:0:0:0:
380,124,52523,1,0,0:0:0:0:
384,136,52581,1,0,0:0:0:0:
388,144,52639,6,0,P|392:180|456:264,1,140
320,344,52985,2,0,P|264:324|172:340,1,140
48,256,53331,1,0,0:0:0:0:
185,333,53446,1,0,0:0:0:0:
320,344,53562,2,0,L|304:264,1,70
260,64,53792,2,0,P|236:108|160:180,1,140,0|0,0:0|0:0,0:0:0:0:
48,256,54254,6,0,P|56:304|136:352,1,140
288,352,54600,1,0,0:0:0:0:
156,232,54716,2,0,P|144:180|72:128,1,140
260,64,55062,1,0,0:0:0:0:
324,220,55177,1,0,0:0:0:0:
260,64,55292,1,0,0:0:0:0:
448,60,55408,6,0,L|436:128,1,70
404,336,55639,2,0,P|352:324|320:304,1,70
192,176,55869,2,0,L|112:220,1,70
224,60,56100,2,0,P|264:76|304:180,1,140
452,232,56446,1,0,0:0:0:0:
288,328,56562,2,0,L|200:336,1,70
288,220,56792,6,0,P|344:232|364:248,1,70
456,328,57023,1,0,0:0:0:0:
452,172,57139,2,0,L|452:96,1,70
456,328,57369,1,0,0:0:0:0:
452,172,57485,2,0,L|452:96,1,70
272,40,57715,1,0,0:0:0:0:
264,48,57773,1,0,0:0:0:0:
256,56,57831,1,0,0:0:0:0:
248,64,57889,1,0,0:0:0:0:
240,72,57947,1,0,0:0:0:0:
232,80,58004,1,0,0:0:0:0:
224,88,58062,2,0,B|164:144|76:160|76:160|132:308,1,315.000012016297,8|0,0:0|0:0,0:0:0:0:
244,212,58523,6,0,B|316:216|356:232|356:232|368:352,1,210.000008010865,0|0,0:0|0:0,0:0:0:0:
176,320,58870,2,0,P|112:256|136:140,1,210.000008010865,0|0,0:0|0:0,0:0:0:0:
384,48,59215,1,0,0:0:0:0:
256,84,59331,1,0,0:0:0:0:
340,188,59447,1,0,0:0:0:0:
460,180,59562,2,4,B|440:268|464:332|464:332|448:348|344:372,1,238.00000453949,8|0,0:0|0:0,0:0:0:0:
280,288,59908,6,0,B|212:224|208:176|208:176|236:96,1,210.000008010865,0|0,0:0|0:0,0:0:0:0:
344,200,60254,2,8,B|380:248|388:308|388:308|328:388,1,210.000008010865,8|4,0:0|0:0,0:0:0:0:
176,336,60600,1,0,0:0:0:0:
164,328,60658,1,0,0:0:0:0:
152,320,60715,1,0,0:0:0:0:
112,160,60831,5,0,0:0:0:0:
264,56,60947,2,0,P|364:88|416:288,1,315.000012016297,4|0,0:0|0:0,0:0:0:0:
316,208,61408,1,0,0:0:0:0:
272,320,61523,1,0,0:0:0:0:
176,244,61639,2,0,B|104:272|68:336|68:336|44:220|52:228,1,210.000008010865
112,160,61985,1,0,0:0:0:0:
260,192,62100,2,0,B|332:212|368:124|368:124|372:120,1,105.000004005432
416,28,62331,2,0,B|452:76|516:124|516:124|504:236,1,238.00000453949,12|0,0:0|0:0,0:0:0:0:
352,156,62677,6,4,B|304:196|316:308|316:308|468:356|468:356|472:360,1,315.000012016297
412,244,63139,1,0,0:0:0:0:
352,156,63254,1,0,0:0:0:0:
284,36,63369,1,0,0:0:0:0:
268,36,63427,1,0,0:0:0:0:
256,40,63485,2,0,B|208:84|160:104|160:104|208:188,1,210.000008010865,0|4,0:0|0:0,0:0:0:0:
304,332,63831,6,0,B|272:284|296:252|296:252|320:160|320:160|272:92,1,238.00000453949,0|0,0:0|0:0,0:0:0:0:
104,48,64177,2,0,P|48:112|80:252,1,210.000008010865
152,140,64523,1,0,0:0:0:0:
104,328,64639,2,0,P|152:280|152:228,1,105.000004005432
288,132,64869,2,0,P|352:132|456:248,1,210.000008010865,0|12,0:0|0:0,0:0:0:0:
256,32,65215,2,0,P|200:64|184:144,1,105.000004005432,0|0,0:0|0:0,0:0:0:0:
100,248,65447,6,0,P|240:332|348:244,1,315.000012016297
224,212,65908,1,0,0:0:0:0:
64,168,66023,2,0,P|16:216|16:256,1,105.000004005432
136,344,66254,1,8,0:0:0:0:
148,348,66312,1,0,0:0:0:0:
160,352,66369,1,0,0:0:0:0:
172,356,66427,1,0,0:0:0:0:
184,360,66485,1,0,0:0:0:0:
196,364,66542,1,4,0:0:0:0:
208,364,66600,2,0,B|260:332|360:348|360:348|388:280,1,210.000008010865
252,220,66946,6,0,P|232:156|104:76,1,210.000008010865
112,188,67292,1,0,0:0:0:0:
236,324,67408,2,0,P|320:316|352:272,1,105.000004005432
344,176,67639,2,0,P|412:200|440:248,1,105.000004005432
392,80,67870,2,0,P|300:64|224:212,1,238.00000453949,8|0,0:0|0:0,0:0:0:0:
344,176,68216,2,0,B|400:244|460:300|460:300|324:376,1,315.000012016297
344,176,68792,5,0,0:0:0:0:
320,316,68908,1,0,0:0:0:0:
168,224,69023,1,0,0:0:0:0:
160,228,69081,1,8,0:0:0:0:
152,232,69139,1,0,0:0:0:0:
84,352,69254,2,0,L|332:312,1,238.00000453949
480,272,69600,6,0,P|416:172|296:168,1,210.000008010865,0|0,0:0|0:0,0:0:0:0:
208,248,69946,2,0,B|180:176|120:112|120:112|184:88,1,210.000008010865
352,56,70292,2,0,L|332:168,2,105.000004005432,0|0|4,0:0|0:0|0:0,0:0:0:0:
444,208,70639,2,0,P|404:256|248:220,1,238.00000453949
168,116,70985,2,0,B|124:76|80:68|80:68|24:172,1,210.000008010865
144,212,71331,2,0,B|188:252|232:260|232:260|288:156,1,210.000008010865
352,56,71677,6,0,L|440:128,1,105.000004005432
416,272,71908,1,8,0:0:0:0:
408,280,72023,1,0,0:0:0:0:
400,288,72081,1,0,0:0:0:0:
392,296,72139,2,0,P|328:292|276:316,1,105.000004005432
116,352,72369,2,0,P|80:296|140:164,1,210.000008010865
240,92,72715,6,0,L|336:28,1,105.000004005432
248,264,72946,2,0,P|288:300|356:296,1,105.000004005432
372,208,73177,2,0,P|328:172|268:176,1,105.000004005432
196,64,73408,2,0,B|180:92|140:96|140:96|128:168,1,119.000002269745,0|8,0:0|0:0,0:0:0:0:
128,284,73754,2,0,B|156:308|200:356|200:356|244:352|312:312,1,210.000008010865
448,356,74331,1,0,0:0:0:0:
464,192,74446,5,4,0:0:0:0:
460,176,74504,1,0,0:0:0:0:
456,160,74562,2,0,P|452:132|424:96,1,70
236,92,74793,2,0,B|164:116|84:116|84:116|72:212,1,238.00000453949
184,272,75139,2,0,P|288:336|372:316,1,210
328,184,75600,2,0,P|356:164|416:164,2,70
224,48,76062,5,4,0:0:0:0:
84,96,76177,2,0,P|80:160|184:276,1,210
308,356,76639,2,0,P|368:328|424:248,1,140
328,116,76985,2,0,P|320:72|332:28,2,70
324,124,77273,1,8,0:0:0:0:
320,132,77331,1,0,0:0:0:0:
316,140,77389,1,0,0:0:0:0:
312,148,77446,1,0,0:0:0:0:
160,160,77562,6,0,B|144:200|168:264|168:264|52:240,1,210.000008010865
72,104,77908,2,0,P|124:48|204:72,1,140
192,68,78254,1,0,0:0:0:0:
200,76,78312,1,0,0:0:0:0:
208,84,78369,1,0,0:0:0:0:
324,32,78485,2,0,P|352:68|404:80,1,70
288,136,78716,2,0,P|304:168|268:264,1,140
152,284,79062,6,0,P|172:328|316:356,1,210.000008010865,0|4,0:0|0:0,0:0:0:0:
112,88,91408,6,0,L|112:124|112:156,1,52.5000020027161
56,232,91639,1,0,0:0:0:0:
152,296,91754,2,0,P|180:328|244:336,1,105.000004005432
344,308,92100,1,0,0:0:0:0:
440,348,92215,1,0,0:0:0:0:
464,252,92331,2,0,P|472:208|464:184,1,52.5000020027161
380,104,92562,6,0,P|364:148|372:176,1,52.5000020027161
296,328,92792,2,0,P|248:304|212:248,1,105.000004005432
152,136,93139,2,0,P|108:200|104:232,1,105.000004005432
104,328,93485,1,0,0:0:0:0:
216,248,93600,2,0,P|252:248|280:236,1,52.5000020027161
296,328,93831,1,0,0:0:0:0:
400,272,93946,2,0,P|416:232|412:168,1,105.000004005432
172,64,97062,5,0,0:0:0:0:
112,144,97177,1,0,0:0:0:0:
196,216,97292,2,0,P|224:232|248:256,1,52.5000020027161
180,348,97523,1,0,0:0:0:0:
296,360,97639,2,0,P|332:352|360:332,1,52.5000020027161
420,232,97869,2,0,P|412:184|416:164,1,52.5000020027161
320,32,98100,6,0,P|312:56|296:84,1,52.5000020027161
168,144,98331,2,0,P|144:188|160:240,1,105.000004005432
200,320,98677,1,0,0:0:0:0:
280,252,98792,2,0,P|312:264|352:320,1,105.000004005432
200,320,99139,1,0,0:0:0:0:
232,144,99254,2,0,L|272:100,1,52.5000020027161
392,120,99485,6,0,L|432:224,1,105.000004005432
140,152,102254,2,0,L|172:192|172:192,1,35
292,264,102485,2,0,L|256:296,1,35
280,176,102715,1,0,0:0:0:0:
228,88,102831,2,0,P|200:52|164:40,1,70
64,56,103177,2,0,L|56:128,1,70
128,228,103523,6,0,L|132:184,1,35
228,92,103754,2,0,L|224:136,1,35
212,240,103985,1,0,0:0:0:0:
280,348,104100,2,0,P|320:328|392:320,1,105
476,228,104562,2,0,L|432:228,1,35
272,160,104792,2,0,L|356:160,1,70
208,80,105254,6,0,P|172:128|172:136,1,70
184,272,105600,2,0,P|180:304|152:328,1,70
260,360,105946,2,0,L|300:352,1,35
376,276,106177,2,0,L|400:248,1,35
456,172,106408,1,0,0:0:0:0:
388,48,106639,6,0,P|360:68|320:84,1,70
176,132,106985,2,0,L|192:168,1,35
140,248,107331,1,0,0:0:0:0:
232,304,107446,2,0,L|272:304,1,35
388,292,107677,1,0,0:0:0:0:
400,284,107735,1,0,0:0:0:0:
412,276,107792,1,0,0:0:0:0:
424,268,107850,1,0,0:0:0:0:
432,264,107908,2,0,B|452:232|444:176|444:176|400:136,1,140
316,208,108254,5,0,0:0:0:0:
308,80,108369,2,0,P|348:44|432:40,1,140
400,136,108715,1,0,0:0:0:0:
308,80,108831,1,0,0:0:0:0:
224,140,108946,2,0,P|200:168|208:228,1,70
96,296,109177,2,0,P|120:324|224:348,1,140
304,276,109523,5,0,0:0:0:0:
416,264,109639,2,0,P|456:216|464:184,1,70
444,92,109869,2,0,P|408:60|380:52,1,70
300,112,110100,1,0,0:0:0:0:
216,48,110215,1,0,0:0:0:0:
216,180,110331,2,0,P|256:216|352:208,1,140
452,268,110677,5,0,0:0:0:0:
376,352,110792,1,0,0:0:0:0:
260,308,110908,2,0,L|192:328,2,70
112,252,111369,1,0,0:0:0:0:
76,156,111485,1,0,0:0:0:0:
76,156,111542,1,0,0:0:0:0:
76,156,111600,1,0,0:0:0:0:
76,156,111716,6,0,P|100:96|184:60,1,140,0|0,0:0|0:0,0:0:0:0:
232,180,112062,2,0,P|272:152|280:124,2,70
352,52,112408,1,0,0:0:0:0:
388,160,112523,1,0,0:0:0:0:
320,248,112754,2,0,B|364:264|416:256|416:256|364:328|340:336,1,175
96,84,113562,2,0,L|64:124,1,43.75,4|0,0:0|0:0,0:0:0:0:
116,112,113677,2,0,L|104:156,1,43.75
144,136,113793,2,0,L|152:184,1,43.75
176,156,113908,2,0,L|192:200,1,43.75
212,168,114024,6,2,B|280:208|312:216|312:216|224:292,1,210.000008010865,0|0,0:0|0:0,0:0:0:0:
128,252,114370,2,0,B|88:304|64:336|64:336|172:380,1,210.000008010865,0|8,0:0|0:0,0:0:0:0:
236,280,114715,2,0,L|336:320,1,105.000004005432,0|0,0:0|0:0,0:0:0:0:
464,312,114946,2,0,P|444:256|400:216,1,105.000004005432,0|4,0:0|0:0,0:0:0:0:
344,120,115177,2,0,P|408:92|464:120,1,105.000004005432
276,52,115408,2,0,B|228:96|244:156|244:156|204:184|204:184|196:272,1,238.00000453949,8|0,0:0|0:0,0:0:0:0:
76,256,115754,6,0,B|100:312|100:364|100:364|176:376|276:336|276:336|340:352,1,315.000012016297,0|8,0:0|0:0,0:0:0:0:
408,264,116215,1,0,0:0:0:0:
304,224,116331,2,0,P|328:176|380:144,1,105.000004005432
376,152,116504,1,8,0:0:0:0:
384,148,116562,1,0,0:0:0:0:
196,36,116793,2,0,B|104:48|48:124|104:228,1,238.00000453949,4|0,0:0|0:0,0:0:0:0:
216,168,117139,6,0,P|224:220|100:304,1,210.000008010865
80,192,117485,1,0,0:0:0:0:
216,168,117600,2,0,L|324:136,1,105.000004005432
380,44,117831,2,0,P|428:76|444:132,1,105.000004005432
328,188,118177,2,0,B|348:252|404:312|404:312|316:348,1,238.00000453949,4|0,0:0|0:0,0:0:0:0:
184,196,118523,2,0,B|164:132|108:72|108:72|184:40,1,210.000008010865
288,104,118869,5,0,0:0:0:0:
288,104,118985,1,0,0:0:0:0:
396,164,119100,1,0,0:0:0:0:
400,172,119158,1,0,0:0:0:0:
404,180,119215,1,0,0:0:0:0:
408,188,119273,1,0,0:0:0:0:
412,196,119331,6,0,B|432:236|452:248|452:248|448:288,1,105.000004005432
320,308,119562,2,0,B|232:356|152:320|152:320|152:244,1,238.00000453949,4|0,0:0|0:0,0:0:0:0:
256,200,119908,2,0,B|292:152|312:136|312:136|292:112|268:64|268:64|220:52,1,210.000008010865
152,184,120254,2,0,B|152:248|148:256|148:256|180:284,1,105.000004005432
72,108,120485,2,0,P|132:72|184:80,1,105.000004005432
272,132,120715,2,0,P|296:184|336:208,1,105.000004005432,0|4,0:0|0:0,0:0:0:0:
400,116,120946,6,0,B|448:144|496:152|496:152|456:316,1,238.00000453949
312,272,121293,2,0,B|260:280|244:364|244:364|144:336,1,210.000008010865
68,240,121639,2,0,P|48:172|88:120,1,105.000004005432
32,28,121869,1,0,0:0:0:0:
176,64,121985,2,0,P|256:112|268:228,1,210.000008010865,0|4,0:0|0:0,0:0:0:0:
160,296,122331,2,0,P|228:340|384:256,1,238.00000453949
176,184,122677,6,0,P|96:188|48:336,1,210.000008010865
176,312,123023,2,0,L|276:264,1,105.000004005432
428,280,123254,2,0,P|412:204|364:156,1,105.000004005432
460,64,123485,2,0,L|340:36,1,105.000004005432,0|4,0:0|0:0,0:0:0:0:
248,92,123715,2,0,B|136:56|-8:136|48:300,1,357.000006809235
172,240,124177,2,0,B|228:264|328:376|328:376|392:264,1,315.000012016297
376,108,124639,5,0,0:0:0:0:
368,100,124696,1,0,0:0:0:0:
360,92,124754,1,0,0:0:0:0:
352,84,124812,1,0,0:0:0:0:
344,76,124869,2,0,P|288:52|232:56,1,105.000004005432,0|4,0:0|0:0,0:0:0:0:
260,184,125100,2,0,B|216:232|160:232|160:232|208:364,1,238.00000453949
316,280,125446,6,0,B|388:256|448:256|448:256|452:168,1,210.000008010865
312,120,125792,2,0,L|212:64,1,105.000004005432
76,92,126023,2,0,L|196:164,1,105.000004005432
212,244,126254,2,0,P|184:308|128:316,1,105.000004005432,0|4,0:0|0:0,0:0:0:0:
108,224,126485,2,0,P|144:128|296:152,1,238.00000453949
260,268,126831,2,0,P|356:236|396:128,1,210.000008010865
400,8,127177,6,0,P|324:16|268:140,1,210.000008010865
256,132,127465,1,0,0:0:0:0:
248,136,127523,1,0,0:0:0:0:
240,144,127581,1,0,0:0:0:0:
136,336,127869,2,0,P|248:336|320:264,1,210.000008010865
468,264,128216,2,0,P|476:192|380:80,1,210.000008010865
216,72,128562,6,0,P|160:132|92:128,1,105.000004005432
156,288,128792,2,0,P|164:228|220:188,1,105.000004005432
312,112,129023,2,0,B|364:64|364:64|384:116,1,105.000004005432
424,212,129254,2,0,P|392:332|200:304,1,315.000012016297
72,304,129716,2,0,P|148:192|312:252,1,315.000012016297
424,168,130177,5,0,0:0:0:0:
428,180,130235,1,0,0:0:0:0:
432,192,130292,1,0,0:0:0:0:
436,204,130350,1,0,0:0:0:0:
440,216,130408,2,0,P|404:280|412:320,1,105.000004005432
288,344,130639,2,0,P|256:268|136:216,1,210.000008010865
176,96,130985,6,0,P|96:116|16:260,1,210.000008010865
180,260,131331,2,0,P|256:264|312:232,1,105.000004005432
412,72,131562,2,0,P|368:156|400:288,1,210.000008010865
288,344,131908,1,0,0:0:0:0:
168,332,132023,2,0,B|104:248|56:224|56:224|124:184,1,210.000008010865
152,48,132369,2,0,P|228:72|268:196,1,210.000008010865
168,332,132715,6,0,L|284:380,1,105.000004005432
388,288,132946,2,0,P|444:252|444:108,1,210.000008010865
444,116,133235,1,0,0:0:0:0:
436,112,133292,1,0,0:0:0:0:
296,160,133408,2,0,P|264:108|120:88,1,210.000008010865
196,224,133754,2,0,P|256:296|396:272,1,210.000008010865
460,372,134100,6,0,P|492:288|416:192,1,210.000008010865
256,248,134446,1,0,0:0:0:0:
244,256,134504,1,0,0:0:0:0:
232,260,134562,1,0,0:0:0:0:
220,256,134619,1,0,0:0:0:0:
212,248,134677,2,0,P|156:208|92:200,1,105.000004005432
0,136,134908,6,0,P|-24:208|84:316,1,210.000008010865
180,356,135254,2,0,B|256:292|344:328|344:328|328:252,1,210.000008010865
276,184,135600,2,0,P|316:128|376:112,2,105.000004005432
268,184,135889,1,0,0:0:0:0:
260,184,135947,1,0,0:0:0:0:
108,136,136177,2,0,B|116:176|100:224|100:224|128:240,1,105.000004005432
136,344,136523,6,0,P|204:332|224:304,1,105.000004005432
320,356,136869,1,0,0:0:0:0:
344,264,136985,1,0,0:0:0:0:
436,208,137100,2,0,P|440:156|396:120,1,105.000004005432
192,40,137562,2,0,P|156:64|128:136,1,105.000004005432
64,240,137908,2,0,P|112:284|164:288,1,105.000004005432
240,324,138254,5,0,0:0:0:0:
340,288,138369,1,0,0:0:0:0:
380,204,138485,2,0,P|392:152|368:96,1,105.000004005432
136,88,138946,1,0,0:0:0:0:
40,248,139177,1,0,0:0:0:0:
252,152,139408,1,0,0:0:0:0:
440,92,139639,5,0,0:0:0:0:
224,280,139869,1,0,0:0:0:0:
8,168,140100,1,0,0:0:0:0:
280,84,140331,1,0,0:0:0:0:
