osu file format v14

[General]
AudioFilename: whatta man.mp3
AudioLeadIn: 0
PreviewTime: 89818
Countdown: 0
SampleSet: Soft
StackLeniency: 0.7
Mode: 0
LetterboxInBreaks: 0
WidescreenStoryboard: 0

[Editor]
DistanceSpacing: 1.2
BeatDivisor: 4
GridSize: 4
TimelineZoom: 1

[Metadata]
Title:Whatta Man (Good man)
TitleUnicode:Whatta Man (Good man)
Artist:I.O.I
ArtistUnicode:아이오아이
Creator:wasinkingspeedq
Version:Normal
Source:
Tags:ymc entertainment kpop somi yoojung chungha sohye jieqiong doyeon nayoung ioi unit group
BeatmapID:1157585
BeatmapSetID:536983

[Difficulty]
HPDrainRate:3
CircleSize:3
OverallDifficulty:3
ApproachRate:4.5
SliderMultiplier:1.2
SliderTickRate:1

[Events]
//Background and Video events
0,0,"bgioi.jpg",0,0
Video,0,"whatta.avi"
//Break Periods
2,120417,124958
2,147618,155758
//Storyboard Layer 0 (Background)
//Storyboard Layer 1 (Fail)
//Storyboard Layer 2 (Pass)
//Storyboard Layer 3 (Foreground)
//Storyboard Sound Samples

[TimingPoints]
6618,400,4,2,0,60,1,0
18018,-100,4,2,0,90,0,0
19418,-100,4,2,0,60,0,0
22618,-100,4,2,0,90,0,0
25818,-100,4,2,0,60,0,0
35418,-100,4,2,0,90,0,0
38618,-100,4,2,0,20,0,0
38818,-100,4,2,0,30,0,0
39018,-100,4,2,0,40,0,0
39218,-100,4,2,0,50,0,0
39418,-100,4,2,0,60,0,0
39618,-100,4,2,0,70,0,0
39818,-100,4,2,0,80,0,0
40018,-100,4,2,0,85,0,0
40218,-100,4,2,0,90,0,1
65418,-100,4,2,0,60,0,0
72418,-100,4,2,0,90,0,0
73818,-100,4,2,0,60,0,0
77018,-100,4,2,0,90,0,0
80218,-100,4,2,0,60,0,0
89818,-100,4,2,0,90,0,0
93018,-100,4,2,0,20,0,0
93218,-100,4,2,0,30,0,0
93418,-100,4,2,0,40,0,0
93618,-100,4,2,0,50,0,0
93818,-100,4,2,0,60,0,0
94018,-100,4,2,0,70,0,0
94218,-100,4,2,0,80,0,0
94418,-100,4,2,0,85,0,0
94618,-100,4,2,0,90,0,1
119818,-100,4,2,0,60,0,0
142618,-100,4,2,0,90,0,0
145418,-100,4,2,0,60,0,0
160218,-100,4,2,0,90,0,1
185818,-100,4,2,0,90,0,0

[Colours]
Combo1 : 255,47,47
Combo2 : 192,192,192
Combo3 : 255,128,128
Combo4 : 128,128,128

[HitObjects]
436,40,13018,6,0,L|436:184,1,120,8|8,0:0|0:0,0:0:0:0:
316,236,13818,2,0,L|232:236,2,60,8|0|8,0:0|0:0|0:0,0:0:0:0:
256,104,14618,2,0,B|208:104|208:104|184:96|184:96|128:96,1,120,8|8,0:0|0:0,0:0:0:0:
40,200,15418,2,0,P|32:284|48:336,1,120,8|8,0:0|0:0,0:0:0:0:
184,316,16218,6,0,P|192:232|176:180,1,120,8|8,0:0|0:0,0:0:0:0:
256,72,17018,2,0,L|332:72,2,60,8|0|8,0:0|0:0|0:0,0:0:0:0:
348,184,17818,2,0,L|472:184,1,120,8|8,0:0|0:0,0:0:0:0:
416,316,18618,2,0,L|296:316,1,120,0|0,1:0|1:0,0:0:0:0:
160,360,19418,6,0,B|152:320|160:296|160:296|168:276|160:236,1,120,4|8,1:0|0:0,0:0:0:0:
128,100,20218,2,0,L|60:100,2,60,8|0|8,0:0|0:0|0:0,0:0:0:0:
256,32,21018,2,0,P|320:20|388:40,1,120,8|8,0:0|0:0,0:0:0:0:
432,164,21818,2,0,P|368:176|300:156,1,120,8|8,0:0|0:0,0:0:0:0:
260,208,22418,1,8,0:0:0:0:
260,208,22618,6,0,L|260:344,1,120,4|0,1:0|0:0,0:0:0:0:
120,300,23418,2,0,L|120:164,1,120,0|0,0:0|1:0,0:0:0:0:
196,56,24218,2,0,B|236:47|260:55|260:55|280:63|320:55,1,120,0|0,0:0|1:0,0:0:0:0:
444,120,25018,1,0,1:0:0:0:
444,264,25418,1,2,1:0:0:0:
312,324,25818,6,0,P|252:340|188:316,1,120,2|0,3:0|0:0,0:0:0:0:
144,276,26418,1,8,0:0:0:0:
144,276,26618,2,0,B|132:212|132:212|152:132,1,120,8|8,0:0|0:0,0:0:0:0:
360,156,27618,1,8,0:0:0:0:
360,156,27818,2,0,B|373:214|373:214|357:290,2,120,8|8|8,0:0|0:0|0:0,0:0:0:0:
256,56,29018,6,0,L|120:56,1,120,2|0,3:0|0:0,0:0:0:0:
88,108,29618,1,8,0:0:0:0:
88,108,29818,2,0,B|88:156|88:156|96:180|96:180|96:236,1,120,8|8,0:0|0:0,0:0:0:0:
292,316,30818,1,8,0:0:0:0:
292,316,31018,2,0,B|292:264|292:264|284:244|284:244|284:180,1,120,8|8,0:0|0:0,0:0:0:0:
368,80,31818,1,8,0:0:0:0:
492,156,32218,6,0,L|492:280,1,120,4|0,1:0|0:0,0:0:0:0:
444,328,32818,1,8,0:0:0:0:
444,328,33018,2,0,B|404:320|384:328|384:328|360:336|320:328,1,120,8|8,0:0|0:0,0:0:0:0:
256,124,34018,1,8,0:0:0:0:
256,124,34218,2,0,B|216:116|196:124|196:124|172:132|136:124,2,120,8|8|8,0:0|0:0|0:0,0:0:0:0:
136,204,35418,6,0,P|68:164|60:112,2,120,4|0|0,1:0|0:0|0:0,0:0:0:0:
256,284,36618,1,0,1:0:0:0:
376,204,37018,2,0,P|444:244|452:296,2,120,0|0|0,0:0|1:0|1:0,0:0:0:0:
256,124,38218,1,0,1:0:0:0:
256,192,38618,12,4,40218,1:0:0:0:
504,56,41018,6,0,B|504:128|504:128|492:196,1,120,10|0,0:0|3:0,0:0:0:0:
464,316,41818,2,0,B|429:322|405:314|405:314|385:306|345:314,1,120,0|0,0:0|3:0,0:0:0:0:
252,204,42618,2,0,P|196:192|128:208,1,120,10|0,0:0|0:0,0:0:0:0:
68,332,43418,6,0,L|152:332,1,60,0|0,3:0|0:0,0:0:0:0:
196,356,43818,2,0,B|244:356|244:356|268:348|268:348|324:348,1,120,2|10,3:0|0:0,0:0:0:0:
420,252,44618,1,0,0:0:0:0:
296,180,45018,2,0,P|280:116|304:56,1,120,0|0,3:0|0:0,0:0:0:0:
428,8,45818,2,0,P|444:64|428:121,1,120,0|0,3:0|0:0,0:0:0:0:
296,180,46618,6,0,B|249:180|249:180|225:188|225:188|177:188,1,120,4|0,1:0|0:0,0:0:0:0:
76,84,47418,2,0,L|204:84,1,120,10|0,0:0|3:0,0:0:0:0:
296,180,48218,1,0,0:0:0:0:
200,288,48618,2,0,L|68:288,1,120,0|10,3:0|0:0,0:0:0:0:
8,164,49418,2,0,L|8:96,1,60
76,84,49818,6,0,B|112:76|136:84|136:84|160:92|200:84,1,120,4|0,1:0|3:0,0:0:0:0:
312,168,50618,2,0,B|344:220|344:220|408:268,1,120,10|0,0:0|1:0,0:0:0:0:
500,160,51418,2,0,B|468:108|468:108|404:60,1,120,0|0,0:0|1:0,0:0:0:0:
348,64,52018,2,0,B|300:64|300:64|276:56|276:56|224:56,1,120,0|0,3:0|3:0,0:0:0:0:
156,56,52618,1,0,1:0:0:0:
68,172,53018,6,0,P|52:240|80:300,1,120,4|0,1:0|0:0,0:0:0:0:
196,352,53818,2,0,B|256:360|256:360|332:348,1,120,10|0,0:0|3:0,0:0:0:0:
440,280,54618,2,0,P|457:223|441:167,1,120,0|0,0:0|3:0,0:0:0:0:
316,96,55418,2,0,B|257:86|257:86|197:94,1,120,10|0,0:0|3:0,0:0:0:0:
92,192,56218,6,0,L|92:260,1,60,0|0,3:0|0:0,0:0:0:0:
144,304,56618,2,0,P|208:320|276:292,1,120,2|10,3:0|0:0,0:0:0:0:
256,156,57418,1,0,0:0:0:0:
356,52,57818,2,0,P|413:36|470:52,1,120,0|0,3:0|0:0,0:0:0:0:
500,196,58618,2,0,L|500:328,1,120,0|8,3:0|0:0,0:0:0:0:
436,344,59218,1,0,3:0:0:0:
435,343,59418,6,0,P|379:327|322:344,1,120,4|0,1:0|0:0,0:0:0:0:
256,216,60218,1,10,0:0:0:0:
188,344,60618,1,0,3:0:0:0:
52,292,61018,2,0,B|52:240|52:240|44:220|44:220|44:156,1,120,0|0,0:0|3:0,0:0:0:0:
144,72,61818,2,0,P|200:88|257:71,1,120,10|0,0:0|0:0,0:0:0:0:
328,60,62418,1,0,0:0:0:0:
328,60,62618,6,0,B|368:104|368:104|428:132,1,120,4|0,1:0|0:0,0:0:0:0:
416,272,63418,2,0,B|376:228|376:228|316:200,1,120,0|0,0:0|1:0,0:0:0:0:
272,256,64018,1,0,0:0:0:0:
272,256,64218,2,0,B|224:256|224:256|200:264|200:264|132:264,1,120,0|0,0:0|1:0,0:0:0:0:
136,120,65018,2,0,L|260:120,1,120,8|2,0:0|0:0,0:0:0:0:
472,248,67418,6,0,P|484:176|472:128,1,120,4|8,1:0|0:0,0:0:0:0:
344,64,68218,2,0,L|280:64,2,60,8|0|8,0:0|0:0|0:0,0:0:0:0:
256,180,69018,2,0,B|208:180|208:180|184:188|184:188|116:188,1,120,8|8,0:0|0:0,0:0:0:0:
32,84,69818,1,8,0:0:0:0:
172,60,70218,1,8,0:0:0:0:
256,180,70618,6,0,L|256:308,1,120,8|8,0:0|0:0,0:0:0:0:
320,332,71218,1,0,0:0:0:0:
320,332,71418,2,0,B|356:324|376:332|376:332|404:340|440:332,1,120,8|8,0:0|0:0,0:0:0:0:
476,272,72018,1,0,0:0:0:0:
476,272,72218,2,0,L|476:144,1,120,8|8,0:0|0:0,0:0:0:0:
368,60,73018,2,0,B|296:60|296:60|244:52,1,120,0|0,1:0|1:0,0:0:0:0:
148,156,73818,6,0,B|220:156|220:156|272:164,1,120,4|8,1:0|0:0,0:0:0:0:
208,296,74618,2,0,B|160:296|160:296|136:304|136:304|68:304,1,120,8|8,0:0|0:0,0:0:0:0:
28,172,75418,2,0,L|28:104,2,60,8|8|8,0:0|0:0|0:0,0:0:0:0:
96,200,76018,1,8,0:0:0:0:
148,156,76218,2,0,L|148:20,1,120,8|8,0:0|0:0,0:0:0:0:
256,192,77018,12,0,79418,0:0:0:0:
44,160,80218,6,0,B|78:166|102:158|102:158|126:150|162:158,1,120,4|0,1:0|0:0,0:0:0:0:
296,212,81018,2,0,L|296:88,1,120,10|0,0:0|3:0,0:0:0:0:
440,92,81818,2,0,L|440:212,1,120,0|0,3:0|3:0,0:0:0:0:
440,284,82418,2,0,B|392:284|392:284|368:296|368:296|308:296,1,120,0|0,3:0|3:0,0:0:0:0:
256,272,83018,1,10,0:0:0:0:
124,332,83418,5,0,3:0:0:0:
124,332,83618,2,0,B|112:272|112:272|124:212,1,120,10|8,0:0|0:0,0:0:0:0:
164,156,84218,2,0,B|212:156|212:156|236:164|236:164|282:164,1,120,8|0,0:0|3:0,0:0:0:0:
376,56,85018,2,0,L|248:56,2,120,0|8|8,3:0|0:0|0:0,0:0:0:0:
472,164,86218,1,8,0:0:0:0:
432,304,86618,6,0,P|360:316|308:300,1,120,4|0,1:0|0:0,0:0:0:0:
256,260,87218,1,0,3:0:0:0:
256,260,87418,2,0,P|197:246|139:260,1,120,10|0,0:0|3:0,0:0:0:0:
24,176,88218,2,0,B|16:136|24:112|24:112|32:92|24:52,1,120,0|0,0:0|3:0,0:0:0:0:
168,32,89018,2,0,B|174:66|166:86|166:86|158:110|166:150,1,120,10|0,0:0|3:0,0:0:0:0:
256,260,89818,6,0,P|344:272|380:252,2,120,4|8|0,1:0|0:0|0:0,0:0:0:0:
112,240,91018,2,0,P|116:312|148:356,2,120,0|8|0,1:0|0:0|0:0,0:0:0:0:
128,96,92218,2,0,P|40:108|4:144,1,120,4|8,1:0|0:0,0:0:0:0:
256,192,93018,12,4,94618,1:0:0:0:
376,48,95418,6,0,L|244:48,1,120,10|0,0:0|3:0,0:0:0:0:
196,180,96218,2,0,L|316:180,1,120,0|0,0:0|3:0,0:0:0:0:
452,128,97018,2,0,B|460:188|460:188|448:256,1,120,10|0,0:0|0:0,0:0:0:0:
332,332,97818,6,0,L|264:332,1,60,0|0,3:0|0:0,0:0:0:0:
204,352,98218,2,0,B|164:304|164:304|108:272,1,120,2|10,3:0|0:0,0:0:0:0:
112,132,99018,2,0,B|152:180|152:180|208:212,1,120,0|0,0:0|3:0,0:0:0:0:
336,160,99818,2,0,B|385:188|385:188|425:236,1,120,0|0,0:0|3:0,0:0:0:0:
296,300,100618,1,0,0:0:0:0:
208,188,101018,6,0,L|208:40,1,120,4|0,1:0|0:0,0:0:0:0:
68,100,101818,2,0,L|68:248,1,120,10|0,0:0|3:0,0:0:0:0:
140,344,102618,2,0,B|174:350|198:342|198:342|222:334|258:342,1,120,0|0,0:0|3:0,0:0:0:0:
380,268,103418,2,0,B|380:200|380:200|400:140,1,120,10|0,0:0|0:0,0:0:0:0:
288,56,104218,6,0,L|216:56,1,60,4|0,1:0|0:0,0:0:0:0:
176,108,104618,2,0,L|52:108,2,120,2|10|0,3:0|0:0|1:0,0:0:0:0:
256,228,105818,2,0,P|328:244|376:224,1,120,0|0,0:0|1:0,0:0:0:0:
436,204,106418,2,0,B|436:156|436:156|444:132|444:132|444:72,1,120,0|0,3:0|3:0,0:0:0:0:
400,28,107018,1,0,1:0:0:0:
284,112,107418,6,0,B|248:104|224:112|224:112|200:120|166:114,1,120,4|0,1:0|0:0,0:0:0:0:
44,196,108218,2,0,B|44:272|44:272|56:328,1,120,10|0,0:0|3:0,0:0:0:0:
175,232,109018,2,0,B|175:156|175:156|165:112,1,120,0|0,0:0|3:0,0:0:0:0:
284,36,109818,2,0,B|318:42|342:34|342:34|366:26|402:34,1,120,10|0,0:0|0:0,0:0:0:0:
472,160,110618,6,0,L|472:232,1,60,0|0,3:0|0:0,0:0:0:0:
432,280,111018,2,0,B|368:288|368:288|300:276,1,120,2|10,3:0|0:0,0:0:0:0:
220,168,111818,2,0,B|284:160|284:160|339:170,2,120,0|0|0,0:0|3:0|0:0,0:0:0:0:
160,300,113018,1,0,3:0:0:0:
88,176,113418,2,0,L|88:116,1,60,8|0,0:0|3:0,0:0:0:0:
144,72,113818,6,0,B|198:81|198:81|262:73,1,120,4|0,1:0|0:0,0:0:0:0:
404,48,114618,1,10,0:0:0:0:
480,168,115018,1,0,3:0:0:0:
424,300,115418,2,0,B|388:292|364:300|364:300|340:308|306:302,1,120,0|0,0:0|3:0,0:0:0:0:
256,168,116218,2,0,L|256:44,1,120,10|0,0:0|0:0,0:0:0:0:
188,24,116818,1,0,0:0:0:0:
188,24,117018,6,0,B|140:24|140:24|112:16|112:16|44:16,1,120,4|0,1:0|0:0,0:0:0:0:
92,156,117818,2,0,L|224:156,1,120,0|0,0:0|1:0,0:0:0:0:
260,208,118418,1,0,0:0:0:0:
260,208,118618,2,0,P|324:152|348:96,1,120,0|0,0:0|1:0,0:0:0:0:
464,192,119418,2,0,P|400:248|376:304,2,120,8|2|4,0:0|0:0|1:0,0:0:0:0:
256,192,126218,5,8,0:0:0:0:
296,52,126618,6,0,B|336:43|360:51|360:51|380:59|420:51,1,120,4|8,1:0|0:0,0:0:0:0:
488,176,127418,2,0,P|476:244|492:300,1,120,8|8,0:0|0:0,0:0:0:0:
352,344,128218,2,0,P|364:276|348:220,1,120,8|8,0:0|0:0,0:0:0:0:
256,120,129018,2,0,B|196:112|196:112|120:124,1,120,8|8,0:0|0:0,0:0:0:0:
256,192,129818,12,8,132218,0:0:0:0:
32,312,133018,5,4,1:0:0:0:
32,312,133218,2,0,B|90:319|90:319|150:311,1,120,0|0,0:0|3:0,0:0:0:0:
196,256,133818,2,0,B|236:248|256:256|256:256|280:264|314:256,1,120,8|0,0:0|3:0,0:0:0:0:
436,176,134618,2,0,L|436:108,1,60,0|0,0:0|3:0,0:0:0:0:
384,68,135018,2,0,P|316:56|260:72,1,120,0|8,3:0|0:0,0:0:0:0:
160,164,135818,1,0,0:0:0:0:
52,72,136218,5,0,3:0:0:0:
52,72,136418,2,0,B|52:120|52:120|44:144|44:144|44:204,1,120,0|0,0:0|3:0,0:0:0:0:
48,264,137018,2,0,P|128:276|172:260,1,120,8|0,0:0|0:0,0:0:0:0:
256,152,137818,2,0,P|313:138|371:152,1,120,8|8,0:0|0:0,0:0:0:0:
436,184,138418,2,0,L|436:308,1,120,8|8,0:0|0:0,0:0:0:0:
372,340,139018,1,8,0:0:0:0:
228,340,139418,5,8,0:0:0:0:
228,340,139618,2,0,B|180:340|180:340|152:332|152:332|100:332,1,120,0|0,3:0|3:0,0:0:0:0:
60,276,140218,2,0,P|48:208|64:152,1,120,8|0,0:0|3:0,0:0:0:0:
192,100,141018,2,0,P|204:168|188:224,1,120,0|8,0:0|0:0,0:0:0:0:
256,248,141618,1,0,3:0:0:0:
256,248,141818,2,0,B|296:240|316:248|316:248|336:256|376:248,1,120,8|8,0:0|0:0,0:0:0:0:
456,132,142618,5,0,1:0:0:0:
256,48,143218,2,0,L|128:48,2,120,0|0|0,1:0|1:0|1:0,0:0:0:0:
184,172,144418,2,0,L|120:172,2,60,0|0|0,1:0|1:0|0:0,0:0:0:0:
236,220,145018,2,0,L|372:220,1,120,0|8,1:0|0:0,0:0:0:0:
256,192,145618,12,4,147418,1:0:0:0:
256,192,157018,12,4,160218,1:0:0:0:
120,316,161018,6,0,B|120:244|120:244|108:176,1,120,10|0,0:0|3:0,0:0:0:0:
52,64,161818,2,0,P|116:52|180:68,1,120,0|0,0:0|3:0,0:0:0:0:
256,180,162618,1,10,0:0:0:0:
388,124,163018,1,0,0:0:0:0:
460,248,163418,6,0,L|460:312,1,60,0|0,3:0|0:0,0:0:0:0:
392,332,163818,2,0,B|360:332|332:344|332:344|304:332|276:332,1,120,2|0,3:0|3:0,0:0:0:0:
136,292,164618,1,0,0:0:0:0:
200,164,165018,2,0,P|212:108|196:36,1,120,0|0,3:0|0:0,0:0:0:0:
68,104,165818,2,0,P|56:160|72:232,1,120,0|8,3:0|0:0,0:0:0:0:
120,272,166418,1,0,3:0:0:0:
120,272,166618,6,0,B|156:264|180:272|180:272|204:280|240:272,1,120,4|0,1:0|0:0,0:0:0:0:
316,152,167418,2,0,B|308:92|308:92|316:28,1,120,10|0,0:0|3:0,0:0:0:0:
440,104,168218,2,0,B|448:164|448:164|440:223,1,120,0|0,0:0|3:0,0:0:0:0:
316,296,169018,2,0,B|268:296|268:296|244:288|244:288|176:288,1,120,10|0,0:0|0:0,0:0:0:0:
68,220,169818,6,0,L|68:152,1,60,4|0,1:0|0:0,0:0:0:0:
88,92,170218,2,0,P|144:124|208:112,2,120,0|0|4,0:0|0:0|1:0,0:0:0:0:
220,36,171418,2,0,P|272:80|276:136,1,120,0|4,0:0|1:0,0:0:0:0:
352,252,172218,2,0,B|384:304|384:304|448:352,1,120,4|4,1:0|1:0,0:0:0:0:
504,216,173018,6,0,B|472:164|472:164|408:116,1,120,4|0,1:0|0:0,0:0:0:0:
312,40,173818,2,0,B|265:40|265:40|241:48|241:48|193:48,1,120,10|0,0:0|3:0,0:0:0:0:
96,156,174618,2,0,L|228:156,2,120,0|0|10,0:0|3:0|0:0,0:0:0:0:
160,284,175818,1,0,0:0:0:0:
304,288,176218,6,0,L|376:288,1,60,0|0,3:0|0:0,0:0:0:0:
420,244,176618,2,0,B|420:176|420:176|404:104,1,120,2|10,3:0|0:0,0:0:0:0:
284,52,177418,1,0,0:0:0:0:
172,144,177818,2,0,L|108:144,1,60,0|0,3:0|0:0,0:0:0:0:
64,200,178218,2,0,B|72:236|64:260|64:260|56:284|64:320,1,120,0|10,0:0|0:0,0:0:0:0:
204,344,179018,1,0,0:0:0:0:
256,208,179418,6,0,B|248:173|256:149|256:149|264:125|256:89,1,120,4|0,1:0|0:0,0:0:0:0:
388,32,180218,2,0,P|460:48|508:28,1,120,10|0,0:0|3:0,0:0:0:0:
500,176,181018,2,0,P|428:160|380:180,1,120,0|0,0:0|3:0,0:0:0:0:
312,300,181818,2,0,P|255:316|198:299,1,120,10|0,0:0|0:0,0:0:0:0:
56,280,182618,6,0,L|56:220,1,60,4|0,1:0|0:0,0:0:0:0:
92,156,183018,2,0,B|128:148|152:156|152:156|176:164|216:156,1,120
256,20,183818,1,4,1:0:0:0:
372,104,184218,2,0,L|436:104,2,60,0|4|4,0:0|1:0|1:0,0:0:0:0:
312,236,185018,2,0,B|277:242|253:234|253:234|229:226|193:234,1,120,4|4,1:0|1:0,0:0:0:0:
256,104,185818,5,2,0:0:0:0:
256,192,186018,12,0,189818,0:0:0:0:
