osu file format v14

[General]
AudioFilename: whatta man.mp3
AudioLeadIn: 0
PreviewTime: 89818
Countdown: 0
SampleSet: Soft
StackLeniency: 0.7
Mode: 0
LetterboxInBreaks: 0
WidescreenStoryboard: 0

[Editor]
DistanceSpacing: 1.2
BeatDivisor: 4
GridSize: 4
TimelineZoom: 1

[Metadata]
Title:Whatta Man (Good man)
TitleUnicode:Whatta Man (Good man)
Artist:I.O.I
ArtistUnicode:아이오아이
Creator:wasinkingspeedq
Version:Hard
Source:
Tags:ymc entertainment kpop somi yoojung chungha sohye jieqiong doyeon nayoung ioi unit group
BeatmapID:1138073
BeatmapSetID:536983

[Difficulty]
HPDrainRate:6
CircleSize:4
OverallDifficulty:6
ApproachRate:8
SliderMultiplier:1.55
SliderTickRate:1

[Events]
//Background and Video events
0,0,"bgioi.jpg",0,0
Video,0,"whatta.avi"
//Break Periods
2,120418,125468
2,147618,156268
//Storyboard Layer 0 (Background)
//Storyboard Layer 1 (Fail)
//Storyboard Layer 2 (Pass)
//Storyboard Layer 3 (Foreground)
//Storyboard Sound Samples

[TimingPoints]
6618,400,4,2,0,60,1,0
18018,-100,4,2,0,90,0,0
19418,-100,4,2,0,60,0,0
22618,-100,4,2,0,90,0,0
25818,-100,4,2,0,60,0,0
35418,-100,4,2,0,90,0,0
38618,-100,4,2,0,20,0,0
38818,-100,4,2,0,30,0,0
39018,-100,4,2,0,40,0,0
39218,-100,4,2,0,50,0,0
39418,-100,4,2,0,60,0,0
39618,-100,4,2,0,70,0,0
39818,-100,4,2,0,80,0,0
40018,-100,4,2,0,85,0,0
40218,-100,4,2,0,90,0,1
65418,-100,4,2,0,60,0,0
72418,-100,4,2,0,90,0,0
73818,-100,4,2,0,60,0,0
77018,-100,4,2,0,90,0,0
79818,-76.9230769230769,4,2,0,90,0,0
80218,-100,4,2,0,60,0,0
89818,-100,4,2,0,90,0,0
93018,-100,4,2,0,20,0,0
93218,-100,4,2,0,30,0,0
93418,-100,4,2,0,40,0,0
93618,-100,4,2,0,50,0,0
93818,-100,4,2,0,60,0,0
94018,-100,4,2,0,70,0,0
94218,-100,4,2,0,80,0,0
94418,-100,4,2,0,85,0,0
94618,-100,4,2,0,90,0,1
119818,-100,4,2,0,60,0,0
142618,-100,4,2,0,90,0,0
145418,-100,4,2,0,60,0,0
160218,-100,4,2,0,90,0,1
185818,-100,4,2,0,90,0,0

[Colours]
Combo1 : 255,47,47
Combo2 : 192,192,192
Combo3 : 255,128,128
Combo4 : 128,128,128

[HitObjects]
76,136,13018,6,0,P|64:224|88:288,1,155,8|8,0:0|0:0,0:0:0:0:
164,336,13618,1,0,0:0:0:0:
224,268,13818,2,0,B|252:264|252:264|276:268|276:268|312:264,1,77.5,8|0,0:0|0:0,0:0:0:0:
392,256,14218,1,8,0:0:0:0:
484,252,14418,1,0,0:0:0:0:
484,252,14618,6,0,P|496:164|472:100,1,155,8|8,0:0|0:0,0:0:0:0:
384,72,15218,1,0,0:0:0:0:
344,156,15418,2,0,B|304:168|268:156|268:156|228:144|184:156,1,155,8|8,0:0|0:0,0:0:0:0:
52,280,16218,5,8,0:0:0:0:
144,304,16418,1,0,0:0:0:0:
197,230,16618,2,0,P|197:178|185:138,1,77.5,8|0,0:0|0:0,0:0:0:0:
104,120,17018,2,0,P|104:172|116:212,1,77.5,8|0,0:0|0:0,0:0:0:0:
197,230,17418,2,0,B|225:226|225:226|249:230|249:230|285:226,1,77.5,8|0,0:0|0:0,0:0:0:0:
360,260,17818,6,0,B|380:300|380:300|376:188,1,155,8|8,0:0|0:0,0:0:0:0:
296,144,18418,1,0,0:0:0:0:
296,144,18618,2,0,P|376:160|456:128,1,155,0|0,1:0|1:0,0:0:0:0:
444,44,19218,1,0,0:0:0:0:
444,44,19418,6,0,P|372:28|284:60,1,155,4|8,1:0|0:0,0:0:0:0:
256,136,20018,1,0,0:0:0:0:
172,96,20218,2,0,B|147:98|147:98|123:94|123:94|95:98,1,77.5,8|0,0:0|0:0,0:0:0:0:
64,188,20618,2,0,B|92:184|92:184|116:188|116:188|140:185,1,77.5,8|0,0:0|0:0,0:0:0:0:
172,96,21018,6,0,L|176:280,1,155,8|8,0:0|0:0,0:0:0:0:
104,308,21618,1,0,0:0:0:0:
104,308,21818,2,0,P|180:284|260:308,1,155,8|8,0:0|0:0,0:0:0:0:
336,344,22418,1,8,0:0:0:0:
336,344,22518,1,8,0:0:0:0:
336,344,22618,6,0,B|364:340|364:340|388:344|388:344|424:340,1,77.5,0|0,1:0|0:0,0:0:0:0:
472,272,23018,2,0,L|468:192,1,77.5,0|0,0:0|1:0,0:0:0:0:
392,140,23418,1,0,0:0:0:0:
392,140,23618,1,0,0:0:0:0:
320,200,23818,2,0,B|295:202|295:202|271:198|271:198|243:202,1,77.5,0|0,1:0|0:0,0:0:0:0:
188,280,24218,6,0,P|200:196|164:124,1,155,0|0,0:0|1:0,0:0:0:0:
80,148,24818,1,0,0:0:0:0:
80,148,25018,2,0,P|68:236|104:304,1,155,0|2,1:0|1:0,0:0:0:0:
280,260,25818,6,0,B|340:256|340:256|368:260|368:260|448:256,1,155,2|0,3:0|0:0,0:0:0:0:
480,336,26418,1,8,0:0:0:0:
480,336,26618,2,0,L|476:180,1,155,8|8,0:0|0:0,0:0:0:0:
200,212,27618,5,8,0:0:0:0:
116,172,27818,1,8,0:0:0:0:
116,172,28218,2,0,B|112:60|112:60|144:100,1,155,8|8,0:0|0:0,0:0:0:0:
296,192,29018,6,0,B|356:188|356:188|384:192|384:192|464:188,1,155,2|0,3:0|0:0,0:0:0:0:
396,112,29618,1,8,0:0:0:0:
396,112,29818,2,0,L|400:272,1,155,8|8,0:0|0:0,0:0:0:0:
128,332,30818,5,8,0:0:0:0:
52,276,31018,2,0,L|48:116,1,155,8|8,0:0|0:0,0:0:0:0:
104,44,31618,1,0,3:0:0:0:
172,108,31818,2,0,B|200:104|200:104|224:108|224:108|248:105,1,77.5,8|0,0:0|3:0,0:0:0:0:
340,100,32218,6,0,L|344:264,1,155,2|0,3:0|0:0,0:0:0:0:
436,276,32818,1,8,0:0:0:0:
420,184,33018,2,0,B|353:187|353:187|325:183|325:183|265:187,1,155,8|8,0:0|0:0,0:0:0:0:
8,292,34018,5,8,0:0:0:0:
80,352,34218,1,8,0:0:0:0:
80,352,34618,2,0,P|96:264|52:204,1,155,8|8,0:0|0:0,0:0:0:0:
12,136,35218,1,8,0:0:0:0:
100,104,35418,6,0,B|128:100|128:100|152:104|152:104|176:101,1,77.5,0|0,1:0|0:0,0:0:0:0:
220,184,35818,2,0,B|248:180|248:180|272:184|272:184|296:181,1,77.5,0|0,0:0|1:0,0:0:0:0:
364,244,36218,2,0,P|384:160|344:100,1,155,0|0,0:0|1:0,0:0:0:0:
256,96,36818,1,0,0:0:0:0:
256,96,37218,5,0,1:0:0:0:
164,116,37418,2,0,B|140:119|140:119|116:115|116:115|88:119,1,77.5
24,48,37818,2,0,L|28:224,1,155,0|0,1:0|1:0,0:0:0:0:
68,288,38418,1,0,0:0:0:0:
160,268,38618,6,0,B|188:264|188:264|212:268|212:268|236:265,1,77.5,8|8,0:0|0:0,0:0:0:0:
324,296,39018,2,0,P|368:316|396:344,1,77.5,8|8,0:0|0:0,0:0:0:0:
472,296,39418,2,0,P|468:248|472:216,1,77.5,8|8,0:0|0:0,0:0:0:0:
396,164,39818,2,0,P|356:192|324:204,1,77.5,8|8,0:0|0:0,0:0:0:0:
324,296,40218,6,0,L|256:132,1,155,4|0,1:0|0:0,0:0:0:0:
176,128,40818,1,0,3:0:0:0:
176,128,41018,2,0,P|268:96|320:40,1,155,10|0,0:0|3:0,3:0:0:0:
392,100,41618,1,0,0:0:0:0:
392,100,41818,6,0,L|456:252,1,155,0|0,0:0|3:0,0:0:0:0:
412,328,42418,1,0,0:0:0:0:
324,296,42618,2,0,B|284:308|248:296|248:296|208:284|164:296,1,155,10|0,0:0|0:0,0:0:0:0:
92,344,43218,1,0,0:0:0:0:
52,260,43418,6,0,B|56:220|56:220|48:180,1,77.5,0|0,3:0|0:0,0:0:0:0:
112,116,43818,2,0,B|136:216|136:216|164:168,1,155,2|10,3:0|0:0,0:0:0:0:
228,104,44418,1,0,0:0:0:0:
284,180,44618,2,0,B|312:176|312:176|332:180|332:180|380:176,1,77.5
440,228,45018,6,0,B|416:328|416:328|389:282,1,155,0|0,3:0|0:0,0:0:0:0:
296,280,45618,2,0,B|256:292|220:280|220:280|180:268|136:280,1,155,0|0,3:0|0:0,0:0:0:0:
84,352,46218,2,0,P|88:264|60:212,1,116.25,0|0,3:0|0:0,0:0:0:0:
48,204,46618,5,4,1:0:0:0:
216,128,47018,2,0,B|244:124|244:124|264:128|264:128|312:124,1,77.5,0|0,0:0|3:0,0:0:0:0:
324,36,47418,2,0,P|332:156|352:184,1,155,10|0,0:0|3:0,0:0:0:0:
440,164,48018,1,0,0:0:0:0:
440,164,48218,6,0,P|448:88|400:4,1,155,0|0,0:0|3:0,0:0:0:0:
324,36,48818,1,0,0:0:0:0:
284,120,49018,2,0,B|217:123|217:123|189:119|189:119|129:123,1,155,10|0,0:0|0:0,0:0:0:0:
68,196,49618,1,0,0:0:0:0:
68,196,49818,6,0,P|40:156|36:120,1,77.5,0|0,1:0|0:0,0:0:0:0:
204,52,50218,2,0,P|220:148|176:212,1,155,2|8,3:0|0:0,0:0:0:0:
128,264,50818,1,0,0:0:0:0:
68,196,51018,1,0,1:0:0:0:
132,128,51218,1,0,3:0:0:0:
194,195,51418,6,0,B|254:191|254:191|282:195|282:195|349:192,1,155,0|0,1:0|3:0,0:0:0:0:
440,152,52018,1,0,3:0:0:0:
440,152,52218,2,0,P|444:96|428:64,1,77.5,0|0,1:0|3:0,0:0:0:0:
345,117,52618,2,0,P|341:173|357:205,1,77.5,0|0,1:0|0:0,0:0:0:0:
388,276,53018,6,0,B|348:288|312:276|312:276|272:264|228:276,1,155,4|0,1:0|0:0,0:0:0:0:
176,348,53618,1,0,3:0:0:0:
176,348,53818,2,0,B|184:272|184:272|168:188,1,155,10|0,0:0|3:0,0:0:0:0:
76,196,54418,1,0,0:0:0:0:
76,196,54618,6,0,B|68:276|68:276|84:352,1,155,0|0,0:0|3:0,0:0:0:0:
176,348,55218,1,0,0:0:0:0:
268,344,55418,2,0,B|276:264|276:264|260:188,1,155,10|0,0:0|0:0,0:0:0:0:
336,136,56018,1,0,0:0:0:0:
336,136,56218,6,0,L|356:220,1,77.5,0|0,3:0|0:0,0:0:0:0:
436,252,56618,2,0,P|360:232|276:272,1,155,2|10,3:0|0:0,0:0:0:0:
268,344,57218,1,0,0:0:0:0:
192,292,57418,2,0,L|174:216,1,77.5
84,232,57818,6,0,L|101:307,1,77.5,0|0,3:0|0:0,0:0:0:0:
192,292,58218,1,0,0:0:0:0:
268,344,58418,1,0,3:0:0:0:
312,260,58618,2,0,B|345:235|383:234|383:234|425:231|456:209,1,155,10|8,0:0|0:0,0:0:0:0:
380,156,59218,1,0,3:0:0:0:
380,156,59418,6,0,L|424:328,1,155,4|0,1:0|0:0,0:0:0:0:
356,376,60018,1,0,3:0:0:0:
268,344,60218,2,0,L|229:193,1,155,10|0,0:0|3:0,0:0:0:0:
260,104,60818,1,0,0:0:0:0:
260,104,61018,6,0,P|184:164|112:164,1,155,0|0,0:0|3:0,0:0:0:0:
68,100,61618,1,0,0:0:0:0:
68,100,61818,2,0,L|108:256,1,155,10|0,0:0|0:0,0:0:0:0:
76,336,62418,1,0,0:0:0:0:
16,264,62618,5,4,1:0:0:0:
106,250,62818,1,0,0:0:0:0:
196,236,63018,2,0,B|224:232|224:232|248:236|248:236|272:233,1,77.5,0|0,0:0|1:0,0:0:0:0:
372,321,63418,2,0,B|348:324|348:324|324:320|324:320|296:324,1,77.5
205,312,63818,2,0,L|193:216,1,77.5,0|0,1:0|0:0,0:0:0:0:
260,168,64218,6,0,B|288:164|288:164|312:168|312:168|336:165,1,77.5,0|0,0:0|1:0,0:0:0:0:
415,119,64618,2,0,P|427:156|421:194,1,77.5,0|0,1:0|0:0,0:0:0:0:
332,76,65018,2,0,P|404:28|472:48,1,155,8|2,0:0|0:0,0:0:0:0:
256,192,65518,12,0,67018,0:0:0:0:
256,192,67418,5,4,1:0:0:0:
316,120,67618,1,0,0:0:0:0:
316,120,67718,1,0,0:0:0:0:
316,120,67818,2,0,B|344:116|344:116|368:120|368:120|396:116,1,77.5,8|0,0:0|0:0,0:0:0:0:
456,184,68218,2,0,P|460:240|452:272,1,77.5,8|0,0:0|0:0,0:0:0:0:
368,296,68618,2,0,P|364:240|372:208,1,77.5,8|0,0:0|0:0,0:0:0:0:
456,184,69018,5,8,0:0:0:0:
412,104,69218,1,0,0:0:0:0:
412,104,69318,1,0,0:0:0:0:
412,104,69418,1,8,0:0:0:0:
316,120,69618,1,0,0:0:0:0:
224,140,69818,2,0,B|199:143|199:143|175:139|175:139|147:143,1,77.5,8|0,0:0|0:0,0:0:0:0:
56,148,70218,2,0,L|52:52,1,77.5,8|0,0:0|0:0,0:0:0:0:
132,24,70618,5,8,0:0:0:0:
216,64,70818,2,0,L|220:120,2,38.75,0|0|8,0:0|0:0|0:0,0:0:0:0:
304,36,71218,1,0,0:0:0:0:
376,92,71418,2,0,L|380:184,1,77.5,8|0,0:0|0:0,0:0:0:0:
379,169,71718,1,0,0:0:0:0:
379,169,71818,1,8,0:0:0:0:
340,252,72018,1,0,0:0:0:0:
256,208,72218,6,0,B|231:211|231:211|207:207|207:207|179:211,1,77.5,8|0,0:0|1:0,0:0:0:0:
148,248,72518,2,0,L|96:252,1,38.75
24,216,72818,1,0,0:0:0:0:
24,216,73018,2,0,P|20:260|32:296,1,77.5,0|0,1:0|0:0,0:0:0:0:
112,336,73418,1,0,1:0:0:0:
112,336,73618,1,0,0:0:0:0:
148,248,73818,6,0,B|176:244|176:244|200:248|200:248|224:244,1,77.5,4|0,1:0|0:0,0:0:0:0:
288,176,74218,1,8,0:0:0:0:
364,232,74418,1,0,0:0:0:0:
300,300,74618,1,8,0:0:0:0:
224,243,74818,1,0,0:0:0:0:
288,176,75018,2,0,L|284:68,1,77.5,8|0,0:0|0:0,0:0:0:0:
284,4,75418,5,8,0:0:0:0:
284,4,75618,1,8,0:0:0:0:
284,4,75818,1,8,0:0:0:0:
364,48,76018,1,8,0:0:0:0:
285,98,76218,2,0,B|252:123|214:124|214:124|172:127|141:149,1,155,8|8,0:0|0:0,0:0:0:0:
88,228,76818,1,0,0:0:0:0:
44,148,77018,6,0,P|32:96|36:56,1,77.5,0|0,1:0|0:0,0:0:0:0:
104,12,77418,1,0,0:0:0:0:
104,12,77618,1,0,1:0:0:0:
165,77,77818,2,0,P|153:129|137:153,1,77.5
88,228,78218,1,0,1:0:0:0:
148,300,78418,1,0,0:0:0:0:
208,228,78618,6,0,B|236:224|236:224|260:228|260:228|284:224,1,77.5,0|0,0:0|1:0,0:0:0:0:
376,216,79018,1,0,0:0:0:0:
408,128,79218,1,0,0:0:0:0:
464,204,79418,1,0,1:0:0:0:
468,208,79818,2,0,B|472:328|472:328|424:280,1,151.124993082047,2|0,1:0|0:0,0:0:0:0:
404,300,80218,6,0,P|360:292|304:320,1,77.5,4|0,1:0|0:0,0:0:0:0:
256,240,80618,2,0,L|252:128,1,77.5,0|0,0:0|3:0,0:0:0:0:
316,96,81018,2,0,P|228:128|160:104,1,155,10|0,0:0|0:0,0:0:0:0:
116,36,81618,1,0,0:0:0:0:
116,36,81818,6,0,L|120:212,1,155,0|8,3:0|0:0,0:0:0:0:
48,248,82418,2,0,B|81:273|119:274|119:274|161:277|192:299,1,155,0|0,3:0|3:0,0:0:0:0:
256,232,83018,1,10,0:0:0:0:
256,232,83418,5,0,3:0:0:0:
284,144,83618,2,0,B|315:122|357:119|357:119|395:118|428:93,1,155,8|8,0:0|0:0,0:0:0:0:
492,160,84218,2,0,L|496:328,1,155,0|0,3:0|3:0,0:0:0:0:
404,340,84818,1,0,0:0:0:0:
320,299,85018,6,0,L|316:119,1,155,8|8,0:0|0:0,0:0:0:0:
256,76,85618,1,8,0:0:0:0:
192,144,85818,2,0,B|168:148|168:148|144:144|144:144|116:148,1,77.5,0|0,0:0|3:0,0:0:0:0:
24,128,86218,2,0,L|20:36,1,77.5,8|0,0:0|3:0,0:0:0:0:
115,148,86618,6,0,L|119:260,1,77.5,4|0,1:0|0:0,0:0:0:0:
76,308,87018,1,0,0:0:0:0:
24,232,87218,1,8,0:0:0:0:
117,225,87418,2,0,B|177:221|177:221|205:225|205:225|272:222,1,155,10|0,0:0|3:0,0:0:0:0:
300,312,88018,1,0,0:0:0:0:
300,312,88218,6,0,P|292:228|356:176,1,155,0|0,0:0|3:0,0:0:0:0:
428,208,88818,2,0,P|439:282|389:338,1,155,8|8,0:0|0:0,0:0:0:0:
300,312,89418,2,0,B|276:316|276:316|252:312|252:312|224:316,1,77.5,0|0,3:0|0:0,0:0:0:0:
136,288,89818,6,0,P|136:240|124:208,1,77.5,4|0,1:0|0:0,0:0:0:0:
32,224,90218,2,0,P|32:272|44:304,2,77.5,0|0|0,0:0|1:0|0:0,0:0:0:0:
72,140,90818,1,0,0:0:0:0:
164,132,91018,2,0,B|192:128|192:128|216:132|216:132|240:128,1,77.5,0|0,1:0|0:0,0:0:0:0:
332,152,91418,6,0,P|333:113|322:76,1,77.5,0|0,0:0|1:0,0:0:0:0:
263,215,91818,2,0,P|295:238|332:246,1,77.5
240,127,92218,2,0,P|192:151|180:172,1,77.5,0|0,1:0|0:0,0:0:0:0:
164,260,92618,2,0,B|116:264|116:264|92:260|92:260|47:264,1,116.25,0|0,1:0|0:0,0:0:0:0:
16,232,93018,6,0,L|12:152,1,77.5,8|8,0:0|0:0,0:0:0:0:
96,112,93418,2,0,L|100:192,1,77.5,8|8,0:0|0:0,0:0:0:0:
164,260,93818,2,0,P|204:268|244:260,1,77.5,8|8,0:0|0:0,0:0:0:0:
296,188,94218,2,0,B|324:184|324:184|348:188|348:188|372:184,1,77.5,8|8,0:0|0:0,0:0:0:0:
408,96,94618,6,0,L|412:284,1,155,4|0,1:0|0:0,0:0:0:0:
376,336,95218,1,0,3:0:0:0:
316,261,95418,2,0,B|276:273|240:261|240:261|200:249|156:261,1,155,10|0,0:0|3:0,0:0:0:0:
116,340,96018,1,0,0:0:0:0:
116,340,96218,6,0,L|112:168,1,155,0|0,0:0|3:0,0:0:0:0:
36,128,96818,1,0,0:0:0:0:
36,128,97018,2,0,P|112:92|192:132,1,155,10|0,0:0|0:0,0:0:0:0:
224,192,97618,1,0,0:0:0:0:
292,128,97818,6,0,B|320:124|320:124|344:128|344:128|368:124,1,77.5,0|0,3:0|0:0,0:0:0:0:
416,44,98218,2,0,P|392:120|432:196,1,155,2|10,3:0|0:0,0:0:0:0:
464,268,98818,1,0,0:0:0:0:
380,308,99018,2,0,B|356:312|356:312|332:308|332:308|304:312,1,77.5
212,312,99418,6,0,B|188:344|188:344|184:220,1,155,0|0,3:0|0:0,0:0:0:0:
256,168,100018,2,0,P|164:192|84:152,1,155,0|0,3:0|0:0,0:0:0:0:
48,104,100618,2,0,L|52:232,1,116.25,0|0,3:0|0:0,0:0:0:0:
52,268,101018,5,4,1:0:0:0:
220,344,101418,2,0,B|248:340|248:340|272:344|272:344|296:340,1,77.5,0|0,0:0|3:0,0:0:0:0:
356,268,101818,2,0,B|387:246|429:243|429:243|467:242|500:217,1,155,10|0,0:0|3:0,0:0:0:0:
476,128,102418,1,0,0:0:0:0:
476,128,102618,6,0,B|437:153|399:154|399:154|365:154|332:179,1,155,0|0,0:0|3:0,0:0:0:0:
252,128,103218,1,0,0:0:0:0:
252,128,103418,2,0,P|296:184|260:268,1,155,10|0,0:0|0:0,0:0:0:0:
216,332,104018,1,0,0:0:0:0:
216,332,104218,5,0,1:0:0:0:
136,280,104418,1,0,0:0:0:0:
136,280,104618,2,0,P|92:196|128:136,1,155,2|8,3:0|0:0,0:0:0:0:
172,76,105218,1,0,0:0:0:0:
252,128,105418,2,0,P|292:136|344:120,1,77.5,0|0,1:0|0:0,0:0:0:0:
372,44,105818,6,0,L|376:212,1,155,0|0,1:0|3:0,0:0:0:0:
424,280,106418,1,0,3:0:0:0:
468,200,106618,1,0,1:0:0:0:
375,198,106818,1,0,3:0:0:0:
284,208,107018,2,0,B|260:212|260:212|236:208|236:208|208:212,1,77.5,0|0,1:0|0:0,0:0:0:0:
164,296,107418,6,0,P|156:184|120:140,1,155,4|0,1:0|0:0,0:0:0:0:
40,172,108018,1,0,3:0:0:0:
40,172,108218,2,0,P|40:264|92:336,1,155,10|0,0:0|3:0,0:0:0:0:
164,296,108818,1,0,0:0:0:0:
252,267,109018,6,0,P|256:191|221:123,1,155,0|0,0:0|3:0,0:0:0:0:
140,76,109618,1,0,0:0:0:0:
140,76,109818,2,0,B|180:88|216:76|216:76|252:64|292:76,1,155,10|0,0:0|0:0,0:0:0:0:
368,132,110418,1,0,0:0:0:0:
367,132,110618,6,0,P|385:97|385:59,1,77.5,0|0,3:0|0:0,0:0:0:0:
280,164,111018,2,0,P|332:218|407:217,1,155,2|10,3:0|0:0,0:0:0:0:
292,76,111818,2,0,P|232:88|212:104,1,77.5
192,184,112218,6,0,P|158:202|119:204,1,77.5,0|0,3:0|0:0,0:0:0:0:
72,124,112618,2,0,L|76:316,1,155,0|10,0:0|0:0,0:0:0:0:
132,352,113218,1,0,3:0:0:0:
168,264,113418,1,8,0:0:0:0:
75,278,113618,1,0,3:0:0:0:
260,244,113818,6,0,B|320:240|320:240|348:244|348:244|428:240,1,155,4|0,1:0|0:0,0:0:0:0:
360,316,114418,1,0,3:0:0:0:
360,316,114618,2,0,P|324:232|360:164,1,155,10|0,0:0|3:0,0:0:0:0:
420,124,115218,1,0,0:0:0:0:
336,80,115418,6,0,B|269:83|269:83|241:79|241:79|181:83,1,155,0|0,0:0|3:0,0:0:0:0:
88,88,116018,1,0,0:0:0:0:
88,88,116218,2,0,B|56:48|56:48|60:176,1,155,10|0,0:0|0:0,0:0:0:0:
60,244,116818,1,0,0:0:0:0:
140,288,117018,6,0,P|192:292|224:284,1,77.5,4|0,1:0|0:0,0:0:0:0:
216,192,117418,2,0,P|164:188|132:196,1,77.5,0|0,0:0|1:0,0:0:0:0:
60,244,117818,1,0,0:0:0:0:
140,288,118018,1,0,0:0:0:0:
139,193,118218,2,0,L|135:93,1,77.5,0|0,1:0|0:0,0:0:0:0:
220,76,118618,6,0,B|248:72|248:72|272:76|272:76|296:73,1,77.5,0|0,0:0|1:0,0:0:0:0:
400,161,119018,2,0,B|376:164|376:164|352:160|352:160|324:164,1,77.5,0|0,1:0|0:0,0:0:0:0:
450,85,119418,2,0,P|492:147|472:220,1,155,8|2,0:0|0:0,0:0:0:0:
300,324,120218,5,4,1:0:0:0:
96,284,126218,5,8,0:0:0:0:
96,284,126618,6,0,P|78:208|90:132,1,155,4|8,1:0|0:0,0:0:0:0:
256,44,127418,2,0,B|284:40|284:40|308:44|308:44|332:41,1,77.5,8|0,0:0|0:0,0:0:0:0:
400,108,127818,2,0,B|412:144|412:144|412:192,1,77.5,8|0,0:0|0:0,0:0:0:0:
356,260,128218,6,0,B|356:299|356:299|368:335,1,77.5,8|0,0:0|0:0,0:0:0:0:
448,288,128618,1,8,0:0:0:0:
356,260,128818,1,0,0:0:0:0:
276,308,129018,2,0,B|209:311|209:311|181:307|181:307|121:311,1,155,8|8,0:0|0:0,0:0:0:0:
256,192,129818,12,0,132618,0:0:0:0:
440,124,133018,5,4,1:0:0:0:
440,124,133218,2,0,B|400:112|364:124|364:124|324:136|280:124,1,155,0|0,0:0|3:0,0:0:0:0:
252,40,133818,2,0,L|256:208,1,155,8|0,0:0|3:0,0:0:0:0:
136,340,134618,6,0,B|112:343|112:343|88:339|88:339|60:343,1,77.5,0|0,0:0|3:0,0:0:0:0:
48,252,135018,2,0,B|76:248|76:248|100:252|100:252|124:249,1,77.5,0|0,3:0|0:0,0:0:0:0:
176,172,135418,2,0,P|212:260|276:284,1,155,8|0,0:0|0:0,0:0:0:0:
262,282,136218,5,0,3:0:0:0:
344,236,136418,2,0,P|308:148|244:124,1,155,0|0,0:0|3:0,0:0:0:0:
176,76,137018,2,0,B|209:51|247:50|247:50|289:47|320:25,1,155,8|0,0:0|3:0,0:0:0:0:
492,92,137818,6,0,B|461:114|419:117|419:117|381:118|348:143,1,155,8|8,0:0|0:0,0:0:0:0:
344,236,138418,2,0,P|336:168|264:108,1,155,8|8,0:0|0:0,0:0:0:0:
188,148,139018,1,8,0:0:0:0:
188,148,139418,5,8,0:0:0:0:
108,196,139618,2,0,P|116:264|188:324,1,155,0|0,3:0|3:0,0:0:0:0:
268,348,140218,2,0,B|301:323|339:322|339:322|381:319|412:297,1,155,8|0,0:0|3:0,0:0:0:0:
280,164,141018,5,0,0:0:0:0:
188,148,141218,1,8,0:0:0:0:
108,196,141418,2,0,L|112:308,1,77.5,8|0,0:0|3:0,0:0:0:0:
191,225,141818,2,0,L|187:137,1,77.5,8|0,0:0|3:0,0:0:0:0:
184,56,142218,1,8,0:0:0:0:
184,56,142618,6,0,B|225:58|255:81|255:81|285:105|330:109,1,155,0|0,1:0|0:0,0:0:0:0:
308,200,143218,2,0,B|265:196|236:172|236:172|206:149|164:146,1,155,0|0,1:0|1:0,0:0:0:0:
48,292,144018,2,0,B|89:294|119:317|119:317|149:341|191:345,1,155,0|0,1:0|1:0,0:0:0:0:
256,280,144618,5,0,1:0:0:0:
256,280,144818,1,0,0:0:0:0:
320,345,145018,2,0,B|362:341|392:317|392:317|422:294|464:292,1,155,0|8,1:0|0:0,0:0:0:0:
256,192,145518,12,4,147418,1:0:0:0:
256,192,157018,12,0,159818,0:0:0:0:
456,224,160218,6,0,P|384:248|312:224,1,155,4|0,1:0|0:0,0:0:0:0:
256,148,160818,1,0,3:0:0:0:
256,148,161018,2,0,B|268:228|268:228|256:316,1,155,10|0,0:0|3:0,0:0:0:0:
180,356,161618,1,0,0:0:0:0:
112,292,161818,6,0,B|88:296|88:296|64:292|64:292|36:296,2,77.5,0|0|0,0:0|0:0|3:0,0:0:0:0:
188,240,162418,1,0,0:0:0:0:
257,301,162618,2,0,B|317:297|317:297|345:301|345:301|412:298,1,155,10|0,0:0|0:0,0:0:0:0:
440,208,163218,1,0,0:0:0:0:
388,132,163418,6,0,P|372:96|374:58,1,77.5,0|0,3:0|0:0,0:0:0:0:
440,208,163818,2,0,P|368:224|304:172,1,155,2|10,3:0|0:0,0:0:0:0:
256,100,164418,1,0,0:0:0:0:
184,156,164618,2,0,B|160:160|160:160|136:156|136:156|108:160,1,77.5
52,232,165018,6,0,B|68:336|68:336|104:276,1,155,0|0,3:0|0:0,0:0:0:0:
184,276,165618,2,0,B|220:265|260:277|260:277|296:289|336:277,1,155,0|0,3:0|3:0,0:0:0:0:
300,192,166218,1,8,0:0:0:0:
352,112,166418,1,0,3:0:0:0:
392,196,166618,6,0,B|372:272|372:272|380:356,1,155,4|0,1:0|0:0,0:0:0:0:
472,352,167218,1,0,3:0:0:0:
472,352,167418,2,0,B|492:280|492:280|484:196,1,155,10|0,0:0|3:0,0:0:0:0:
392,196,168018,1,0,0:0:0:0:
300,192,168218,6,0,B|272:188|272:188|248:192|248:192|224:188,1,77.5
132,184,168618,2,0,P|116:136|116:104,1,77.5,0|0,3:0|0:0,0:0:0:0:
24,96,169018,2,0,P|36:200|72:264,1,155,10|0,0:0|0:0,0:0:0:0:
144,284,169618,1,0,0:0:0:0:
208,216,169818,6,0,B|212:176|212:176|200:128,1,77.5,4|0,1:0|0:0,0:0:0:0:
284,96,170218,2,0,B|280:136|280:136|292:184,1,77.5,0|4,0:0|1:0,0:0:0:0:
328,256,170618,2,0,B|369:258|399:281|399:281|429:305|471:309,1,155,0|4,0:0|1:0,0:0:0:0:
508,224,171218,2,0,B|466:220|436:196|436:196|406:173|365:171,1,155,0|4,0:0|1:0,0:0:0:0:
272,188,171818,6,0,P|240:236|240:260,1,77.5,4|0,1:0|0:0,0:0:0:0:
152,288,172218,1,4,1:0:0:0:
152,288,172418,1,0,0:0:0:0:
72,240,172618,2,0,P|68:188|60:160,1,77.5,4|0,1:0|0:0,0:0:0:0:
16,84,173018,6,0,P|92:144|156:120,1,155,4|0,1:0|0:0,0:0:0:0:
100,48,173618,1,0,3:0:0:0:
141,131,173818,2,0,P|160:224|152:296,1,155,10|0,0:0|3:0,0:0:0:0:
224,348,174418,1,0,0:0:0:0:
304,300,174618,6,0,B|332:296|332:296|356:300|356:300|380:296,1,77.5
448,360,175018,1,0,3:0:0:0:
488,276,175218,1,0,0:0:0:0:
416,216,175418,2,0,P|396:140|397:51,1,155,10|0,0:0|0:0,0:0:0:0:
308,36,176018,1,0,0:0:0:0:
256,116,176218,6,0,B|232:120|232:120|208:116|208:116|180:120,1,77.5,0|0,3:0|0:0,0:0:0:0:
128,44,176618,2,0,L|132:216,1,155,2|10,3:0|0:0,0:0:0:0:
132,292,177218,1,0,0:0:0:0:
52,248,177418,1,0,0:0:0:0:
131,198,177618,1,0,0:0:0:0:
212,244,177818,6,0,L|312:240,1,77.5,0|0,3:0|0:0,0:0:0:0:
491,157,178218,2,0,B|424:160|424:160|396:156|396:156|336:160,1,155,0|10,0:0|0:0,0:0:0:0:
289,240,178818,1,0,0:0:0:0:
256,152,179018,2,0,B|252:60|252:60|288:88,1,116.25
316,72,179418,6,0,B|376:68|376:68|404:72|404:72|472:68,1,155,4|0,1:0|0:0,0:0:0:0:
491,157,180018,1,0,3:0:0:0:
443,236,180218,2,0,B|376:239|376:239|348:235|348:235|288:239,1,155,10|0,0:0|3:0,0:0:0:0:
256,328,180818,1,0,0:0:0:0:
256,328,181018,6,0,P|276:248|248:168,1,155,0|0,0:0|3:0,0:0:0:0:
176,136,181618,1,0,0:0:0:0:
112,204,181818,2,0,P|118:280|162:342,1,155,10|0,0:0|0:0,0:0:0:0:
256,328,182418,1,0,0:0:0:0:
348,316,182618,6,0,P|392:336|420:364,1,77.5,4|0,1:0|0:0,0:0:0:0:
496,316,183018,2,0,P|492:268|496:236,1,77.5,0|4,0:0|1:0,0:0:0:0:
420,184,183418,2,0,P|380:212|348:224,1,77.5
348,316,183818,1,4,1:0:0:0:
256,328,184018,1,0,0:0:0:0:
164,336,184218,6,0,P|152:292|152:260,1,77.5,0|4,0:0|1:0,0:0:0:0:
240,224,184618,2,0,P|239:185|227:148,1,77.5,4|0,1:0|0:0,0:0:0:0:
140,120,185018,2,0,B|116:124|116:124|92:120|92:120|64:124,2,77.5,4|0|4,1:0|0:0|1:0,0:0:0:0:
208,56,185618,1,0,0:0:0:0:
240,224,185818,5,2,0:0:0:0:
256,192,185918,12,0,189818,0:0:0:0:
