osu file format v14

[General]
AudioFilename: whatta man.mp3
AudioLeadIn: 0
PreviewTime: 89818
Countdown: 0
SampleSet: Soft
StackLeniency: 0.7
Mode: 0
LetterboxInBreaks: 0
WidescreenStoryboard: 0

[Editor]
DistanceSpacing: 1.2
BeatDivisor: 4
GridSize: 4
TimelineZoom: 1

[Metadata]
Title:Whatta Man (Good man)
TitleUnicode:Whatta Man (Good man)
Artist:I.O.I
ArtistUnicode:아이오아이
Creator:wasinkingspeedq
Version:Advanced
Source:
Tags:ymc entertainment kpop somi yoojung chungha sohye jieqiong doyeon nayoung ioi unit group
BeatmapID:1151315
BeatmapSetID:536983

[Difficulty]
HPDrainRate:4
CircleSize:3.5
OverallDifficulty:4
ApproachRate:5.5
SliderMultiplier:1.35
SliderTickRate:1

[Events]
//Background and Video events
0,0,"bgioi.jpg",0,0
Video,0,"whatta.avi"
//Break Periods
2,120417,125093
2,147618,155893
//Storyboard Layer 0 (Background)
//Storyboard Layer 1 (Fail)
//Storyboard Layer 2 (Pass)
//Storyboard Layer 3 (Foreground)
//Storyboard Sound Samples

[TimingPoints]
6618,400,4,2,0,60,1,0
18018,-100,4,2,0,90,0,0
19418,-100,4,2,0,60,0,0
22618,-100,4,2,0,90,0,0
25818,-100,4,2,0,60,0,0
35418,-100,4,2,0,90,0,0
38618,-100,4,2,0,20,0,0
38818,-100,4,2,0,30,0,0
39018,-100,4,2,0,40,0,0
39218,-100,4,2,0,50,0,0
39418,-100,4,2,0,60,0,0
39618,-100,4,2,0,70,0,0
39818,-100,4,2,0,80,0,0
40018,-100,4,2,0,85,0,0
40218,-100,4,2,0,90,0,1
65418,-100,4,2,0,60,0,0
72418,-100,4,2,0,90,0,0
73818,-100,4,2,0,60,0,0
77018,-100,4,2,0,90,0,0
80218,-100,4,2,0,60,0,0
89818,-100,4,2,0,90,0,0
93018,-100,4,2,0,20,0,0
93218,-100,4,2,0,30,0,0
93418,-100,4,2,0,40,0,0
93618,-100,4,2,0,50,0,0
93818,-100,4,2,0,60,0,0
94018,-100,4,2,0,70,0,0
94218,-100,4,2,0,80,0,0
94418,-100,4,2,0,85,0,0
94618,-100,4,2,0,90,0,1
119818,-100,4,2,0,60,0,0
142618,-100,4,2,0,90,0,0
145418,-100,4,2,0,60,0,0
160218,-100,4,2,0,90,0,1
185818,-100,4,2,0,90,0,0

[Colours]
Combo1 : 255,47,47
Combo2 : 192,192,192
Combo3 : 255,128,128
Combo4 : 128,128,128

[HitObjects]
120,88,13018,6,0,P|124:184|112:236,1,135,8|8,0:0|0:0,0:0:0:0:
56,276,13618,1,0,0:0:0:0:
124,320,13818,2,0,L|260:248,1,135,8|8,0:0|0:0,0:0:0:0:
296,320,14418,1,0,0:0:0:0:
296,320,14618,2,0,P|288:240|304:176,1,135,8|8,0:0|0:0,0:0:0:0:
332,112,15218,2,0,L|200:184,1,135
140,212,15818,1,8,0:0:0:0:
44,80,16218,5,8,0:0:0:0:
116,40,16418,1,0,0:0:0:0:
176,92,16618,2,0,L|244:56,1,67.5,8|0,0:0|0:0,0:0:0:0:
312,92,17018,2,0,L|380:56,1,67.5,8|0,0:0|0:0,0:0:0:0:
444,100,17418,2,0,B|440:136|440:136|448:184,1,67.5,8|0,0:0|0:0,0:0:0:0:
476,240,17818,2,0,L|416:271,1,67.5,8|4,0:0|1:0,0:0:0:0:
392,348,18218,1,0,0:0:0:0:
392,348,18418,2,0,P|356:256|312:224,1,135
256,204,19018,1,0,1:0:0:0:
108,272,19418,6,0,L|48:303,2,67.5,4|0|8,1:0|0:0|0:0,0:0:0:0:
184,244,20018,1,0,0:0:0:0:
256,204,20218,2,0,P|248:156|236:128,1,67.5,8|0,0:0|0:0,0:0:0:0:
160,136,20618,2,0,P|149:104|145:70,1,67.5,8|0,0:0|0:0,0:0:0:0:
64,60,21018,2,0,P|72:132|100:200,1,135,8|8,0:0|0:0,0:0:0:0:
168,220,21618,2,0,P|80:228|24:252,1,135
44,328,22218,1,8,0:0:0:0:
120,352,22418,1,8,0:0:0:0:
184,300,22618,6,0,P|224:300|264:288,1,67.5,4|0,1:0|0:0,0:0:0:0:
300,228,23018,2,0,P|332:220|366:221,1,67.5,0|0,0:0|1:0,0:0:0:0:
436,264,23418,2,0,P|444:208|436:184,1,67.5
380,144,23818,2,0,P|372:88|380:64,1,67.5,0|0,1:0|0:0,0:0:0:0:
432,20,24218,2,0,L|284:24,1,135,0|0,0:0|1:0,0:0:0:0:
160,112,25018,2,0,L|294:108,1,135,0|2,1:0|1:0,0:0:0:0:
432,192,25818,6,0,L|297:195,1,135,2|0,3:0|0:0,0:0:0:0:
236,248,26418,1,8,0:0:0:0:
236,248,26618,2,0,P|260:168|252:108,1,135,8|8,0:0|0:0,0:0:0:0:
28,208,27618,1,8,0:0:0:0:
28,208,27818,2,0,P|26:275|47:338,1,135,8|8,0:0|0:0,0:0:0:0:
208,328,28618,1,8,0:0:0:0:
236,168,29018,6,0,B|288:164|288:164|312:168|312:168|380:164,1,135,2|0,3:0|0:0,0:0:0:0:
408,92,29618,1,8,0:0:0:0:
408,92,29818,2,0,L|412:248,1,135,8|8,0:0|0:0,0:0:0:0:
192,336,30818,1,8,0:0:0:0:
192,336,31018,2,0,B|136:288|136:288|100:216,1,135,8|8,0:0|0:0,0:0:0:0:
148,164,31618,1,0,3:0:0:0:
212,216,31818,2,0,L|300:212,1,67.5,8|0,0:0|3:0,0:0:0:0:
340,264,32218,6,0,P|312:172|332:112,1,135,2|0,3:0|0:0,0:0:0:0:
388,92,32818,1,8,0:0:0:0:
456,136,33018,2,0,P|462:202|435:263,1,135,8|8,0:0|0:0,0:0:0:0:
204,336,34018,1,8,0:0:0:0:
140,288,34218,2,0,B|113:257|106:229|106:229|100:204|68:172,2,135,8|8|8,0:0|0:0|0:0,0:0:0:0:
256,172,35418,6,0,B|229:141|222:113|222:113|216:88|184:56,1,135,4|0,1:0|0:0,0:0:0:0:
256,16,36018,1,0,1:0:0:0:
312,76,36218,2,0,P|352:152|396:184,1,135,0|0,0:0|1:0,0:0:0:0:
456,136,36818,2,0,L|408:288,1,135,0|0,0:0|1:0,0:0:0:0:
352,316,37418,2,0,B|312:324|284:316|284:316|256:308|216:316,2,135,0|0|0,0:0|1:0|1:0,0:0:0:0:
256,192,38618,12,4,40218,1:0:0:0:
80,332,41018,6,0,P|76:248|136:224,1,135,10|0,0:0|3:0,0:0:0:0:
184,188,41618,1,0,0:0:0:0:
236,248,41818,2,0,B|288:244|288:244|316:248|316:248|392:244,1,135,0|0,0:0|3:0,0:0:0:0:
428,304,42418,1,0,0:0:0:0:
428,304,42618,2,0,P|444:216|416:176,1,135,10|0,0:0|0:0,0:0:0:0:
280,104,43418,5,0,3:0:0:0:
200,108,43618,1,0,0:0:0:0:
184,188,43818,2,0,P|112:228|60:204,2,135,2|10|0,3:0|0:0|0:0,0:0:0:0:
304,300,45018,2,0,P|376:260|428:284,1,135,0|0,3:0|0:0,0:0:0:0:
460,348,45618,2,0,L|468:188,1,135,0|0,3:0|0:0,0:0:0:0:
472,132,46218,1,0,3:0:0:0:
316,84,46618,6,0,P|244:124|192:100,1,135,4|0,1:0|0:0,0:0:0:0:
160,36,47218,1,0,3:0:0:0:
160,36,47418,2,0,L|152:188,1,135,10|0,0:0|3:0,0:0:0:0:
100,232,48018,1,0,0:0:0:0:
100,232,48218,2,0,B|134:253|160:253|160:253|192:257|227:278,1,135,0|0,0:0|3:0,0:0:0:0:
280,336,48818,1,0,0:0:0:0:
280,336,49018,2,0,L|288:192,1,135,10|0,0:0|0:0,0:0:0:0:
444,160,49818,6,0,L|440:248,1,67.5,4|0,1:0|0:0,0:0:0:0:
492,288,50218,2,0,P|400:256|340:264,1,135,0|10,3:0|0:0,0:0:0:0:
208,296,51018,1,0,1:0:0:0:
136,332,51218,1,0,0:0:0:0:
76,280,51418,2,0,P|36:216|52:160,1,135,0|0,0:0|1:0,0:0:0:0:
128,144,52018,2,0,P|168:80|152:24,1,135,0|0,3:0|3:0,0:0:0:0:
88,72,52618,1,0,1:0:0:0:
208,180,53018,6,0,L|336:132,1,135,4|0,1:0|0:0,0:0:0:0:
368,60,53618,1,0,3:0:0:0:
424,120,53818,2,0,P|408:208|440:264,1,135,10|0,0:0|3:0,0:0:0:0:
504,276,54418,1,0,0:0:0:0:
504,276,54618,2,0,L|377:324,1,135,0|0,0:0|3:0,0:0:0:0:
296,312,55218,1,0,0:0:0:0:
256,240,55418,2,0,L|129:288,1,135,10|0,0:0|0:0,0:0:0:0:
40,152,56218,6,0,L|112:124,1,67.5,0|0,3:0|0:0,0:0:0:0:
87,47,56618,2,0,P|120:105|181:131,2,135,2|10|0,3:0|0:0|0:0,0:0:0:0:
248,72,57818,2,0,P|264:156|220:216,1,135,0|0,3:0|0:0,0:0:0:0:
196,264,58418,2,0,L|323:216,1,135,0|0,3:0|3:0,0:0:0:0:
388,168,59018,2,0,P|404:208|400:240,1,67.5,8|0,0:0|3:0,0:0:0:0:
480,252,59418,6,0,P|476:156|456:120,1,135,4|0,1:0|0:0,0:0:0:0:
384,88,60018,1,0,3:0:0:0:
388,168,60218,2,0,B|344:188|344:188|244:168,1,135,10|0,0:0|3:0,0:0:0:0:
196,120,60818,1,0,0:0:0:0:
152,188,61018,2,0,B|122:217|116:242|116:242|109:270|82:301,1,135,0|0,0:0|3:0,0:0:0:0:
128,368,61618,1,0,0:0:0:0:
128,368,61818,2,0,P|180:304|200:244,1,135,10|0,0:0|0:0,0:0:0:0:
360,248,62618,6,0,L|432:276,1,67.5,4|0,1:0|0:0,0:0:0:0:
484,324,63018,2,0,P|472:220|492:188,1,135
376,76,63818,2,0,L|313:51,1,67.5,0|0,1:0|0:0,0:0:0:0:
256,112,64218,2,0,L|193:87,1,67.5,0|0,0:0|1:0,0:0:0:0:
132,144,64618,1,0,1:0:0:0:
176,212,64818,1,0,0:0:0:0:
256,208,65018,2,0,L|384:260,1,135,8|2,0:0|0:0,0:0:0:0:
96,132,67418,6,0,P|104:216|96:272,1,135,4|8,1:0|0:0,0:0:0:0:
148,332,68018,1,0,0:0:0:0:
224,308,68218,2,0,P|280:296|360:308,1,135,8|8,0:0|0:0,0:0:0:0:
448,176,69018,2,0,P|392:188|312:176,1,135,8|8,0:0|0:0,0:0:0:0:
256,120,69618,1,0,0:0:0:0:
188,164,69818,2,0,B|146:166|125:182|125:182|102:199|61:205,1,135,8|8,0:0|0:0,0:0:0:0:
120,356,70618,6,0,P|168:304|180:236,1,135,8|8,0:0|0:0,0:0:0:0:
188,164,71218,1,0,0:0:0:0:
256,120,71418,2,0,P|288:108|336:80,1,67.5,8|0,0:0|0:0,0:0:0:0:
384,140,71818,2,0,P|384:188|388:220,1,67.5,8|0,0:0|0:0,0:0:0:0:
312,244,72218,2,0,P|276:216|252:208,1,67.5,8|0,0:0|1:0,0:0:0:0:
188,164,72618,2,0,P|200:256|180:304,1,135,0|0,0:0|1:0,0:0:0:0:
40,220,73418,1,0,1:0:0:0:
92,64,73818,6,0,B|132:57|155:40|155:40|176:25|218:22,1,135,4|8,1:0|0:0,0:0:0:0:
256,96,74418,1,0,0:0:0:0:
336,96,74618,2,0,L|404:72,1,67.5,8|0,0:0|0:0,0:0:0:0:
448,140,75018,2,0,L|360:172,1,67.5,8|0,0:0|0:0,0:0:0:0:
344,232,75418,2,0,P|352:276|380:300,2,67.5,8|8|8,0:0|0:0|0:0,0:0:0:0:
424,232,76018,1,8,0:0:0:0:
440,312,76218,2,0,P|392:364|312:344,1,135,8|8,0:0|0:0,0:0:0:0:
256,192,77018,12,8,79418,0:0:0:0:
152,144,80218,5,4,1:0:0:0:
100,208,80418,1,0,0:0:0:0:
44,148,80618,2,0,L|40:72,1,67.5,0|0,0:0|3:0,0:0:0:0:
112,44,81018,2,0,B|164:40|164:40|188:44|188:44|252:40,1,135,10|0,0:0|3:0,0:0:0:0:
380,132,81818,2,0,P|360:216|312:248,1,135,0|0,3:0|3:0,0:0:0:0:
264,188,82418,2,0,L|292:328,1,135,8|8,0:0|0:0,0:0:0:0:
368,348,83018,1,0,3:0:0:0:
484,236,83418,5,0,3:0:0:0:
416,188,83618,2,0,L|389:55,1,135,10|8,0:0|0:0,0:0:0:0:
308,40,84218,2,0,B|269:56|255:78|255:78|239:102|203:122,1,135,8|0,0:0|3:0,0:0:0:0:
128,88,84818,1,0,0:0:0:0:
196,44,85018,2,0,P|272:88|272:152,1,135,8|8,0:0|0:0,0:0:0:0:
232,196,85618,2,0,P|253:257|314:280,1,135,8|0,0:0|3:0,0:0:0:0:
376,228,86218,2,0,L|444:200,1,67.5,8|0,0:0|3:0,0:0:0:0:
452,284,86618,6,0,L|389:309,1,67.5,4|0,1:0|0:0,0:0:0:0:
314,280,87018,1,0,0:0:0:0:
252,332,87218,1,0,3:0:0:0:
184,288,87418,2,0,B|148:268|132:244|132:244|118:222|79:206,1,135,10|0,0:0|3:0,0:0:0:0:
28,268,88018,1,0,0:0:0:0:
28,268,88218,2,0,L|64:128,1,135,0|0,0:0|3:0,0:0:0:0:
140,112,88818,2,0,B|179:128|193:150|193:150|209:174|245:194,1,135,10|10,0:0|0:0,0:0:0:0:
324,216,89418,1,0,3:0:0:0:
456,120,89818,6,0,L|388:68,1,67.5,4|0,1:0|0:0,0:0:0:0:
336,124,90218,2,0,B|392:168|392:168|412:236,1,135,8|0,0:0|0:0,0:0:0:0:
256,284,91018,2,0,L|188:232,1,67.5,0|0,1:0|0:0,0:0:0:0:
144,300,91418,2,0,B|88:256|88:256|68:188,1,135,8|0,0:0|0:0,0:0:0:0:
168,64,92218,2,0,L|221:105,2,67.5,0|0|0,1:0|0:0|1:0,0:0:0:0:
256,192,93018,12,4,94618,1:0:0:0:
444,96,95418,6,0,P|392:168|348:164,1,135,10|0,0:0|3:0,0:0:0:0:
280,132,96018,1,0,0:0:0:0:
248,204,96218,2,0,B|206:198|183:210|183:210|157:223|116:222,1,135,0|0,0:0|3:0,0:0:0:0:
68,156,96818,1,0,0:0:0:0:
68,156,97018,2,0,L|84:292,1,135,10|0,0:0|0:0,0:0:0:0:
236,352,97818,6,0,L|224:260,1,67.5,0|0,3:0|0:0,0:0:0:0:
248,204,98218,2,0,P|312:168|352:104,2,135,2|10|0,3:0|0:0|0:0,0:0:0:0:
164,64,99418,2,0,P|100:100|60:164,1,135,0|0,3:0|0:0,0:0:0:0:
52,228,100018,2,0,B|90:242|119:239|119:239|144:236|182:255,1,135,0|0,3:0|0:0,0:0:0:0:
256,288,100618,1,0,3:0:0:0:
396,208,101018,6,0,P|400:136|376:80,1,135,4|0,1:0|0:0,0:0:0:0:
296,72,101618,1,0,3:0:0:0:
244,132,101818,2,0,P|270:198|316:239,1,135,10|0,0:0|3:0,0:0:0:0:
384,288,102418,1,0,0:0:0:0:
384,288,102618,2,0,L|248:336,1,135,0|0,0:0|3:0,0:0:0:0:
176,300,103218,1,0,0:0:0:0:
112,352,103418,2,0,P|100:272|136:228,1,135,10|0,0:0|0:0,0:0:0:0:
256,128,104218,6,0,L|344:96,1,67.5,4|0,1:0|0:0,0:0:0:0:
364,36,104618,2,0,P|368:116|400:168,1,135,0|10,3:0|0:0,0:0:0:0:
268,264,105418,2,0,L|204:287,1,67.5,0|0,1:0|0:0,0:0:0:0:
152,348,105818,2,0,P|148:268|116:216,1,135,0|0,0:0|1:0,0:0:0:0:
40,228,106418,2,0,P|9:168|9:101,1,135,0|0,3:0|3:0,0:0:0:0:
80,64,107018,1,0,1:0:0:0:
220,148,107418,6,0,L|348:228,1,135,4|0,1:0|0:0,0:0:0:0:
376,288,108018,1,0,3:0:0:0:
440,240,108218,2,0,P|456:156|432:104,1,135,10|0,0:0|3:0,0:0:0:0:
396,44,108818,1,0,0:0:0:0:
324,80,109018,2,0,B|286:61|261:64|261:64|232:67|194:53,1,135,0|0,0:0|3:0,0:0:0:0:
116,80,109618,1,0,0:0:0:0:
112,160,109818,2,0,B|150:174|179:171|179:171|204:168|242:187,1,135,10|0,0:0|0:0,0:0:0:0:
384,264,110618,6,0,P|408:312|412:340,1,67.5,0|0,3:0|0:0,0:0:0:0:
492,312,111018,2,0,P|460:232|424:188,2,135,2|10|0,3:0|0:0|0:0,0:0:0:0:
336,352,112218,2,0,P|296:297|274:234,1,135,0|0,3:0|0:0,0:0:0:0:
272,152,112818,2,0,L|184:288,1,135,0|0,3:0|3:0,0:0:0:0:
124,300,113418,2,0,P|100:272|64:256,1,67.5,8|0,0:0|3:0,0:0:0:0:
4,300,113818,6,0,L|77:186,1,135,4|0,1:0|0:0,0:0:0:0:
128,124,114418,1,0,3:0:0:0:
184,184,114618,2,0,P|248:244|320:232,1,135,10|0,0:0|3:0,0:0:0:0:
352,192,115218,1,0,0:0:0:0:
432,204,115418,2,0,L|448:344,1,135,0|0,0:0|3:0,0:0:0:0:
368,356,116018,1,0,0:0:0:0:
288,356,116218,2,0,L|272:221,1,135,10|0,0:0|0:0,0:0:0:0:
112,200,117018,6,0,L|124:288,1,67.5,4|0,1:0|0:0,0:0:0:0:
68,328,117418,2,0,P|136:296|192:324,1,135
312,216,118218,2,0,L|296:128,1,67.5,0|0,1:0|0:0,0:0:0:0:
328,72,118618,2,0,P|376:56|400:56,1,67.5,0|0,0:0|1:0,0:0:0:0:
444,120,119018,2,0,P|396:136|372:136,1,67.5,0|0,1:0|0:0,0:0:0:0:
396,216,119418,2,0,L|420:352,2,135,8|2|4,0:0|0:0|1:0,0:0:0:0:
40,176,126218,5,8,0:0:0:0:
64,336,126618,5,4,1:0:0:0:
224,332,127018,2,0,P|208:228|208:184,1,135,8|8,0:0|0:0,0:0:0:0:
356,132,127818,2,0,B|391:112|408:88|408:88|422:66|460:49,1,135,8|8,0:0|0:0,0:0:0:0:
404,200,128618,2,0,P|328:212|280:164,1,135,8|8,0:0|0:0,0:0:0:0:
156,76,129418,1,8,0:0:0:0:
256,192,129818,12,8,132218,0:0:0:0:
44,216,133018,5,4,1:0:0:0:
104,272,133218,2,0,P|172:324|232:304,1,135,0|0,0:0|3:0,0:0:0:0:
256,244,133818,2,0,B|291:224|308:200|308:200|322:178|360:161,1,135,8|0,0:0|3:0,0:0:0:0:
412,316,134618,1,0,0:0:0:0:
332,332,134818,1,0,3:0:0:0:
256,311,135018,2,0,L|256:231,1,67.5,0|0,3:0|0:0,0:0:0:0:
232,168,135418,2,0,B|196:148|179:124|179:124|165:102|127:85,1,135,8|0,0:0|0:0,0:0:0:0:
40,224,136218,5,0,3:0:0:0:
92,288,136418,2,0,B|152:252|152:252|228:244,1,135,0|0,0:0|3:0,0:0:0:0:
296,232,137018,2,0,B|360:225|360:225|420:189,1,135,8|0,0:0|0:0,0:0:0:0:
368,36,137818,2,0,B|303:42|303:42|243:78,1,135,8|8,0:0|0:0,0:0:0:0:
176,36,138418,2,0,P|216:116|224:188,1,135,8|8,0:0|0:0,0:0:0:0:
208,240,139018,1,8,0:0:0:0:
76,336,139418,5,8,0:0:0:0:
60,256,139618,2,0,P|20:176|12:104,1,135,0|0,3:0|3:0,0:0:0:0:
88,104,140218,2,0,B|129:106|150:122|150:122|174:139|215:146,1,135,8|0,0:0|3:0,0:0:0:0:
376,144,141018,2,0,L|384:64,1,67.5,0|8,0:0|0:0,0:0:0:0:
300,68,141418,2,0,L|292:148,1,67.5,8|0,0:0|3:0,0:0:0:0:
214,146,141818,2,0,L|198:290,1,135,8|8,0:0|0:0,0:0:0:0:
344,356,142618,6,0,L|358:221,1,135,0|0,1:0|0:0,0:0:0:0:
440,204,143218,2,0,L|424:344,1,135,0|0,1:0|1:0,0:0:0:0:
264,328,144018,2,0,B|223:321|199:304|199:304|178:288|136:285,1,135,0|0,1:0|1:0,0:0:0:0:
76,340,144618,2,0,P|56:292|60:268,1,67.5,0|0,1:0|0:0,0:0:0:0:
104,212,145018,2,0,P|120:140|92:84,1,135,0|8,1:0|0:0,0:0:0:0:
256,192,145618,12,4,147418,1:0:0:0:
256,192,157018,12,4,160218,1:0:0:0:
440,136,161018,6,0,B|402:117|377:120|377:120|348:123|310:109,1,135,10|0,0:0|3:0,0:0:0:0:
348,40,161618,1,0,0:0:0:0:
348,40,161818,2,0,P|264:88|220:76,1,135,0|0,0:0|3:0,0:0:0:0:
152,104,162418,1,0,0:0:0:0:
72,124,162618,2,0,L|88:272,1,135,10|0,0:0|0:0,0:0:0:0:
248,272,163418,6,0,P|280:240|288:208,1,67.5,0|0,3:0|0:0,0:0:0:0:
368,232,163818,2,0,P|328:312|276:352,2,135,2|10|0,3:0|0:0|0:0,0:0:0:0:
256,116,165018,2,0,B|218:97|193:100|193:100|164:103|126:89,1,135,0|0,3:0|0:0,0:0:0:0:
48,60,165618,2,0,P|52:132|104:168,1,135,0|0,3:0|0:0,0:0:0:0:
148,232,166218,1,0,3:0:0:0:
308,264,166618,6,0,P|376:236|456:268,1,135,4|0,1:0|0:0,0:0:0:0:
480,184,167218,1,0,3:0:0:0:
420,128,167418,2,0,P|352:156|272:124,1,135,10|0,0:0|3:0,0:0:0:0:
248,208,168018,1,0,0:0:0:0:
248,208,168218,2,0,L|240:64,1,135,0|0,0:0|3:0,0:0:0:0:
160,56,168818,1,0,0:0:0:0:
92,104,169018,2,0,L|99:238,1,135,10|0,0:0|0:0,0:0:0:0:
232,336,169818,5,4,1:0:0:0:
288,276,170018,1,0,0:0:0:0:
248,208,170218,2,0,B|286:189|311:192|311:192|340:195|378:181,2,135,10|0|4,0:0|0:0|1:0,0:0:0:0:
192,152,171218,2,0,B|154:166|125:163|125:163|100:160|62:179,1,135,0|4,0:0|1:0,0:0:0:0:
20,252,171818,2,0,L|4:100,1,135,4|4,1:0|1:0,0:0:0:0:
140,28,172618,1,4,1:0:0:0:
296,68,173018,6,0,L|310:202,1,135,4|0,1:0|0:0,0:0:0:0:
256,264,173618,1,0,3:0:0:0:
256,264,173818,2,0,P|316:284|380:240,1,135,10|0,0:0|3:0,0:0:0:0:
392,168,174418,1,0,0:0:0:0:
392,168,174618,2,0,B|384:100|384:100|376:68|424:44,1,135,0|0,0:0|3:0,0:0:0:0:
480,100,175218,1,0,0:0:0:0:
480,100,175418,2,0,B|488:176|488:176|492:204|444:224,1,135,10|0,0:0|0:0,0:0:0:0:
316,304,176218,6,0,L|240:344,1,67.5,0|0,3:0|0:0,0:0:0:0:
180,304,176618,2,0,B|148:278|136:251|136:251|127:228|91:204,2,135,2|10|0,3:0|0:0|0:0,0:0:0:0:
204,144,177818,2,0,P|168:104|152:96,1,67.5,0|0,3:0|0:0,0:0:0:0:
220,48,178218,2,0,B|255:71|265:94|265:94|277:121|308:147,1,135,0|10,0:0|0:0,0:0:0:0:
468,112,179018,1,0,0:0:0:0:
440,272,179418,6,0,P|376:332|308:332,1,135,4|0,1:0|0:0,0:0:0:0:
256,304,180018,1,0,3:0:0:0:
256,224,180218,2,0,P|320:164|388:164,1,135,10|0,0:0|3:0,0:0:0:0:
440,192,180818,1,0,0:0:0:0:
440,192,181018,2,0,L|360:64,1,135,0|0,0:0|3:0,0:0:0:0:
288,76,181618,1,0,0:0:0:0:
248,148,181818,2,0,L|319:262,1,135,10|0,0:0|0:0,0:0:0:0:
268,324,182418,1,0,0:0:0:0:
188,320,182618,6,0,L|148:256,1,67.5,4|0,1:0|0:0,0:0:0:0:
176,184,183018,2,0,L|104:69,2,135,0|0|4,0:0|0:0|1:0,0:0:0:0:
248,148,184018,1,0,0:0:0:0:
316,188,184218,2,0,P|352:216|368:240,1,67.5,0|4,0:0|1:0,0:0:0:0:
444,216,184618,2,0,P|452:172|472:124,1,67.5,4|0,1:0|0:0,0:0:0:0:
404,92,185018,2,0,P|356:104|328:104,2,67.5,4|0|4,1:0|0:0|1:0,0:0:0:0:
468,40,185618,1,0,0:0:0:0:
468,40,185818,5,2,0:0:0:0:
256,192,186018,12,0,189818,0:0:0:0:
