osu file format v12

[General]
AudioFilename: WhoIsShe.mp3
AudioLeadIn: 0
PreviewTime: 19977
Countdown: 0
SampleSet: Normal
StackLeniency: 0.7
Mode: 0
LetterboxInBreaks: 0

[Editor]
DistanceSpacing: 1
BeatDivisor: 4
GridSize: 4

[Metadata]
Title:Who Is She?
TitleUnicode:Who Is She?
Artist:I Monster
ArtistUnicode:I Monster
Creator:grumd
Version:Normal
Source:
Tags:
BeatmapID:257746
BeatmapSetID:96080

[Difficulty]
HPDrainRate:3
CircleSize:4
OverallDifficulty:4
ApproachRate:5
SliderMultiplier:1.5
SliderTickRate:1

[Events]
//Background and Video events
0,0,"275385-1366x768.jpg",0,0
//Break Periods
2,45101,46257
2,70225,71381
2,95350,96505
2,119689,121630
//Storyboard Layer 0 (Background)
//Storyboard Layer 1 (Fail)
//Storyboard Layer 2 (Pass)
//Storyboard Layer 3 (Foreground)
//Storyboard Sound Samples
//Background Colour Transformations
3,100,163,162,255

[TimingPoints]
349,785.134781470819,4,1,1,40,1,0
44316,-100,4,1,1,20,0,0
47457,-90.9090909090909,4,1,1,40,0,0
69440,-90.9090909090909,4,1,1,20,0,0
72581,-83.3333333333333,4,1,1,50,0,0
94565,-83.3333333333333,4,1,1,30,0,0
97705,-83.3333333333333,4,1,1,50,0,0
122830,-83.3333333333333,4,1,1,70,0,1
144813,-83.3333333333333,4,1,1,70,0,0
145402,-83.3333333333333,4,2,0,30,0,0

[Colours]
Combo1 : 167,139,97
Combo2 : 123,85,79
Combo3 : 181,125,64
Combo4 : 202,116,98

[HitObjects]
259,293,22332,38,0,P|269:209|313:158,1,150,0|8,0:0|0:2,0:0:0:0:
419,136,23706,1,0,0:0:0:0:
453,202,24099,2,0,P|447:275|419:326,1,112.5,8|8,0:2|0:2,0:0:0:0:
283,337,25473,5,0,0:0:0:0:
184,224,26258,2,0,P|124:228|66:256,1,112.5,8|0,0:2|0:0,0:0:0:0:
21,299,27239,2,0,P|38:237|27:175,1,112.5,8|8,0:2|0:2,0:0:0:0:
86,49,28613,6,0,P|136:83|236:93,1,150,0|8,0:0|0:2,0:0:0:0:
334,77,29987,2,0,P|361:102|381:135,1,75,0|8,0:0|0:2,0:0:0:0:
284,193,30969,2,0,P|206:195|146:245,1,150,8|0,0:2|0:0,0:0:0:0:
270,328,32539,6,0,L|416:301,1,112.5,8|0,0:2|0:0,0:0:0:0:
424,246,33520,2,0,P|426:186|404:123,1,112.5,8|8,0:2|0:2,0:0:0:0:
266,97,34894,6,0,P|224:154|136:179,1,150,0|8,0:0|0:2,0:0:0:0:
41,156,36268,1,0,0:0:0:0:
17,227,36661,2,0,P|33:291|73:335,1,112.5,8|8,0:2|0:2,0:0:0:0:
202,275,38035,6,0,P|245:220|327:195,1,150,0|8,0:0|0:2,0:0:0:0:
427,222,39409,1,0,0:0:0:0:
473,163,39802,2,0,P|454:102|412:58,1,112.5,8|8,0:2|0:2,0:0:0:0:
273,82,41176,6,0,B|204:108|204:108|117:103,1,150,0|8,0:0|0:2,0:0:0:0:
38,171,42549,2,0,P|23:208|18:252,1,75,0|8,0:0|0:2,0:0:0:0:
111,304,43531,2,0,P|186:259|272:258,1,150,8|0,0:2|2:0,0:0:0:0:
423,303,47457,6,0,L|386:217,1,82.5000025177003,0|0,0:0|2:0,0:0:0:0:
314,194,48242,2,0,P|251:242|230:304,1,123.75000377655,8|0,0:2|0:0,0:0:0:0:
157,313,49223,2,0,P|95:278|58:217,1,123.75000377655,8|8,0:2|0:2,0:0:0:0:
134,85,50597,6,0,P|224:115|305:103,1,165.000005035401,0|8,0:0|0:2,0:0:0:0:
415,97,51971,2,0,P|443:137|454:182,1,82.5000025177003,0|8,0:0|0:2,0:0:0:0:
356,246,52953,2,0,B|269:254|269:254|196:303,1,165.000005035401,8|0,0:2|0:0,0:0:0:0:
124,274,54130,5,0,2:0:0:0:
97,195,54523,2,0,P|108:114|147:62,1,123.75000377655,8|0,0:2|0:0,0:0:0:0:
211,91,55504,2,0,P|243:108|349:106,1,123.75000377655,8|8,0:2|0:2,0:0:0:0:
393,61,56486,1,0,2:0:0:0:
438,129,56878,6,0,P|433:206|365:267,1,165.000005035401,0|8,0:0|0:2,0:0:0:0:
255,223,58252,2,0,L|270:133,1,82.5000025177003,0|8,0:0|0:2,0:0:0:0:
170,65,59234,2,0,P|132:90|89:102,1,82.5000025177003,8|0,0:2|2:0,0:0:0:0:
35,156,60019,6,0,P|25:250|96:309,1,165.000005035401,0|8,0:0|0:2,0:0:0:0:
189,274,61393,1,0,0:0:0:0:
233,204,61785,2,0,B|288:175|288:175|359:166,1,123.75000377655,8|8,0:2|0:2,0:0:0:0:
300,322,63159,6,0,P|201:298|164:246,1,165.000005035401,0|8,0:0|0:2,0:0:0:0:
104,142,64533,2,0,L|16:127,1,82.5000025177003,0|8,0:0|0:2,0:0:0:0:
105,35,65515,2,0,L|193:50,1,82.5000025177003,8|0,0:2|2:0,0:0:0:0:
253,97,66300,6,0,P|243:178|190:242,1,165.000005035401,0|8,0:0|0:2,0:0:0:0:
69,261,67674,1,0,0:0:0:0:
107,333,68066,1,8,0:2:0:0:
230,320,68655,2,0,P|275:273|391:246,1,165.000005035401,8|0,0:2|2:2,0:0:0:0:
419,317,72581,6,0,P|396:281|383:235,1,89.9999972534181,0|0,0:0|2:0,0:0:0:0:
409,149,73366,2,0,P|344:70|289:55,1,134.999995880127,8|0,0:2|0:0,0:0:0:0:
235,98,74347,2,0,B|185:144|185:144|119:164,1,134.999995880127,8|8,0:2|0:2,0:0:0:0:
57,226,75329,1,0,2:0:0:0:
80,312,75721,6,0,P|146:366|258:344,1,179.999994506836,0|8,0:0|0:2,0:0:0:0:
291,235,77095,2,0,P|305:187|339:145,1,89.9999972534181,0|8,0:0|0:2,0:0:0:0:
444,224,78077,2,0,P|458:269|460:315,1,89.9999972534181,8|0,0:2|2:0,0:0:0:0:
378,350,78862,6,0,B|299:312|299:312|206:320,1,179.999994506836,0|8,0:0|0:2,0:0:0:0:
80,272,80236,1,0,0:0:0:0:
38,192,80629,2,0,P|30:135|52:48,1,134.999995880127,8|8,0:2|0:2,0:0:0:0:
130,26,81610,1,0,2:0:0:0:
197,85,82003,6,0,P|306:84|356:26,1,179.999994506836,0|8,0:0|0:2,0:0:0:0:
446,132,83377,2,0,P|434:178|407:218,1,89.9999972534181,0|8,0:0|0:2,0:0:0:0:
277,232,84358,2,0,P|219:220|171:226,1,89.9999972534181,8|0,0:2|2:0,0:0:0:0:
136,295,85143,5,0,0:0:0:0:
198,360,85536,1,0,2:0:0:0:
285,339,85928,2,0,P|343:300|418:294,1,134.999995880127,8|0,0:2|0:0,0:0:0:0:
453,215,86910,2,0,P|405:169|335:151,1,134.999995880127,8|8,0:2|0:2,0:0:0:0:
253,175,87891,1,0,2:0:0:0:
169,141,88284,6,0,P|235:209|220:307,1,179.999994506836,0|8,0:0|0:2,0:0:0:0:
102,330,89658,1,0,0:0:0:0:
40,266,90050,2,0,P|47:173|78:125,1,134.999995880127,8|8,0:2|0:2,0:0:0:0:
147,98,91032,1,0,2:0:0:0:
219,150,91424,6,0,P|316:154|383:86,1,179.999994506836,0|8,0:0|0:2,0:0:0:0:
439,221,92798,1,0,0:0:0:0:
378,288,93191,2,0,P|315:313|241:307,1,134.999995880127,8|8,0:2|0:2,0:0:0:0:
185,245,94172,1,0,2:0:0:0:
168,156,94565,1,0,0:0:0:0:
412,69,97705,6,0,P|394:107|390:154,1,89.9999972534181,0|0,0:0|2:0,0:0:0:0:
431,234,98490,2,0,P|359:192|286:190,1,134.999995880127,8|0,0:2|0:0,0:0:0:0:
251,257,99472,2,0,P|210:318|141:340,1,134.999995880127,8|8,0:2|0:2,0:0:0:0:
66,318,100453,1,0,2:0:0:0:
31,234,100846,6,0,P|32:190|45:144,1,89.9999972534181,0|0,0:0|2:0,0:0:0:0:
121,99,101631,1,8,0:2:0:0:
208,120,102023,1,0,2:0:0:0:
289,80,102416,2,0,P|380:98|435:182,1,179.999994506836,0|8,2:0|0:2,0:0:0:0:
422,253,103594,1,0,2:0:0:0:
343,297,103986,6,0,P|288:291|246:272,1,89.9999972534181,0|0,0:0|2:0,0:0:0:0:
229,191,104771,2,0,P|285:142|356:119,1,134.999995880127,8|0,0:2|0:0,0:0:0:0:
410,179,105753,2,0,P|373:237|362:304,1,134.999995880127,8|8,0:2|0:2,0:0:0:0:
284,346,106734,1,0,2:0:0:0:
194,334,107127,6,0,P|157:317|122:283,1,89.9999972534181,0|0,0:0|2:0,0:0:0:0:
136,194,107912,2,0,P|165:127|158:67,1,134.999995880127,8|0,0:2|0:0,0:0:0:0:
73,34,108893,1,8,0:2:0:0:
32,162,109482,2,0,L|59:256,1,89.9999972534181,8|0,0:2|2:0,0:0:0:0:
140,282,110267,6,0,P|176:249|308:217,1,179.999994506836,0|8,0:0|0:2,0:0:0:0:
391,315,111641,1,0,0:0:0:0:
470,272,112034,2,0,P|499:205|491:146,1,134.999995880127,8|8,0:2|0:2,0:0:0:0:
415,95,113015,1,0,2:0:0:0:
358,165,113408,6,0,P|311:191|266:196,1,89.9999972534181,0|0,0:0|2:0,0:0:0:0:
197,151,114193,2,0,P|163:122|117:106,1,89.9999972534181,0|0,0:0|2:0,0:0:0:0:
44,155,114978,2,0,B|63:244|63:244|127:315,1,179.999994506836,0|8,0:0|0:2,0:0:0:0:
211,298,116156,1,0,2:0:0:0:
252,218,116548,6,0,P|310:160|404:145,1,179.999994506836,0|8,0:0|0:2,0:0:0:0:
324,35,117922,2,0,P|286:57|237:66,1,89.9999972534181,0|8,0:0|0:2,0:0:0:0:
114,19,118904,1,8,0:2:0:0:
164,320,122830,6,0,P|201:291|248:275,1,89.9999972534181,4|0,0:0|2:0,0:0:0:0:
328,297,123615,2,0,P|399:268|451:201,1,134.999995880127,8|0,0:2|0:0,0:0:0:0:
397,145,124596,2,0,L|244:118,1,134.999995880127,8|8,0:2|0:2,0:0:0:0:
177,144,125577,1,0,2:0:0:0:
135,223,125970,6,0,P|123:269|127:315,1,89.9999972534181,0|0,0:0|2:0,0:0:0:0:
207,350,126755,2,0,P|277:316|337:318,1,134.999995880127,8|0,0:2|0:0,0:0:0:0:
411,361,127737,1,8,0:2:0:0:
360,235,128325,2,0,P|353:191|360:142,1,89.9999972534181,8|0,0:2|2:0,0:0:0:0:
410,74,129111,6,2,P|480:146|488:229,1,179.999994506836,2|8,0:0|0:2,0:0:0:0:
414,271,130288,1,0,2:0:0:0:
323,267,130681,1,0,2:0:0:0:
252,210,131073,1,0,2:0:0:0:
237,121,131466,1,8,0:2:0:0:
268,36,131859,1,0,2:0:0:0:
348,76,132251,6,2,P|354:168|294:240,1,179.999994506836,2|8,0:0|0:2,0:0:0:0:
213,244,133429,1,0,2:0:0:0:
128,213,133821,1,0,2:0:0:0:
80,136,134214,1,0,2:0:0:0:
105,49,134607,1,8,0:2:0:0:
185,9,134999,1,0,2:0:0:0:
267,45,135392,6,0,P|305:130|386:158,1,179.999994506836,0|8,0:0|0:2,0:0:0:0:
454,211,136569,2,0,L|439:304,1,89.9999972534181,0|0,2:0|2:0,0:0:0:0:
358,339,137355,2,0,L|343:246,1,89.9999972534181,0|8,2:0|0:2,0:0:0:0:
266,204,138140,1,0,2:0:0:0:
230,286,138532,6,0,P|129:302|79:230,1,179.999994506836,0|8,0:0|0:2,0:0:0:0:
114,165,139710,2,0,P|106:117|86:82,1,89.9999972534181,0|0,2:0|2:0,0:0:0:0:
154,23,140495,2,0,P|203:33|239:55,1,89.9999972534181,0|8,2:0|0:2,0:0:0:0:
280,132,141280,1,0,2:0:0:0:
357,177,141673,6,0,P|436:133|439:27,1,179.999994506836,0|8,0:0|0:2,0:0:0:0:
364,18,142850,1,0,2:0:0:0:
284,59,143243,1,0,2:0:0:0:
279,148,143636,1,0,2:0:0:0:
207,203,144028,2,0,P|158:203|119:189,2,89.9999972534181,8|0|4,0:2|2:0|0:2,0:0:0:0:
256,192,145598,12,0,147954,0:0:0:0:
