osu file format v12

[General]
AudioFilename: WhoIsShe.mp3
AudioLeadIn: 0
PreviewTime: 19977
Countdown: 0
SampleSet: Normal
StackLeniency: 0.7
Mode: 0
LetterboxInBreaks: 0

[Editor]
DistanceSpacing: 1
BeatDivisor: 4
GridSize: 4

[Metadata]
Title:Who Is She?
TitleUnicode:Who Is She?
Artist:I Monster
ArtistUnicode:I Monster
Creator:grumd
Version:Hard
Source:
Tags:
BeatmapID:257745
BeatmapSetID:96080

[Difficulty]
HPDrainRate:6
CircleSize:5
OverallDifficulty:7
ApproachRate:7
SliderMultiplier:1.6
SliderTickRate:1

[Events]
//Background and Video events
0,0,"275385-1366x768.jpg",0,0
//Break Periods
2,44316,46557
2,70225,71681
2,95350,96805
2,119889,121930
//Storyboard Layer 0 (Background)
//Storyboard Layer 1 (Fail)
//Storyboard Layer 2 (Pass)
//Storyboard Layer 3 (Foreground)
//Storyboard Sound Samples
//Background Colour Transformations
3,100,163,162,255

[TimingPoints]
349,785.134781470819,4,1,1,40,1,0
47457,-86.9565217391304,4,1,1,40,0,0
69440,-86.9565217391304,4,1,1,20,0,0
72581,-76.9230769230769,4,1,1,50,0,0
94565,-76.9230769230769,4,1,1,30,0,0
97705,-76.9230769230769,4,1,1,50,0,0
119689,-76.9230769230769,4,1,1,30,0,0
122830,-71.4285714285714,4,1,1,70,0,1
144813,-71.4285714285714,4,1,1,70,0,0
145402,-71.4285714285714,4,2,0,30,0,0

[Colours]
Combo1 : 167,139,97
Combo2 : 123,85,79
Combo3 : 181,125,64
Combo4 : 202,116,98

[HitObjects]
60,204,22332,2,0,P|135:200|202:141,1,160,0|8,0:0|0:2,0:0:0:0:
312,109,23706,2,0,P|328:152|330:192,1,80,0|8,0:0|0:2,0:0:0:0:
296,301,24688,1,8,0:2:0:0:
447,250,25473,6,0,P|417:220|387:104,1,160,0|8,0:0|0:2,0:0:0:0:
275,64,26847,1,0,0:0:0:0:
201,95,27239,2,0,P|131:89|86:63,1,120,8|8,0:2|0:2,0:0:0:0:
49,135,28221,1,0,2:0:0:0:
91,202,28613,6,0,P|159:226|197:336,1,160,0|8,0:0|0:2,0:0:0:0:
314,333,29987,2,0,P|336:296|341:255,1,80,0|8,0:0|0:2,0:0:0:0:
269,163,30969,2,0,P|277:91|359:44,1,160,8|0,0:2|0:0,0:0:0:0:
192,91,32539,6,0,P|151:81|87:28,1,120,8|0,0:2|0:0,0:0:0:0:
22,74,33520,2,0,P|23:139|45:192,1,120,8|8,0:2|0:2,0:0:0:0:
113,227,34502,1,0,2:0:0:0:
189,202,34894,6,0,P|237:144|347:135,1,160,0|8,0:0|0:2,0:0:0:0:
383,226,36268,2,0,P|364:268|361:317,1,80,0|8,0:0|0:2,0:0:0:0:
247,338,37250,2,0,P|229:328|207:321,3,40,8|0|0|0,0:2|2:0|2:0|2:0,0:0:0:0:
171,331,38035,6,0,P|98:336|41:262,1,160,0|8,0:0|0:2,0:0:0:0:
120,183,39409,2,0,P|155:159|180:124,1,80,0|8,0:0|0:2,0:0:0:0:
289,85,40390,2,0,P|331:86|369:98,1,80,8|0,0:2|2:0,0:0:0:0:
412,162,41176,6,0,P|381:248|309:264,1,160,0|8,0:0|0:2,0:0:0:0:
210,220,42549,1,0,0:0:0:0:
133,197,42942,2,0,P|62:213|17:252,1,120,8|8,0:2|0:2,0:0:0:0:
459,146,47457,6,0,P|418:170|374:176,1,92.0000017547608,0|0,0:0|2:0,0:0:0:0:
320,101,48242,2,0,P|270:73|226:68,1,92.0000017547608,8|0,0:2|2:0,0:0:0:0:
199,74,48831,1,0,0:0:0:0:
137,142,49223,2,0,L|90:131,1,46.0000008773804,8|0,0:2|2:0,0:0:0:0:
192,211,49812,2,0,P|302:212|342:279,1,184.000003509522,8|0,0:2|0:0,0:0:0:0:
349,357,50990,5,0,2:0:0:0:
436,328,51382,2,0,P|451:291|449:238,1,92.0000017547608,8|0,0:2|2:0,0:0:0:0:
434,205,51971,1,0,0:0:0:0:
410,176,52167,1,0,2:0:0:0:
376,159,52364,2,0,P|319:212|249:224,1,138.000002632141,8|8,0:2|0:2,0:0:0:0:
233,201,53149,2,0,P|197:169|152:153,1,92.0000017547608,0|0,2:0|2:0,0:0:0:0:
126,175,53738,6,0,P|94:258|-20:264,1,184.000003509522,0|8,0:0|0:2,0:0:0:0:
37,190,54915,1,0,2:0:0:0:
49,155,55112,2,0,P|45:108|23:65,1,92.0000017547608,0|8,0:0|0:2,0:0:0:0:
163,67,56093,2,0,P|245:78|334:18,1,184.000003509522,8|0,0:2|0:0,0:0:0:0:
417,47,57271,5,0,2:0:0:0:
468,123,57663,2,0,P|480:168|478:217,1,92.0000017547608,8|0,0:2|2:0,0:0:0:0:
451,238,58252,2,0,P|428:275|420:326,1,92.0000017547608,0|8,0:0|0:2,0:0:0:0:
431,357,58841,1,0,2:0:0:0:
327,278,59234,2,0,P|289:306|245:318,1,92.0000017547608,8|0,0:2|2:0,0:0:0:0:
208,223,60019,6,0,P|210:298|118:353,1,184.000003509522,0|8,0:0|0:2,0:0:0:0:
35,248,61393,2,0,P|47:203|74:164,1,92.0000017547608,0|8,0:0|0:2,0:0:0:0:
103,145,61982,2,0,P|148:140|193:118,1,92.0000017547608,0|8,2:0|0:2,0:0:0:0:
234,39,62767,1,0,2:0:0:0:
322,64,63159,6,0,P|389:130|380:234,1,184.000003509522,0|8,0:0|0:2,0:0:0:0:
302,245,64337,1,0,2:0:0:0:
278,216,64533,2,0,P|235:194|187:188,1,92.0000017547608,0|8,0:0|0:2,0:0:0:0:
159,204,65122,2,0,P|121:228|72:235,1,92.0000017547608,0|8,2:0|0:2,0:0:0:0:
15,165,65907,1,0,2:0:0:0:
81,101,66300,6,0,P|186:118|228:190,1,184.000003509522,0|8,0:0|0:2,0:0:0:0:
177,256,67478,2,0,L|128:272,1,46.0000008773804,0|0,2:0|0:0,0:0:0:0:
256,306,68066,2,0,L|305:322,1,46.0000008773804,8|0,0:2|2:0,0:0:0:0:
364,254,68655,2,0,P|374:192|477:122,1,184.000003509522,8|0,0:2|2:2,0:0:0:0:
377,72,72581,6,0,P|364:110|351:130,1,51.999997619629,0|0,0:0|2:0,0:0:0:0:
271,103,72973,2,0,P|276:134|274:166,1,51.999997619629,0|0,2:0|2:0,0:0:0:0:
207,205,73366,2,0,P|166:172|39:169,1,155.999992858887,8|0,0:2|0:0,0:0:0:0:
27,232,74151,2,0,P|31:254|30:286,2,51.999997619629,0|8|0,0:0|0:2|2:0,0:0:0:0:
102,81,74936,2,0,P|154:59|210:58,1,103.999995239258,8|0,0:2|2:0,0:0:0:0:
260,113,75525,2,0,P|276:129|307:147,1,51.999997619629,0|0,2:0|0:0,0:0:0:0:
469,96,76114,5,0,2:0:0:0:
414,220,76507,1,8,0:2:0:0:
459,317,76899,2,0,P|483:322|510:335,1,51.999997619629,0|0,2:0|0:0,0:0:0:0:
378,340,77292,2,0,P|398:362|410:382,1,51.999997619629,0|8,0:0|0:2,0:0:0:0:
299,325,77684,1,0,0:0:0:0:
329,150,78077,1,8,0:2:0:0:
191,243,78469,1,0,2:0:0:0:
212,138,78862,6,0,P|181:58|96:34,1,155.999992858887,0|0,0:0|2:0,0:0:0:0:
48,46,79647,1,8,0:2:0:0:
9,107,79843,1,0,2:0:0:0:
75,288,80236,1,0,0:0:0:0:
146,253,80432,2,0,P|156:231|161:202,1,51.999997619629,0|8,0:0|0:2,0:0:0:0:
199,309,80825,2,0,P|263:353|321:358,1,103.999995239258,0|8,0:0|0:2,0:0:0:0:
416,230,81610,2,0,P|419:256|428:285,1,51.999997619629,0|0,2:0|2:0,0:0:0:0:
450,165,82003,6,0,P|469:115|469:55,1,103.999995239258,0|0,0:0|2:0,0:0:0:0:
329,74,82788,2,0,P|239:79|179:29,1,155.999992858887,8|0,0:2|0:0,0:0:0:0:
114,31,83573,2,0,P|101:56|94:85,1,51.999997619629,0|8,0:0|0:2,0:0:0:0:
122,147,83965,1,0,0:0:0:0:
325,182,84358,2,0,P|352:178|377:169,1,51.999997619629,8|0,0:2|2:0,0:0:0:0:
321,256,84750,2,0,P|348:273|366:279,1,51.999997619629,0|0,2:0|2:0,0:0:0:0:
274,317,85143,6,0,P|199:309|120:342,1,155.999992858887,0|0,0:0|2:0,0:0:0:0:
54,315,85928,2,0,P|30:259|28:209,1,103.999995239258,8|0,0:2|2:0,0:0:0:0:
77,156,86517,2,0,P|106:160|129:169,1,51.999997619629,0|0,0:0|2:0,0:0:0:0:
39,93,86910,1,8,0:2:0:0:
67,26,87106,1,0,2:0:0:0:
301,62,87498,2,0,P|270:114|265:186,1,103.999995239258,8|0,0:2|2:0,0:0:0:0:
308,217,88087,2,0,P|317:242|320:270,1,51.999997619629,0|0,2:0|0:0,0:0:0:0:
145,319,88676,5,0,2:0:0:0:
299,360,89069,1,8,0:2:0:0:
448,298,89461,1,0,2:0:0:0:
462,220,89658,2,0,P|455:189|444:166,1,51.999997619629,0|0,0:0|2:0,0:0:0:0:
368,137,90050,2,0,P|359:160|354:190,1,51.999997619629,8|0,0:2|2:0,0:0:0:0:
134,342,90639,2,0,P|96:298|105:193,1,155.999992858887,8|0,0:2|2:0,0:0:0:0:
161,156,91424,6,0,P|183:153|211:142,1,51.999997619629,0|0,0:0|2:0,0:0:0:0:
246,73,91817,1,0,2:0:0:0:
442,50,92209,2,0,P|425:102|432:178,1,103.999995239258,8|0,0:2|2:0,0:0:0:0:
454,218,92798,2,0,P|446:246|429:273,1,51.999997619629,0|0,0:0|2:0,0:0:0:0:
340,245,93191,2,0,P|353:276|357:309,1,51.999997619629,8|0,0:2|2:0,0:0:0:0:
82,338,93780,2,0,P|152:284|233:282,1,155.999992858887,8|0,0:2|2:0,0:0:0:0:
283,312,94565,1,0,0:0:0:0:
309,286,97705,6,0,P|361:284|412:302,1,103.999995239258,0|0,0:0|2:0,0:0:0:0:
463,178,98490,2,0,P|397:130|366:53,1,155.999992858887,8|0,0:2|0:0,0:0:0:0:
295,38,99275,2,0,P|281:60|273:88,1,51.999997619629,0|8,2:0|0:2,0:0:0:0:
289,160,99668,2,0,P|326:201|341:273,1,103.999995239258,0|8,2:0|0:2,0:0:0:0:
223,338,100453,1,0,2:0:0:0:
101,269,100846,6,0,P|150:202|146:118,1,155.999992858887,0|0,0:0|2:0,0:0:0:0:
87,89,101631,2,0,P|161:100|232:66,1,155.999992858887,8|0,0:2|0:0,0:0:0:0:
308,60,102416,2,0,P|328:84|340:107,1,51.999997619629,0|8,0:0|0:2,0:0:0:0:
250,193,102809,2,0,P|256:166|270:140,1,51.999997619629,0|0,0:0|2:0,0:0:0:0:
303,258,103201,1,8,0:2:0:0:
139,289,103594,1,0,2:0:0:0:
298,347,103986,6,0,P|393:304|421:254,1,155.999992858887,0|0,0:0|2:0,0:0:0:0:
382,193,104771,2,0,P|361:150|359:91,1,103.999995239258,8|0,0:2|2:0,0:0:0:0:
417,43,105360,2,0,P|440:33|466:15,1,51.999997619629,0|0,0:0|2:0,0:0:0:0:
341,22,105753,1,8,0:2:0:0:
270,41,105949,1,0,2:0:0:0:
100,158,106342,2,0,P|98:210|65:256,1,103.999995239258,8|0,0:2|2:0,0:0:0:0:
23,316,106931,1,0,2:0:0:0:
94,351,107127,6,0,P|175:340|250:273,1,155.999992858887,0|0,0:0|2:0,0:0:0:0:
259,221,107912,1,8,0:2:0:0:
444,257,108305,2,0,P|439:287|428:310,1,51.999997619629,0|0,2:0|0:0,0:0:0:0:
354,250,108697,2,0,P|348:222|336:197,1,51.999997619629,0|8,0:0|0:2,0:0:0:0:
275,267,109090,2,0,P|229:303|156:308,1,103.999995239258,0|8,2:0|0:2,0:0:0:0:
72,228,109875,2,0,P|63:199|48:177,1,51.999997619629,0|0,2:0|2:0,0:0:0:0:
135,157,110267,6,0,P|168:103|245:54,1,155.999992858887,0|0,0:0|2:0,0:0:0:0:
308,107,111053,2,0,P|357:123|415:116,1,103.999995239258,8|0,0:2|2:0,0:0:0:0:
456,57,111641,2,0,P|463:34|479:9,1,51.999997619629,0|0,0:0|2:0,0:0:0:0:
482,128,112034,1,8,0:2:0:0:
464,198,112230,1,0,2:0:0:0:
252,173,112623,2,0,P|321:232|325:305,1,155.999992858887,8|0,0:2|2:0,0:0:0:0:
275,348,113408,5,0,0:0:0:0:
72,278,113800,2,0,P|96:277|126:268,1,51.999997619629,0|0,2:0|2:0,0:0:0:0:
170,198,114193,2,0,P|217:220|279:221,1,103.999995239258,8|0,0:2|2:0,0:0:0:0:
323,163,114782,2,0,P|336:143|357:124,2,51.999997619629,0|0|8,0:0|2:0|0:2,0:0:0:0:
340,240,115371,2,0,P|381:272|413:324,1,103.999995239258,0|8,2:0|0:2,0:0:0:0:
176,309,116156,2,0,P|152:317|125:318,1,51.999997619629,0|0,2:0|2:0,0:0:0:0:
232,260,116548,6,0,P|266:197|348:150,1,155.999992858887,0|0,0:0|2:0,0:0:0:0:
409,172,117334,1,8,0:2:0:0:
332,35,117726,2,0,P|304:43|277:44,1,51.999997619629,0|0,2:0|0:0,0:0:0:0:
174,71,118119,2,0,P|196:84|217:105,1,51.999997619629,0|8,2:0|0:2,0:0:0:0:
103,34,118511,1,0,2:0:0:0:
30,170,118904,2,0,P|13:241|35:315,1,103.999995239258,8|0,0:2|2:0,0:0:0:0:
76,322,119493,1,0,2:0:0:0:
152,310,119689,1,0,2:0:0:0:
55,81,122830,6,0,P|107:56|162:55,1,111.999996582031,4|0,0:0|2:0,0:0:0:0:
259,154,123615,2,0,P|204:204|181:305,1,167.999994873047,8|0,0:2|0:0,0:0:0:0:
248,339,124400,2,0,P|269:319|284:293,1,55.9999982910157,0|8,2:0|0:2,0:0:0:0:
372,247,124792,2,0,P|370:280|376:312,1,55.9999982910157,0|0,2:0|2:0,0:0:0:0:
441,209,125185,2,0,P|470:164|475:105,1,111.999996582031,8|0,0:2|2:0,0:0:0:0:
347,91,125970,6,0,P|254:98|176:59,1,167.999994873047,0|0,0:0|2:0,0:0:0:0:
112,74,126755,2,0,P|106:101|106:129,1,55.9999982910157,8|0,0:2|2:0,0:0:0:0:
220,205,127148,2,0,P|197:185|167:172,1,55.9999982910157,0|0,2:0|0:0,0:0:0:0:
104,277,127540,1,0,2:0:0:0:
170,314,127737,1,8,0:2:0:0:
242,300,127933,1,0,2:0:0:0:
381,232,128325,2,0,P|381:171|415:112,1,111.999996582031,8|0,0:2|2:0,0:0:0:0:
397,319,129111,6,2,P|255:310|229:237,1,223.999993164063,2|0,0:0|0:0,0:0:0:0:
238,176,130092,1,0,2:0:0:0:
286,116,130288,2,0,P|305:97|333:81,1,55.9999982910157,0|0,2:0|0:0,0:0:0:0:
208,84,130681,2,0,P|219:59|238:34,1,55.9999982910157,0|8,2:0|0:2,0:0:0:0:
120,77,131073,2,0,P|121:51|129:21,1,55.9999982910157,0|0,2:0|2:0,0:0:0:0:
42,98,131466,2,0,P|49:205|116:258,1,167.999994873047,8|0,0:2|2:0,0:0:0:0:
168,223,132251,6,2,P|234:155|360:156,1,223.999993164063,2|0,0:0|0:0,0:0:0:0:
412,209,133233,1,0,2:0:0:0:
448,278,133429,2,0,P|455:306|456:332,1,55.9999982910157,0|0,2:0|0:0,0:0:0:0:
340,291,133821,2,0,P|357:313|368:338,1,55.9999982910157,0|8,2:0|0:2,0:0:0:0:
246,338,134214,2,0,P|270:352|289:371,1,55.9999982910157,0|0,2:0|2:0,0:0:0:0:
151,334,134607,2,0,P|155:280|132:225,1,111.999996582031,8|0,0:2|0:0,0:0:0:0:
35,138,135392,6,0,P|150:103|174:59,1,167.999994873047,0|0,0:0|0:0,0:0:0:0:
243,36,136177,2,2,P|258:58|271:89,1,55.9999982910157,8|0,0:2|2:0,0:0:0:0:
319,197,136569,1,0,2:0:0:0:
336,125,136766,1,0,0:0:0:0:
387,73,136962,1,0,0:0:0:0:
457,101,137158,2,0,P|492:103|521:97,2,55.9999982910157,8|0|0,0:2|2:0|2:0,0:0:0:0:
420,177,137747,2,0,P|375:227|362:282,1,111.999996582031,8|0,0:2|0:0,0:0:0:0:
177,351,138532,6,0,P|234:295|241:171,1,167.999994873047,0|0,0:0|0:0,0:0:0:0:
201,156,139317,2,0,P|177:151|148:137,1,55.9999982910157,8|0,0:2|2:0,0:0:0:0:
56,78,139710,2,0,P|79:66|110:60,1,55.9999982910157,0|0,2:0|0:0,0:0:0:0:
221,79,140102,1,0,2:0:0:0:
285,112,140299,1,8,0:2:0:0:
357,117,140495,2,0,P|382:128|406:150,1,55.9999982910157,0|0,2:0|2:0,0:0:0:0:
502,22,140888,2,0,P|439:49|393:47,1,111.999996582031,8|0,0:2|0:0,0:0:0:0:
361,165,141673,6,0,P|357:259|437:320,1,167.999994873047,0|0,0:0|0:0,0:0:0:0:
479,274,142458,2,0,P|484:249|485:218,1,55.9999982910157,8|0,0:2|0:2,0:0:0:0:
381,294,142850,2,0,P|372:323|371:350,1,55.9999982910157,0|0,2:0|0:0,0:0:0:0:
283,265,143243,2,0,P|272:236|254:212,1,55.9999982910157,0|8,2:0|0:2,0:0:0:0:
182,209,143636,2,0,P|142:251|68:264,1,111.999996582031,0|0,2:0|0:0,0:0:0:0:
23,241,144224,1,0,0:0:0:0:
3,171,144421,2,0,P|6:143|16:116,2,55.9999982910157,0|0|4,2:0|0:0|0:2,0:0:0:0:
256,192,145598,12,0,147954,0:0:0:0:
