osu file format v14

[General]
AudioFilename: Troublemaker.mp3
AudioLeadIn: 0
PreviewTime: 534
Countdown: 1
SampleSet: Soft
StackLeniency: 0.7
Mode: 0
LetterboxInBreaks: 1
WidescreenStoryboard: 0

[Editor]
Bookmarks: 7913,19365,20332
DistanceSpacing: 2
BeatDivisor: 4
GridSize: 4
TimelineZoom: 2.5

[Metadata]
Title:Troublemaker
TitleUnicode:とらぶるめーかー
Artist:I MY ME MINE
ArtistUnicode:あいまいみーまいん
Creator:Soldsaga KunG
Version:Insane
Source:Himegoto
Tags:opening traps Mutsuki Shuhei Genki Mizuno ひめゴト BoatKrab Betsuto [_Lost_] Boathappy555
BeatmapID:513733
BeatmapSetID:219330

[Difficulty]
HPDrainRate:7
CircleSize:4
OverallDifficulty:8
ApproachRate:9
SliderMultiplier:1.8
SliderTickRate:1

[Events]
//Background and Video events
0,0,"BG.jpg",0,0
//Break Periods
//Storyboard Layer 0 (Background)
//Storyboard Layer 1 (Fail)
//Storyboard Layer 2 (Pass)
//Storyboard Layer 3 (Foreground)
//Storyboard Sound Samples

[TimingPoints]
333,322.58064516129,4,1,2,30,1,0
655,-125,4,2,2,30,0,0
978,-111.111111111111,4,2,2,40,0,0
1300,-100,4,2,2,50,0,0
1623,-100,4,2,2,60,0,1
1703,-100,4,2,2,60,0,0
10978,-100,4,2,2,50,0,0
11300,-100,4,2,2,40,0,0
11623,-100,4,2,2,50,0,0
11945,-100,4,2,2,60,0,1
12026,-100,4,2,2,60,0,0
21462,-100,4,2,2,54,0,0
22268,-100,4,2,2,45,0,0
22913,-100,4,2,2,50,0,0
23558,322.58064516129,3,2,2,60,1,0
23558,-100,3,2,2,50,0,0
27428,-200,3,2,2,40,0,0
28074,-133.333333333333,3,2,2,40,0,0
28396,-100,3,2,2,40,0,0
28719,-200,3,2,2,40,0,0
30574,-200,3,2,2,5,0,0

[Colours]
Combo1 : 207,168,133
Combo2 : 0,128,192
Combo3 : 237,190,82
Combo4 : 254,166,129

[HitObjects]
88,272,655,6,0,L|172:244,1,72,2|0,0:0|0:0,0:0:0:0:
168,252,978,6,0,L|260:220,1,80.9999975280763,2|0,0:0|0:0,0:0:0:0:
256,228,1300,6,0,L|360:192,1,90,2|0,0:0|0:0,0:0:0:0:
428,92,1623,6,0,L|436:224,1,90,4|0,1:0|0:0,0:0:0:0:
360,296,1945,1,8,0:1:0:0:
248,220,2107,1,8,0:0:0:0:
248,220,2187,1,0,1:0:0:0:
248,220,2268,1,10,0:0:0:0:
240,88,2429,2,0,P|172:100|148:152,1,90,8|8,0:0|0:1,0:0:0:0:
72,220,2752,5,10,0:0:0:0:
72,220,2832,1,8,0:0:0:0:
72,220,2913,2,0,P|96:284|116:320,1,90,10|10,0:0|0:0,0:0:0:0:
440,164,3236,2,0,P|416:100|396:64,1,90,8|2,0:1|0:0,0:0:0:0:
284,376,3558,2,0,P|348:352|384:332,1,90,8|10,0:0|0:0,0:0:0:0:
320,232,3881,2,0,P|256:256|220:276,1,90,8|0,0:1|0:0,0:0:0:0:
160,176,4203,5,10,0:0:0:0:
160,176,4365,1,0,0:0:0:0:
284,124,4526,2,8,L|384:76,1,90,8|0,0:1|0:0,0:0:0:0:
448,180,4849,2,0,B|424:228|424:228|352:260,1,90,10|8,0:0|0:0,0:0:0:0:
264,228,5171,2,0,B|288:180|288:180|360:148,1,90,8|8,0:1|0:0,0:0:0:0:
325,163,5413,5,0,1:0:0:0:
325,163,5494,1,10,0:0:0:0:
384,56,5655,2,0,L|280:56,1,90,10|8,0:0|0:1,0:0:0:0:
196,136,5978,2,0,L|320:136,1,90,2|8,0:0|0:0,0:0:0:0:
406,179,6300,1,10,0:0:0:0:
421,208,6381,1,0,0:0:0:0:
422,241,6462,1,8,0:1:0:0:
396,300,6623,2,0,L|363:336,1,45,0|0,1:0|1:0,0:0:0:0:
337,354,6784,6,0,L|225:349,1,90,4|0,1:0|0:0,0:0:0:0:
172,232,7107,2,0,L|167:344,1,90,8|0,0:1|0:0,0:0:0:0:
248,156,7429,2,0,L|136:151,1,90,10|2,0:0|0:0,0:0:0:0:
48,68,7752,1,8,0:1:0:0:
176,28,7913,5,10,0:0:0:0:
176,28,7994,1,10,0:0:0:0:
176,28,8074,2,0,L|288:33,1,90,8|10,0:0|0:0,0:0:0:0:
388,96,8397,2,0,P|428:128|424:184,1,90,8|2,0:1|0:0,0:0:0:0:
356,280,8720,2,0,P|316:248|320:192,1,90,8|10,0:0|0:0,0:0:0:0:
396,104,9042,6,8,L|256:104,1,135,8|0,0:1|0:0,0:0:0:0:
180,44,9365,1,12,0:0:0:0:
184,52,9526,1,8,0:1:0:0:
188,60,9687,5,8,0:1:0:0:
304,160,9849,1,12,0:0:0:0:
300,168,10010,1,8,0:0:0:0:
296,176,10171,5,8,0:0:0:0:
360,276,10332,1,8,0:1:0:0:
356,284,10494,2,8,P|280:312|180:272,1,180,12|8,0:0|0:0,0:0:0:0:
88,200,10978,6,2,P|128:172|100:100,1,135,8|0,0:1|0:0,0:0:0:0:
92,64,11300,5,0,1:0:0:0:
152,68,11381,1,0,1:0:0:0:
208,76,11462,1,0,1:0:0:0:
264,84,11542,1,0,1:0:0:0:
324,88,11623,2,0,L|356:64,7,22.5,8|0|0|0|0|0|0|0,0:1|0:0|0:0|0:0|0:0|0:0|0:0|0:0,0:0:0:0:
372,172,11945,6,0,P|416:192|448:244,1,90,4|2,1:0|0:0,0:0:0:0:
420,340,12268,2,0,P|376:320|344:268,1,90,8|2,0:1|0:0,0:0:0:0:
264,208,12591,2,0,L|132:208,1,90,8|10,0:0|0:0,0:0:0:0:
132,120,12913,5,8,0:1:0:0:
64,212,13074,1,8,0:0:0:0:
64,212,13155,1,0,1:0:0:0:
64,212,13236,1,10,0:0:0:0:
144,292,13397,2,0,L|244:292,1,90,10|8,0:0|0:1,0:0:0:0:
308,200,13720,1,10,0:0:0:0:
308,200,13800,1,8,0:0:0:0:
308,200,13881,1,8,0:0:0:0:
224,120,14042,2,0,L|96:120,1,90,10|8,0:0|0:1,0:0:0:0:
64,212,14365,6,0,L|80:328,2,90,0|10|0,0:0|0:0|0:0,0:0:0:0:
124,116,14849,1,8,0:1:0:0:
236,108,15010,1,8,0:0:0:0:
236,108,15091,1,0,1:0:0:0:
236,108,15171,2,0,B|288:88|288:88|356:116,1,90,10|8,0:0|0:0,0:0:0:0:
428,152,15494,2,0,B|448:204|448:204|420:272,1,90,8|10,0:1|0:0,0:0:0:0:
332,292,15816,6,0,B|312:244|312:244|340:172,1,90,10|10,0:0|0:0,0:0:0:0:
208,144,16139,2,0,B|228:196|228:196|200:264,1,90,8|2,0:1|0:0,0:0:0:0:
148,316,16462,2,0,L|40:320,2,90,8|10|8,0:0|0:0|0:1,0:0:0:0:
176,320,16865,1,0,1:0:0:0:
204,319,16945,1,0,1:0:0:0:
231,311,17026,1,0,1:0:0:0:
257,300,17107,5,4,1:0:0:0:
356,212,17268,1,0,0:0:0:0:
356,212,17349,1,0,0:0:0:0:
356,212,17429,2,0,P|380:164|352:112,1,90,8|0,1:1|0:0,0:0:0:0:
156,172,17752,2,0,P|136:216|160:272,1,90,10|0,0:0|0:0,0:0:0:0:
316,336,18074,2,0,L|192:344,1,90,10|0,0:1|0:0,0:0:0:0:
196,48,18397,2,0,L|316:40,1,90,10|8,0:0|0:0,0:0:0:0:
465,20,18720,5,10,0:1:0:0:
408,84,18881,1,10,0:0:0:0:
408,84,18962,1,0,1:0:0:0:
408,84,19042,2,0,L|424:184,1,90,8|8,0:0|0:0,0:0:0:0:
300,160,19365,2,0,L|316:260,1,90,10|0,0:1|0:0,0:0:0:0:
192,320,19687,5,12,0:0:0:0:
64,288,19849,1,0,0:0:0:0:
96,160,20010,1,8,0:1:0:0:
224,192,20171,1,0,0:0:0:0:
145,333,20332,5,12,0:0:0:0:
50,241,20494,1,8,0:0:0:0:
142,146,20655,1,8,0:1:0:0:
237,238,20816,1,0,0:0:0:0:
98,321,20978,5,12,0:0:0:0:
62,194,21139,1,8,0:0:0:0:
189,158,21300,1,8,0:1:0:0:
225,285,21462,1,8,0:0:0:0:
252,288,21542,1,8,0:0:0:0:
280,292,21623,5,0,1:0:0:0:
308,300,21703,1,0,1:0:0:0:
336,304,21784,1,0,1:0:0:0:
364,308,21865,1,0,1:0:0:0:
392,304,21945,5,0,1:0:0:0:
420,300,22026,1,0,1:0:0:0:
448,296,22107,1,0,1:0:0:0:
476,288,22187,1,0,1:0:0:0:
504,280,22268,5,4,0:0:0:0:
504,280,22591,1,4,0:0:0:0:
476,180,22752,2,0,L|500:136,2,45,8|8|0,0:0|0:0|1:0,0:0:0:0:
372,180,23074,2,0,L|344:128,2,45,8|8|0,0:0|0:0|1:0,0:0:0:0:
216,40,23558,6,0,P|116:64|128:160,2,180,4|8|8,1:0|1:0|1:0,0:0:0:0:
208,136,24364,1,8,0:0:0:0:
208,136,24445,1,0,0:0:0:0:
208,136,24525,2,0,P|184:192|212:244,1,90,8|8,1:0|0:0,0:0:0:0:
308,292,24848,6,0,P|332:236|304:184,1,90,8|10,1:0|0:0,0:0:0:0:
224,296,25170,2,0,L|124:272,1,90,8|8,1:0|0:0,0:0:0:0:
288,88,25493,2,0,L|388:112,1,90,8|10,1:0|0:0,0:0:0:0:
444,196,25816,1,8,1:0:0:0:
504,96,25977,1,10,0:0:0:0:
444,196,26138,6,0,L|456:324,2,90,12|8|8,1:0|0:0|1:0,0:0:0:0:
348,316,26622,1,8,0:0:0:0:
348,316,26703,1,8,0:0:0:0:
348,316,26783,6,0,L|336:188,1,90,8|10,1:0|0:2,0:0:0:0:
192,264,27106,2,0,L|180:136,1,90,8|10,1:0|0:2,0:0:0:0:
264,216,27428,6,0,L|244:24,1,180,4|0,1:2|0:0,0:0:0:0:
158,141,28235,1,0,0:0:0:0:
344,91,28396,1,2,0:3:0:0:
256,192,28719,12,0,30574,0:0:0:0:
