osu file format v14

[General]
AudioFilename: Troublemaker.mp3
AudioLeadIn: 0
PreviewTime: 534
Countdown: 1
SampleSet: Soft
StackLeniency: 0.7
Mode: 0
LetterboxInBreaks: 1
WidescreenStoryboard: 1

[Editor]
DistanceSpacing: 1
BeatDivisor: 4
GridSize: 4
TimelineZoom: 3.199999

[Metadata]
Title:Troublemaker
TitleUnicode:とらぶるめーかー
Artist:I MY ME MINE
ArtistUnicode:あいまいみーまいん
Creator:Soldsaga KunG
Version:Hard
Source:Himegoto
Tags:opening traps Mutsuki Shuhei Genki Mizuno ひめゴト BoatKrab Betsuto [_Lost_] Boathappy555
BeatmapID:513732
BeatmapSetID:219330

[Difficulty]
HPDrainRate:6
CircleSize:4
OverallDifficulty:7
ApproachRate:7
SliderMultiplier:1.2
SliderTickRate:1

[Events]
//Background and Video events
0,0,"BG.jpg",0,0
//Break Periods
//Storyboard Layer 0 (Background)
//Storyboard Layer 1 (Fail)
//Storyboard Layer 2 (Pass)
//Storyboard Layer 3 (Foreground)
//Storyboard Sound Samples

[TimingPoints]
333,322.58064516129,4,1,2,30,1,0
655,-100,4,2,2,30,0,0
978,-100,4,2,2,40,0,0
1300,-100,4,2,2,50,0,0
1623,-100,4,2,2,60,0,1
1703,-100,4,2,2,60,0,0
10978,-100,4,2,2,50,0,0
11300,-100,4,2,2,40,0,0
11623,-100,4,2,2,50,0,0
11945,-100,4,2,2,60,0,1
12026,-100,4,2,2,60,0,0
21462,-100,4,2,2,54,0,0
21945,-100,4,2,2,45,0,0
22268,-100,4,2,2,35,0,0
22913,-100,4,2,2,50,0,0
23558,322.58064516129,3,2,2,60,1,0
23558,-100,3,2,2,60,0,0
27428,-200,3,2,2,40,0,0
28074,-100,3,2,2,40,0,0
28396,-100,3,2,2,40,0,0
28719,-100,3,2,2,40,0,0
30574,-100,3,2,2,5,0,0

[Colours]
Combo1 : 207,168,133
Combo2 : 0,128,192
Combo3 : 237,190,82
Combo4 : 254,166,129

[HitObjects]
132,112,655,6,0,L|152:248,2,120,2|2|2,0:0|0:0|0:0,0:0:0:0:
132,112,1623,5,6,1:0:0:0:
212,72,1784,1,0,0:0:0:0:
280,132,1945,1,8,0:1:0:0:
280,132,2268,2,0,P|344:156|416:144,1,120,10|8,0:0|0:1,0:0:0:0:
484,132,2752,2,0,L|488:280,1,120,10|10,0:0|0:0,0:0:0:0:
388,304,3236,6,0,L|316:344,1,60,8|2,0:1|0:0,0:0:0:0:
228,280,3558,2,0,L|300:240,1,60,8|10,0:0|0:0,0:0:0:0:
352,204,3881,1,8,0:1:0:0:
352,204,4042,1,8,0:0:0:0:
404,96,4203,6,0,P|300:68|288:68,1,120,10|8,0:0|0:1,0:0:0:0:
260,308,4849,2,0,P|364:336|376:336,1,120,10|8,0:0|0:1,0:0:0:0:
420,376,5332,2,0,L|420:240,1,120,8|10,0:0|0:0,0:0:0:0:
372,180,5816,2,0,L|248:176,2,120,0|0|0,0:0|0:0|0:1,0:0:0:0:
456,148,6623,2,0,L|456:108,2,30,0|0|4,1:0|0:0|1:0,0:0:0:0:
456,236,6945,5,0,0:0:0:0:
376,276,7107,2,0,P|320:304|240:300,1,120,8|10,0:1|0:0,0:0:0:0:
296,208,7591,1,0,0:0:0:0:
220,140,7752,6,0,P|276:112|356:116,1,120,8|8,0:1|0:0,0:0:0:0:
448,104,8236,1,0,0:0:0:0:
448,104,8397,2,0,L|452:248,2,120,8|8|8,0:1|0:0|0:1,0:0:0:0:
208,92,9365,5,12,0:0:0:0:
104,280,9849,1,12,0:0:0:0:
320,284,10332,1,8,0:1:0:0:
208,236,10494,1,12,0:0:0:0:
208,236,10978,6,0,L|208:112,2,120,8|2|8,0:1|1:0|0:1,0:0:0:0:
144,336,11945,6,0,P|204:352|272:336,1,120,4|8,1:0|0:1,0:0:0:0:
352,312,12429,1,2,0:0:0:0:
384,232,12591,2,0,L|388:108,2,120,8|8|10,0:0|0:1|0:0,0:0:0:0:
416,320,13397,1,10,0:0:0:0:
416,320,13478,1,0,0:0:0:0:
416,320,13558,2,0,L|336:336,1,60,8|10,0:1|0:0,0:0:0:0:
328,260,13881,2,0,L|248:276,1,60,8|10,0:0|0:0,0:0:0:0:
244,196,14203,6,0,L|164:212,1,60,8|0,0:1|0:0,0:0:0:0:
104,296,14526,2,0,L|88:156,1,120,10|8,0:0|0:1,0:0:0:0:
132,88,15010,2,0,L|272:72,1,120,8|8,0:0|0:0,0:0:0:0:
320,144,15494,6,0,L|336:284,2,120,8|10|8,0:1|0:0|0:1,0:0:0:0:
408,88,16300,2,0,L|424:228,1,120,2|10,0:0|0:0,0:0:0:0:
388,296,16784,2,0,L|380:348,3,30,8|0|0|0,0:1|1:0|1:0|1:0,0:0:0:0:
388,264,17107,6,0,P|344:220|264:228,1,120,4|8,1:0|1:1,0:0:0:0:
184,272,17591,2,0,P|228:316|308:308,1,120,0|0,0:0|0:0,0:0:0:0:
388,264,18074,2,0,L|392:128,2,120,10|10|10,0:1|0:0|0:1,0:0:0:0:
288,328,18881,2,0,P|196:332|152:304,1,120,10|8,0:0|0:0,0:0:0:0:
96,224,19365,5,10,0:1:0:0:
240,228,19687,1,12,0:0:0:0:
368,132,20010,1,8,0:1:0:0:
304,96,20171,1,0,0:0:0:0:
368,60,20332,1,12,0:0:0:0:
360,144,20655,5,8,0:1:0:0:
297,82,20816,1,0,0:0:0:0:
382,60,20977,1,12,0:0:0:0:
448,188,21300,6,0,L|456:268,1,60,8|8,0:1|0:0,0:0:0:0:
412,336,21623,2,8,L|400:364,6,30,0|0|0|0|0|0|0,1:0|1:0|1:0|1:0|1:0|1:0|1:0,0:0:0:0:
256,192,22268,12,4,23558,1:0:0:0:
64,124,23880,6,2,P|132:76|184:88,1,120,10|10,1:0|1:0,0:0:0:0:
144,172,24364,1,10,0:0:0:0:
68,232,24525,2,2,L|64:320,1,60,10|10,1:0|0:0,0:0:0:0:
156,216,24848,2,2,L|152:304,1,60,10|10,1:0|0:0,0:0:0:0:
236,264,25170,6,0,L|232:352,1,60,8|8,1:0|0:0,0:0:0:0:
320,240,25493,2,0,L|316:328,1,60,8|0,1:0|0:0,0:0:0:0:
404,344,25816,1,8,1:0:0:0:
452,276,25977,2,0,L|468:240,2,30,10|0|12,0:0|0:0|1:0,0:0:0:0:
396,172,26299,1,10,0:0:0:0:
324,92,26461,6,2,P|292:80|240:92,1,60,10|10,1:0|0:0,0:0:0:0:
156,124,26783,2,2,P|144:156|156:208,1,60,10|10,1:0|0:0,0:0:0:0:
188,292,27106,2,2,P|220:304|272:292,1,60,10|10,1:0|0:0,0:0:0:0:
356,260,27428,6,0,L|364:164,2,90,4|0|2,1:2|0:0|0:3,0:0:0:0:
256,192,28719,12,0,30493,0:0:0:0:
