osu file format v14

[General]
AudioFilename: Troublemaker.mp3
AudioLeadIn: 0
PreviewTime: 534
Countdown: 1
SampleSet: Soft
StackLeniency: 0.7
Mode: 0
LetterboxInBreaks: 1
WidescreenStoryboard: 1

[Editor]
Bookmarks: 6784,11945,17107,23558,26138,28719
DistanceSpacing: 1
BeatDivisor: 4
GridSize: 4
TimelineZoom: 0.9000002

[Metadata]
Title:Troublemaker
TitleUnicode:とらぶるめーかー
Artist:I MY ME MINE
ArtistUnicode:あいまいみーまいん
Creator:Soldsaga KunG
Version:Collab
Source:Himegoto
Tags:opening traps Mutsuki Shuhei Genki Mizuno ひめゴト BoatKrab Betsuto [_Lost_] Boathappy555
BeatmapID:515357
BeatmapSetID:219330

[Difficulty]
HPDrainRate:8
CircleSize:4
OverallDifficulty:8
ApproachRate:9
SliderMultiplier:1.8
SliderTickRate:1

[Events]
//Background and Video events
0,0,"BG.jpg",0,0
//Break Periods
//Storyboard Layer 0 (Background)
//Storyboard Layer 1 (Fail)
//Storyboard Layer 2 (Pass)
//Storyboard Layer 3 (Foreground)
//Storyboard Sound Samples

[TimingPoints]
333,322.58064516129,4,1,2,30,1,0
655,-125,4,2,2,30,0,0
978,-111.111111111111,4,2,2,40,0,0
1300,-100,4,2,2,50,0,0
1623,-100,4,2,2,60,0,1
1703,-100,4,2,2,60,0,0
10978,-100,4,2,2,50,0,0
11300,-100,4,2,2,40,0,0
11623,-100,4,2,2,50,0,0
11945,-100,4,2,2,60,0,1
12026,-100,4,2,2,60,0,0
21462,-100,4,2,2,54,0,0
21945,-200,4,2,2,45,0,0
22268,-100,4,2,2,45,0,0
22913,-100,4,2,2,50,0,0
23558,322.58064516129,3,2,2,60,1,0
23558,-100,3,2,2,60,0,0
27428,-200,3,2,2,40,0,0
28074,-133.333333333333,3,2,2,40,0,0
28396,-100,3,2,2,40,0,0
28719,-200,3,2,2,40,0,0
30574,-200,3,2,2,5,0,0

[Colours]
Combo1 : 207,168,133
Combo2 : 0,128,192
Combo3 : 237,190,82
Combo4 : 254,166,129

[HitObjects]
312,152,655,6,0,P|304:116|312:80,1,72,2|0,0:0|0:0,0:0:0:0:
196,124,978,6,0,P|151:133|106:124,1,80.9999975280763,2|0,0:0|0:0,0:0:0:0:
168,252,1300,6,0,P|178:299|168:346,1,90,2|0,0:0|0:0,0:0:0:0:
80,296,1623,6,0,L|240:288,1,135,4|0,1:0|0:0,0:0:0:0:
292,336,1945,2,0,L|384:340,1,90,8|8,0:1|0:0,0:0:0:0:
448,276,2187,1,0,1:0:0:0:
432,248,2268,2,0,P|424:200|432:156,1,90,10|0,0:0|0:0,0:0:0:0:
328,40,2591,6,0,P|336:88|328:132,1,90,8|10,0:1|0:0,0:0:0:0:
244,80,2913,1,10,0:0:0:0:
416,68,3074,1,10,0:0:0:0:
244,80,3236,6,0,L|152:76,1,90,8|2,0:1|0:0,0:0:0:0:
22,207,3558,2,0,L|111:203,1,90,8|0,0:0|0:0,0:0:0:0:
200,336,3881,6,0,P|191:291|198:247,1,90,8|0,0:1|0:0,0:0:0:0:
251,176,4123,1,0,0:0:0:0:
271,152,4203,6,0,B|287:108|267:52,1,90,10|0,0:0|0:0,0:0:0:0:
379,104,4526,2,0,L|475:100,1,90,8|0,0:1|0:0,0:0:0:0:
431,212,4849,2,0,B|392:288|448:360,1,135,10|0,0:0|0:0,0:0:0:0:
356,384,5171,6,0,L|260:380,1,90,8|8,0:1|0:0,0:0:0:0:
276,292,5413,1,0,1:0:0:0:
252,268,5494,2,0,L|181:203,1,90,10|10,0:0|0:0,0:0:0:0:
288,152,5817,2,0,B|304:108|284:52,1,90,8|2,1:0|0:0,0:0:0:0:
96,164,6139,2,0,B|80:208|100:264,1,90,8|10,0:0|0:0,0:0:0:0:
200,336,6462,5,8,1:0:0:0:
192,116,6623,1,0,1:0:0:0:
192,116,6703,1,0,1:0:0:0:
192,116,6784,2,0,P|240:64|304:52,1,135,12|0,0:0|0:0,0:0:0:0:
376,76,7107,2,0,L|476:60,1,90,8|0,0:1|1:0,0:0:0:0:
512,148,7349,2,0,L|464:132,1,45,8|8,1:0|0:0,0:0:0:0:
352,196,7591,1,8,0:0:0:0:
280,296,7752,1,8,0:1:0:0:
200,336,7913,6,0,L|144:264,1,90,0|8,0:0|0:0,0:0:0:0:
192,116,8236,1,0,0:0:0:0:
280,296,8397,2,0,P|288:344|276:384,1,90,8|0,0:1|1:0,0:0:0:0:
200,336,8639,1,8,1:0:0:0:
200,336,8720,2,0,L|108:312,1,90,8|8,0:0|0:0,0:0:0:0:
40,220,9042,2,0,P|60:148|120:112,1,135,8|0,1:0|0:0,0:0:0:0:
192,116,9365,6,0,L|324:88,1,135,12|0,1:2|0:0,0:0:0:0:
412,128,9687,2,0,L|500:112,1,90,8|0,1:0|0:0,0:0:0:0:
292,192,10010,2,0,L|204:208,1,90,8|0,1:0|0:0,0:0:0:0:
384,224,10332,1,8,1:0:0:0:
112,164,10494,2,0,P|104:212|116:256,1,90,0|8,0:0|1:0,0:0:0:0:
208,320,10816,1,0,0:0:0:0:
172,92,10978,5,8,1:0:0:0:
292,192,11139,1,0,0:0:0:0:
320,28,11300,2,0,L|360:60,1,45,8|0,1:0|1:0,0:0:0:0:
448,156,11462,2,0,L|408:124,1,45,0|0,1:0|1:0,0:0:0:0:
248,128,11623,2,0,P|216:180|240:248,1,135,8|0,0:1|0:0,0:0:0:0:
284,324,11945,6,0,L|148:320|148:320,1,135,4|0,1:0|0:0,0:0:0:0:
60,344,12268,2,0,P|64:296|56:256,1,90,8|8,0:1|0:0,0:0:0:0:
128,204,12510,1,0,1:0:0:0:
116,176,12591,2,0,P|90:139|55:110,1,90,10|0,0:0|0:0,0:0:0:0:
220,92,12913,6,0,P|260:100|309:95,1,90,8|10,0:1|0:0,0:0:0:0:
228,232,13236,2,0,P|193:260|167:297,1,90,10|10,0:0|0:0,0:0:0:0:
280,372,13558,1,8,0:1:0:0:
408,328,13720,2,0,L|500:332,1,90,2|8,0:0|0:0,0:0:0:0:
365,151,14042,2,0,L|432:212,1,90,0|8,0:0|0:1,0:0:0:0:
452,44,14365,1,0,0:0:0:0:
365,151,14526,6,0,P|320:120|220:144,1,135,10|0,0:0|0:0,0:0:0:0:
180,192,14849,2,0,L|80:188,1,90,8|2,0:1|0:0,0:0:0:0:
24,128,15091,1,0,1:0:0:0:
48,104,15171,2,0,P|56:60|48:12,1,90,10|0,0:0|0:0,0:0:0:0:
179,192,15494,2,0,P|171:235|178:279,1,90,8|8,0:1|0:0,0:0:0:0:
276,344,15816,5,8,0:0:0:0:
179,280,15978,2,0,L|83:284,1,90,10|8,0:0|0:1,0:0:0:0:
276,344,16300,2,0,L|372:340,1,90,0|8,0:0|0:0,0:0:0:0:
452,260,16623,2,0,P|432:168|352:184,1,180,2|8,0:0|0:0,0:0:0:0:
332,192,17026,1,0,1:0:0:0:
304,208,17107,6,0,L|168:220,1,135,12|0,0:0|0:0,0:0:0:0:
96,264,17429,2,0,L|0:272,1,90,8|0,0:1|1:0,0:0:0:0:
6,271,17671,1,8,1:0:0:0:
6,271,17752,1,8,0:0:0:0:
136,144,17913,2,0,L|240:136,1,90,8|8,0:0|0:1,0:0:0:0:
468,80,18236,6,0,L|372:72,1,90,8|8,0:0|0:0,0:0:0:0:
300,180,18558,2,0,L|396:172,1,90,8|8,0:0|0:1,0:0:0:0:
468,272,18881,1,0,1:0:0:0:
468,272,18962,1,8,1:0:0:0:
468,272,19042,2,0,L|372:264,1,90,8|8,0:0|0:0,0:0:0:0:
184,336,19365,2,0,L|160:288,1,45,8|0,1:0|1:0,0:0:0:0:
80,200,19526,2,0,L|104:248,1,45,0|0,1:0|1:0,0:0:0:0:
264,316,19687,6,0,P|312:284|340:204,1,135,4|0,1:2|0:0,0:0:0:0:
312,136,20010,2,0,L|324:44,1,90,8|0,0:1|0:0,0:0:0:0:
196,248,20332,2,0,L|184:340,1,90,8|8,0:0|0:0,0:0:0:0:
80,200,20655,2,0,P|108:156|144:132,1,90,8|0,0:1|0:0,0:0:0:0:
312,136,20978,5,8,0:0:0:0:
248,44,21139,1,8,0:0:0:0:
132,340,21300,5,8,0:1:0:0:
196,248,21461,1,0,0:0:0:0:
312,248,21623,5,0,1:0:0:0:
344,240,21703,1,0,1:0:0:0:
376,244,21784,1,8,0:0:0:0:
408,248,21865,1,8,0:0:0:0:
440,240,21945,2,0,L|468:148,1,90,4|2,1:2|0:0,0:0:0:0:
472,132,22591,5,2,0:0:0:0:
312,248,22752,1,8,0:0:0:0:
312,248,22832,1,8,0:0:0:0:
312,248,22913,2,0,P|264:236|220:180,1,90,0|8,1:0|0:0,0:0:0:0:
200,96,23236,2,0,L|208:232,1,135,0|0,1:0|0:0,0:0:0:0:
143,343,23558,6,0,P|96:352|55:341,1,90,4|0,1:0|0:0,0:0:0:0:
83,231,23880,2,0,P|40:208|17:173,1,90,8|8,1:0|0:0,0:0:0:0:
95,103,24203,2,0,P|84:64|89:15,1,90,8|8,1:0|0:0,0:0:0:0:
260,16,24525,5,8,1:0:0:0:
200,96,24687,1,8,0:0:0:0:
410,107,24848,5,8,1:0:0:0:
311,95,25010,1,8,0:0:0:0:
406,283,25170,5,8,1:0:0:0:
367,191,25332,1,8,0:0:0:0:
251,368,25493,5,8,1:0:0:0:
312,288,25655,1,8,0:0:0:0:
101,276,25816,5,8,1:0:0:0:
207,284,25978,1,8,0:0:0:0:
312,288,26138,6,0,P|312:216|280:160,1,135,12|0,0:0|0:0,0:0:0:0:
212,116,26461,2,0,L|196:16,1,90,8|8,1:0|0:0,0:0:0:0:
32,200,26783,1,8,1:0:0:0:
132,184,26945,1,8,0:0:0:0:
116,364,27106,2,0,L|100:264,1,90,8|8,1:0|0:0,0:0:0:0:
212,116,27428,6,0,B|260:104|300:136|300:136|348:140|380:100,1,180,2|0,0:0|0:0,0:0:0:0:
308,52,28235,5,2,0:0:0:0:
236,212,28396,1,6,0:0:0:0:
256,192,28719,12,0,30574,0:0:0:0:
