osu file format v14

[General]
AudioFilename: Troublemaker.mp3
AudioLeadIn: 0
PreviewTime: 23478
Countdown: 0
SampleSet: Soft
StackLeniency: 0.7
Mode: 0
LetterboxInBreaks: 1
WidescreenStoryboard: 1

[Editor]
DistanceSpacing: 1
BeatDivisor: 4
GridSize: 32
TimelineZoom: 1.4

[Metadata]
Title:Troublemaker
TitleUnicode:とらぶるめーかー
Artist:I MY ME MINE
ArtistUnicode:あいまいみーまいん
Creator:KantoKun
Version:Hard
Source:ひめゴト
Tags:SECRET PRINCESS HIMEGOTO
BeatmapID:803031
BeatmapSetID:365859

[Difficulty]
HPDrainRate:6
CircleSize:4
OverallDifficulty:6
ApproachRate:8
SliderMultiplier:1.5
SliderTickRate:1

[Events]
//Background and Video events
0,0,"BG.jpg",0,0
//Break Periods
//Storyboard Layer 0 (Background)
//Storyboard Layer 1 (Fail)
//Storyboard Layer 2 (Pass)
//Storyboard Layer 3 (Foreground)
//Storyboard Sound Samples

[TimingPoints]
333,322.58064516129,4,2,1,40,1,0
655,-133.333333333333,4,2,1,40,0,0
1623,-100,4,2,1,70,0,0
22268,-133.333333333333,4,2,1,70,0,0
22268,-133.333333333333,4,2,1,70,0,0
23236,-100,4,2,1,70,0,0
23558,-100,4,2,1,70,0,0
27429,-133.333333333333,4,2,2,50,0,0
28397,-133.333333333333,4,2,2,50,0,0
28558,-133.333333333333,4,2,2,5,0,0
28720,645.161290322581,4,2,1,70,1,0
28720,-200,4,2,1,50,0,0
28881,-200,4,2,1,5,0,0

[HitObjects]
247,225,655,6,0,P|250:264|257:357,2,112.500004291535
247,225,1623,6,0,P|280:198|288:85,1,150,6|8,0:0|0:0,0:0:0:0:
224,29,2107,1,0,0:0:0:0:
143,81,2268,2,0,P|98:74|60:69,2,75,2|2|8,0:0|0:0|0:0,0:0:0:0:
210,140,2752,6,0,L|367:123,1,150,2|2,0:0|0:0,0:0:0:0:
425,186,3236,2,0,P|430:229|425:269,1,75,8|0,0:0|0:0,0:0:0:0:
353,319,3558,1,2,0:0:0:0:
353,319,3720,1,2,0:0:0:0:
265,281,3881,2,0,P|225:285|187:291,1,75,8|0,0:0|0:0,0:0:0:0:
124,229,4203,6,0,P|136:166|142:68,1,150,8|8,0:0|0:0,0:0:0:0:
211,15,4687,1,0,0:0:0:0:
288,69,4849,2,0,P|330:64|375:59,2,75,2|2|8,0:0|0:0|0:0,0:0:0:0:
216,123,5332,6,0,P|165:116|55:101,1,150,2|2,0:0|0:0,0:0:0:0:
4,170,5816,2,0,P|13:214|20:247,1,75,8|0,0:0|0:0,0:0:0:0:
99,290,6139,2,0,P|91:326|83:363,2,75,2|2|8,0:0|0:0|0:0,0:0:0:0:
180,239,6623,1,8,0:0:0:0:
180,239,6703,1,8,0:0:0:0:
180,239,6784,6,0,P|224:222|331:242,1,150,6|10,0:0|0:1,0:0:0:0:
401,289,7268,1,0,0:0:0:0:
401,289,7429,2,0,P|408:252|416:215,1,75,10|2,0:1|0:0,0:0:0:0:
338,163,7752,2,0,P|330:199|322:236,1,75,10|2,0:1|0:0,0:0:0:0:
430,272,8074,6,0,P|431:234|432:197,1,75,10|0,0:1|0:0,0:0:0:0:
310,180,8397,2,0,P|308:217|307:254,1,75,10|0,0:0|0:0,0:0:0:0:
460,254,8720,6,0,P|454:216|449:179,1,75,10|2,0:1|0:0,0:0:0:0:
285,199,9043,2,0,L|290:236|295:273,1,75,10|2,0:1|0:0,0:0:0:0:
360,130,9365,6,0,P|319:104|215:126,1,150,6|8,0:0|0:0,0:0:0:0:
154,182,9849,1,0,0:0:0:0:
154,182,10010,2,0,P|148:229|143:265,2,75,2|2|8,0:0|0:0|0:0,0:0:0:0:
80,129,10494,1,2,0:0:0:0:
278,36,10816,5,2,0:0:0:0:
356,80,10978,2,0,P|398:75|442:71,1,75,8|0,0:0|0:0,0:0:0:0:
469,171,11300,2,0,L|426:163,3,37.5,8|8|2|2,0:0|0:0|0:0|0:0,0:0:0:0:
407,187,11623,2,0,P|405:231|408:273,1,75,8|0,0:0|0:0,0:0:0:0:
478,326,11945,6,0,P|426:304|337:343,1,150,6|8,0:0|0:0,0:0:0:0:
261,375,12429,1,0,0:0:0:0:
261,375,12591,2,0,P|221:369|184:363,2,75,2|2|8,0:0|0:0|0:0,0:0:0:0:
327,313,13074,6,0,B|345:273|326:235|326:235|349:195|328:145,1,150,2|2,0:0|0:0,0:0:0:0:
270,112,13558,2,0,P|253:160|256:201,1,75,8|0,0:0|0:0,0:0:0:0:
404,221,13881,2,0,P|421:173|418:132,1,75,2|2,0:0|0:0,0:0:0:0:
335,168,14203,1,10,0:0:0:0:
161,282,14526,6,0,P|151:219|135:122,2,150,2|8|2,0:0|0:0|0:0,0:0:0:0:
233,334,15332,2,0,P|276:338|324:330,1,75,2|8,0:0|0:0,0:0:0:0:
387,295,15655,6,0,P|428:281|511:351,1,150,2|2,0:0|0:0,0:0:0:0:
307,334,16139,2,0,P|300:293|305:255,1,75,8|0,0:0|0:0,0:0:0:0:
376,206,16462,1,2,0:0:0:0:
376,206,16623,1,2,0:0:0:0:
461,243,16784,1,8,0:0:0:0:
448,109,16945,1,8,0:0:0:0:
448,109,17026,1,8,0:0:0:0:
448,109,17107,2,0,P|381:115|292:123,1,150,6|10,0:0|0:1,0:0:0:0:
223,174,17591,1,0,0:0:0:0:
223,174,17752,2,0,P|210:134|209:89,1,75,10|2,0:1|0:0,0:0:0:0:
283,49,18074,2,0,P|296:89|297:134,1,75,10|2,0:1|0:0,0:0:0:0:
194,154,18397,6,0,P|188:112|194:67,1,75,10|0,0:1|0:0,0:0:0:0:
314,60,18719,2,0,P|319:101|313:146,1,75,10|0,0:1|0:0,0:0:0:0:
172,125,19042,6,0,P|173:82|187:40,1,75,10|2,0:1|0:0,0:0:0:0:
341,85,19364,2,0,P|339:127|325:169,1,75,10|2,0:1|0:0,0:0:0:0:
234,226,19687,6,0,P|194:218|77:195,2,150,6|8|2,0:0|0:0|0:0,0:0:0:0:
303,287,20494,1,2,0:0:0:0:
318,199,20655,2,0,P|323:149|327:113,1,75,8|0,0:0|0:0,0:0:0:0:
404,67,20978,6,0,P|407:104|411:141,1,75,2|2,0:0|0:0,0:0:0:0:
512,233,21300,2,0,P|476:215|375:275,1,150,8|8,0:0|0:0,0:0:0:0:
364,289,21703,1,8,0:0:0:0:
364,289,21784,1,2,0:0:0:0:
307,362,21945,2,0,P|252:356|202:351,1,75,4|0,0:0|0:0,0:0:0:0:
127,279,22268,6,0,P|173:274|242:267,2,112.500004291535,0|0|8,3:0|3:0|3:1,0:0:0:0:
60,352,23074,1,2,0:0:0:0:
22,248,23236,2,0,P|12:195|22:133,1,112.5,8|0,1:0|0:0,0:0:0:0:
43,112,23558,6,0,P|100:118|208:129,1,150,6|8,0:0|0:0,0:0:0:0:
266,184,24042,1,2,0:0:0:0:
331,121,24203,2,0,P|373:98|475:114,2,150,8|8|8,0:0|0:0|0:0,0:0:0:0:
266,184,25010,5,2,0:0:0:0:
266,184,25171,2,0,P|273:258|276:282,1,75,8|0,0:0|0:0,0:0:0:0:
348,311,25494,1,8,0:0:0:0:
419,253,25655,2,0,L|460:247,2,37.5,2|0|8,0:0|0:0|0:0,0:0:0:0:
348,311,25978,1,2,0:0:0:0:
273,258,26139,6,0,P|222:238|131:284,1,150,6|8,0:0|0:0,0:0:0:0:
92,352,26623,1,0,0:0:0:0:
51,275,26784,2,0,P|55:234|60:197,1,75,8|2,0:0|0:0,0:0:0:0:
143,172,27107,2,0,P|139:134|134:97,1,75,8|2,0:0|0:0,0:0:0:0:
44,64,27429,6,2,B|150:103|153:25|266:58,1,225.000008583069,2|0,0:0|0:0,0:1:0:0:
304,138,28236,1,0,0:0:0:0:
231,191,28397,2,0,P|217:162|212:125,1,56.2500021457673,2|0,0:0|0:0,0:0:0:0:
204,118,28720,6,2,P|199:188|187:353,1,225,0|0,0:1|0:0,0:1:0:0:
