osu file format v4

[General]
AudioFilename: Eggsong.mp3
AudioLeadIn: 0
AudioHash: 5365360bff3c8ac363c896dbf0c42934
PreviewTime: -1
Countdown: 1
SampleSet: Normal
EditorBookmarks: 7320

[Metadata]
Title:Egg Song
Artist:I Love Egg
Creator:mtmcl
Version:Easy

[Difficulty]
HPDrainRate:3
CircleSize:3
OverallDifficulty:3
SliderMultiplier: 1.4
SliderTickRate: 1

[Events]
//Background and Video events
1,0,"egg.wmv"
//Break Periods
//Storyboard Layer 0 (Background)
//Storyboard Layer 1 (Failing)
//Storyboard Layer 2 (Passing)
//Storyboard Layer 3 (Foreground)
//Storyboard Sound Samples
//Background Colour Transformations
3,100,163,162,255

[TimingPoints]
7320,437.956204379562,4,1,0,100

[Colours]
Combo1 : 249,149,0
Combo2 : 168,49,145
Combo3 : 32,123,153
Combo4 : 64,159,47

[HitObjects]
32,192,7319,1,0
160,192,7976,1,0
480,192,9071,5,0
352,192,9728,1,0
224,160,10823,5,0
320,160,11261,1,0
320,256,11699,1,0
192,256,12356,1,0
96,256,12794,6,0,B|96:256|96:32,1,210
256,192,14327,5,0
352,192,14765,2,0,B|352:192|352:288,1,70
128,288,16079,5,0
128,192,16517,2,0,B|128:192|128:160|160:128,1,70
448,192,17830,5,0
352,192,18268,2,0,B|352:192|352:128|320:128,3,70
192,288,19582,5,0
288,288,20020,1,0
384,288,20458,1,0
256,128,21334,5,0
160,128,21772,1,0
96,288,22648,2,0,B|96:288|256:288,1,140
384,288,23743,1,0
128,352,24838,5,0
128,256,25276,1,0
128,160,25714,1,0
128,64,26152,1,0
256,288,27028,1,0
256,288,27465,1,0
256,128,28341,5,0
256,32,28779,2,0,B|256:32|416:32|416:224,1,280
416,320,30093,1,0
416,320,30531,1,0
224,320,31845,5,0
224,224,32283,1,0
224,128,32721,1,0
96,128,33378,1,0
352,256,35349,5,0
256,256,35787,1,0
160,256,36225,2,0,B|160:256|160:192|64:160,1,140
64,64,37101,1,0
64,64,37538,1,0
96,352,38852,5,0
192,352,39290,1,0
288,352,39728,1,0
192,160,40604,6,0,B|192:160|192:128|160:96,1,70
160,96,41042,2,0,B|160:96|128:96|96:128,1,70
256,352,42356,5,0
352,352,42794,1,0
448,352,43232,1,0
448,128,44108,5,0
352,128,44546,1,0
256,128,44984,1,0
32,192,45860,5,0
32,192,46079,2,0,B|32:192|128:192|128:288,1,140
416,320,47611,5,0
416,320,47830,2,0,B|416:320|416:224|320:224,1,140
32,352,49363,5,0
128,256,49801,1,0
224,160,50239,1,0
200,40,51115,5,0
296,40,51553,1,0
400,40,51991,1,0
504,40,52429,1,0
512,160,52867,6,0,B|512:160|416:160|320:352,1,280
224,224,54619,5,0
128,224,55057,2,0,B|128:224|128:128,1,70
288,96,55933,1,0
384,96,56371,1,0
160,352,58122,5,0
160,256,58560,1,0
160,160,58998,1,0
160,64,59436,1,0
256,64,59874,5,0
256,64,60093,1,0
352,64,60531,1,0
160,128,61626,5,0
160,128,61845,1,0
160,224,62283,1,0
384,96,63378,5,0
384,192,63816,1,0
384,288,64254,1,0
200,40,65130,5,0
296,40,65568,1,0
400,40,66006,1,0
504,40,66444,1,0
512,128,66882,5,0
416,128,67319,1,0
320,128,67757,1,0
224,128,68195,1,0
256,192,68633,12,0,70385
256,192,72137,12,0,73889
