osu file format v12

[General]
AudioFilename: HYUNA - Ice Cream.mp3
AudioLeadIn: 2000
PreviewTime: 16290
Countdown: 1
SampleSet: Soft
StackLeniency: 0.7
Mode: 0
LetterboxInBreaks: 1

[Editor]
DistanceSpacing: 1
BeatDivisor: 4
GridSize: 4

[Metadata]
Title:Ice Cream
TitleUnicode:Ice Cream
Artist:HyunA
ArtistUnicode:현아
Creator:Dark_Ai
Version:Hard
Source:
Tags:Melting Kim Hyun-a k-pop 4minute
BeatmapID:258816
BeatmapSetID:96580

[Difficulty]
HPDrainRate:6
CircleSize:4
OverallDifficulty:7
ApproachRate:7
SliderMultiplier:1.8
SliderTickRate:1

[Events]
//Background and Video events
0,0,"Ice Cream.jpg",0,0
//Break Periods
2,96790,110290
2,160989,174290
//Storyboard Layer 0 (Background)
//Storyboard Layer 1 (Fail)
//Storyboard Layer 2 (Pass)
//Storyboard Layer 3 (Foreground)
//Storyboard Sound Samples
//Background Colour Transformations
3,100,0,0,0

[TimingPoints]
290,500,4,2,1,80,1,0
14790,-100,4,2,1,40,0,0
16290,-100,4,2,1,80,0,1
31790,-100,4,2,1,80,0,0
64290,-100,4,2,1,80,0,1
80290,-100,4,2,1,80,0,0
112290,-100,4,2,1,80,0,1
112415,-100,4,2,1,80,0,0
128290,-100,4,2,1,80,0,1
144290,-100,4,2,1,80,0,0
176290,-100,4,2,1,80,0,1
192290,-100,4,2,1,60,0,1
192790,-100,4,2,1,40,0,1
193290,-100,4,2,1,20,0,1
193790,-100,4,2,1,10,0,0

[Colours]
Combo1 : 128,0,255
Combo2 : 0,0,255
Combo3 : 255,0,128
Combo4 : 0,128,255
SliderBorder : 255,255,255

[HitObjects]
64,192,290,2,0,P|80:256|140:272,1,135,4|0,0:0|0:0,0:0:0:0:
180,252,790,2,0,P|260:252|308:332,1,180,8|0,0:0|0:0,0:0:0:0:
400,336,1540,1,0,0:0:0:0:
440,256,1790,1,8,0:0:0:0:
392,84,2290,6,0,P|336:96|276:52,1,135
260,28,2790,2,0,L|80:72,1,180,8|0,0:0|0:0,0:0:0:0:
80,160,3540,2,0,L|132:236,1,90,0|8,0:0|0:0,0:0:0:0:
256,352,4290,6,0,P|304:308|368:320,1,135
408,340,4790,2,0,P|488:336|504:248,1,180,8|0,0:0|0:0,0:0:0:0:
424,208,5540,1,0,0:0:0:0:
424,120,5790,1,8,0:0:0:0:
256,56,6290,6,0,L|124:84,1,135
80,96,6790,2,0,P|20:156|48:240,2,180,8|0|8,0:0|0:0|0:0,0:0:0:0:
216,216,8290,6,0,P|276:192|296:124,1,135
288,84,8790,1,8,0:0:0:0:
360,32,9040,2,0,P|384:72|424:88,1,90
512,100,9540,2,0,P|508:148|496:192,1,90,0|8,0:0|0:0,0:0:0:0:
412,212,10040,6,0,P|384:244|344:268,1,90
256,296,10540,1,0,0:0:0:0:
168,268,10790,2,0,P|128:244|100:212,1,90,8|0,0:0|0:0,0:0:0:0:
56,136,11290,2,0,P|120:120|156:64,1,135
188,32,11790,2,0,L|276:16,1,90,8|0,0:0|0:0,0:0:0:0:
320,96,12290,6,0,P|336:156|404:172,1,135
412,128,12790,2,0,P|340:140|304:232,1,180,8|0,0:0|0:0,0:0:0:0:
248,300,13540,2,0,L|160:332,1,90,0|8,0:0|0:0,0:0:0:0:
84,288,14040,5,0,0:0:0:0:
84,288,14290,1,2,0:0:0:0:
36,212,14540,1,0,0:0:0:0:
36,212,14790,1,0,0:0:0:0:
88,136,15040,1,0,0:0:0:0:
88,136,15290,2,0,P|156:136|204:92,1,135,2|0,0:0|0:0,0:0:0:0:
228,56,15790,2,0,L|268:140,1,90
256,228,16290,6,0,L|348:264,1,90,4|0,1:0|0:0,0:0:0:0:
364,348,16790,1,8,0:0:0:0:
432,288,17040,1,0,0:0:0:0:
452,248,17165,1,0,0:0:0:0:
452,204,17290,1,0,0:0:0:0:
392,136,17540,1,0,0:0:0:0:
392,136,17790,2,0,B|324:156|288:72|216:96,1,180,8|0,0:0|0:0,0:0:0:0:
164,164,18540,6,0,L|108:236,1,90,0|8,0:0|0:0,0:0:0:0:
144,320,19040,2,0,L|199:248,1,90
164,164,19540,1,0,0:0:0:0:
164,164,19790,2,0,P|220:160|232:52,1,180,8|0,0:0|0:0,0:0:0:0:
152,28,20540,5,0,0:0:0:0:
236,56,20790,1,8,0:0:0:0:
320,28,21040,1,0,0:0:0:0:
320,28,21290,2,0,P|368:96|456:80,1,180,0|8,0:0|0:0,0:0:0:0:
464,172,22040,1,0,0:0:0:0:
420,248,22290,6,0,P|388:280|344:296,1,90
236,216,22790,2,0,P|268:184|312:168,1,90,8|0,0:0|0:0,0:0:0:0:
348,296,23290,2,0,P|316:328|272:344,1,90
164,264,23790,2,0,P|196:232|240:216,1,90,8|0,0:0|0:0,0:0:0:0:
372,196,24290,5,0,0:0:0:0:
352,108,24540,1,0,0:0:0:0:
312,28,24790,2,0,L|233:70,1,90,8|0,0:0|0:0,0:0:0:0:
252,160,25290,2,0,P|188:156|144:96,1,135
132,60,25790,2,0,P|56:44|16:124,1,180,8|0,0:0|0:0,0:0:0:0:
84,192,26540,5,0,0:0:0:0:
84,192,26790,1,8,0:0:0:0:
256,244,27040,1,0,0:0:0:0:
256,244,27290,1,0,0:0:0:0:
428,192,27540,1,0,0:0:0:0:
428,192,27790,2,0,P|428:96|360:52,1,180,8|0,0:0|0:0,0:0:0:0:
352,144,28540,5,0,0:0:0:0:
280,92,28790,1,8,0:0:0:0:
192,132,29040,1,0,0:0:0:0:
192,132,29290,2,0,P|124:144|80:100,1,135
80,101,29790,2,0,L|20:172,1,90,8|0,0:0|0:0,0:0:0:0:
25,304,30290,6,0,L|84:236,1,90
230,151,30790,2,0,L|172:220,1,90,8|0,0:0|0:0,0:0:0:0:
320,140,31290,2,0,L|378:71,1,90
296,36,31790,2,0,L|200:28,1,90,8|0,0:0|0:0,0:0:0:0:
224,116,32290,6,0,B|144:124|120:48|120:48|72:64,2,180,0|8|0,0:0|0:0|0:0,0:0:0:0:
312,140,33540,1,0,0:0:0:0:
348,224,33790,1,8,0:0:0:0:
304,304,34040,1,0,0:0:0:0:
304,304,34290,2,0,B|220:264|220:332|128:300,1,180,0|8,0:0|0:0,0:0:0:0:
68,236,35040,2,0,L|16:160,1,90
80,96,35540,5,0,0:0:0:0:
168,68,35790,1,8,0:0:0:0:
256,48,36040,1,0,0:0:0:0:
344,68,36290,1,0,0:0:0:0:
344,68,36415,2,0,L|424:180,1,135,0|8,0:0|0:0,0:0:0:0:
408,268,37040,1,0,0:0:0:0:
328,320,37290,2,0,P|264:332|220:284,1,135
220,284,37790,2,0,L|132:304,1,90,8|0,0:0|0:0,0:0:0:0:
52,264,38290,5,0,0:0:0:0:
72,176,38540,2,0,P|112:164|132:120,1,90,0|8,0:0|0:0,0:0:0:0:
156,84,38915,1,0,0:0:0:0:
176,44,39040,2,0,P|256:80|336:44,1,180
420,80,39790,6,0,L|404:168,1,90,8|0,0:0|0:0,0:0:0:0:
460,240,40290,2,0,P|376:256|316:192,1,180,0|8,0:0|0:0,0:0:0:0:
256,124,41040,1,0,0:0:0:0:
196,192,41290,2,0,P|136:256|52:240,1,180,0|8,0:0|0:0,0:0:0:0:
108,168,42040,5,0,0:0:0:0:
20,164,42290,2,0,P|32:120|64:88,1,90
104,76,42665,2,0,P|148:76|192:56,1,90
232,40,43040,2,0,P|276:32|320:40,1,90
408,68,43540,1,0,0:0:0:0:
464,140,43790,5,8,0:0:0:0:
416,216,44040,1,0,0:0:0:0:
332,260,44290,1,0,0:0:0:0:
292,280,44415,1,0,0:0:0:0:
248,276,44540,1,0,0:0:0:0:
212,252,44665,2,0,L|172:220,1,45,0|8,0:0|0:0,0:0:0:0:
100,272,45040,1,0,0:0:0:0:
20,232,45290,2,0,P|0:192|0:144,1,90
68,88,45790,1,8,0:0:0:0:
148,132,46040,5,0,0:0:0:0:
224,80,46290,2,0,P|268:68|296:24,1,90
372,76,46790,2,0,P|397:110|441:122,1,90,8|0,0:0|0:0,0:0:0:0:
500,192,47290,1,0,0:0:0:0:
441,262,47540,2,0,P|397:274|372:308,1,90,0|8,0:0|0:0,0:0:0:0:
296,360,48040,5,0,0:0:0:0:
256,280,48290,2,0,P|212:268|176:232,1,90
224,160,48790,2,0,P|268:148|304:112,1,90,8|0,0:0|0:0,0:0:0:0:
224,68,49290,1,0,0:0:0:0:
136,92,49540,1,0,0:0:0:0:
224,68,49790,2,0,P|256:40|304:28,1,90,8|0,0:0|0:0,0:0:0:0:
368,88,50290,5,0,0:0:0:0:
300,28,50540,1,0,0:0:0:0:
368,88,50790,1,8,0:0:0:0:
456,104,51040,1,0,0:0:0:0:
456,104,51290,2,0,L|480:192,1,90
496,280,51790,2,0,P|460:312|420:328,1,90,8|0,0:0|0:0,0:0:0:0:
336,296,52290,5,0,0:0:0:0:
256,256,52540,1,0,0:0:0:0:
176,296,52790,2,0,L|132:320,2,45,8|0|0,0:0|0:0|0:0,0:0:0:0:
256,256,53290,2,0,L|256:160,1,90
256,76,53790,2,0,P|216:48|172:44,1,90,8|0,0:0|0:0,0:0:0:0:
184,132,54290,6,0,P|152:164|108:172,1,90
64,172,54665,1,0,0:0:0:0:
32,196,54790,2,0,P|20:240|32:284,1,90,8|0,0:0|0:0,0:0:0:0:
104,336,55290,1,0,0:0:0:0:
168,272,55540,1,0,0:0:0:0:
232,332,55790,2,0,B|312:340|316:272|400:280,1,180,8|0,0:0|0:0,0:0:0:0:
472,228,56540,6,0,P|480:180|476:136,1,90,0|8,0:0|0:0,0:0:0:0:
404,88,57040,1,0,0:0:0:0:
364,72,57165,1,0,0:0:0:0:
320,60,57290,1,0,0:0:0:0:
256,124,57540,2,0,P|208:128|168:112,1,90,0|8,0:0|0:0,0:0:0:0:
112,44,58040,1,0,0:0:0:0:
76,68,58165,1,0,0:0:0:0:
52,104,58290,6,0,P|32:148|32:192,2,90,0|0|8,0:0|0:0|0:0,0:0:0:0:
140,124,59040,2,0,L|172:160,1,45
204,188,59290,2,0,P|244:212|288:216,1,90
368,176,59790,1,8,0:0:0:0:
368,176,60040,1,0,0:0:0:0:
456,164,60290,2,0,P|408:92|320:100,1,180,0|8,0:0|0:0,0:0:0:0:
260,160,61040,2,0,P|216:160|176:132,1,90,0|2,0:0|0:0,0:0:0:0:
132,60,61540,5,0,0:0:0:0:
64,120,61790,1,8,0:0:0:0:
48,208,62040,2,0,L|96:288,1,90
180,308,62540,2,0,L|168:356,2,45,0|0|8,0:0|0:0|0:0,0:0:0:0:
264,276,63040,2,0,L|276:224,2,45
324,344,63540,2,0,P|368:340|404:312,1,90
396,132,64290,6,0,P|360:104|316:92,1,90,4|0,0:0|0:0,0:0:0:0:
304,176,64790,2,0,P|236:132|244:40,1,180,8|0,0:0|0:0,0:0:0:0:
156,28,65540,1,0,0:0:0:0:
156,28,65790,2,0,P|100:88|12:64,1,180,8|0,0:0|0:0,0:0:0:0:
4,156,66540,6,0,L|36:244,1,90,0|8,0:0|0:0,0:0:0:0:
154,320,67040,2,0,L|124:236,1,90
192,176,67540,1,0,0:0:0:0:
192,176,67790,2,0,P|280:164|304:84,1,180,8|0,0:0|0:0,0:0:0:0:
228,36,68540,5,0,0:0:0:0:
305,86,68790,1,8,0:0:0:0:
388,52,69040,1,0,0:0:0:0:
444,124,69290,2,0,P|464:164|468:208,1,90
432,292,69790,2,0,P|388:304|344:296,1,90,8|0,0:0|0:0,0:0:0:0:
284,176,70290,6,0,P|328:164|372:172,1,90,0|0,0:0|0:0,0:0:0:0:
344,296,70790,2,0,P|300:308|256:300,1,90,8|0,0:0|0:0,0:0:0:0:
196,180,71290,2,0,P|240:168|284:176,1,90,0|0,0:0|0:0,0:0:0:0:
256,300,71790,2,0,P|212:312|168:304,1,90,8|0,0:0|0:0,0:0:0:0:
132,224,72290,5,0,0:0:0:0:
172,144,72540,1,0,0:0:0:0:
236,80,72790,2,0,P|280:92|328:76,1,90,8|0,0:0|0:0,0:0:0:0:
412,84,73290,2,0,P|448:140|440:208,1,135
400,224,73790,2,0,P|324:256|304:348,1,180,8|0,0:0|0:0,0:0:0:0:
396,320,74540,5,0,0:0:0:0:
396,320,74790,1,8,0:0:0:0:
256,204,75040,1,0,0:0:0:0:
256,204,75290,1,0,0:0:0:0:
116,320,75540,1,0,0:0:0:0:
116,320,75790,2,0,P|36:296|20:208,1,180,8|0,0:0|0:0,0:0:0:0:
108,192,76540,6,0,P|152:180|180:144,1,90,0|8,0:0|0:0,0:0:0:0:
256,100,77040,1,0,0:0:0:0:
333,146,77290,2,0,P|360:180|404:192,1,90
464,260,77790,2,0,P|420:272|393:305,1,90,8|0,0:0|0:0,0:0:0:0:
312,348,78290,6,0,L|236:296,1,90
92,192,78790,2,0,L|17:141,1,90,8|0,0:0|0:0,0:0:0:0:
81,281,79290,2,0,L|156:332,1,90,0|0,0:0|0:0,0:0:0:0:
250,210,79790,2,0,L|176:160,1,90,0|0,0:0|0:0,0:0:0:0:
340,196,80290,5,4,0:0:0:0:
424,160,80540,1,0,0:0:0:0:
408,120,80665,1,0,0:0:0:0:
376,92,80790,1,8,0:0:0:0:
332,80,80915,1,0,0:0:0:0:
288,92,81040,2,0,P|200:96|144:28,1,180
80,80,81790,2,0,L|52:172,1,90,8|0,0:0|0:0,0:0:0:0:
108,240,82290,5,0,0:0:0:0:
184,292,82540,2,0,P|216:324|260:332,2,90,0|8|0,0:0|0:0|0:0,0:0:0:0:
108,240,83290,2,0,P|184:200|260:244,2,180,0|8|0,0:0|0:0|0:0,0:0:0:0:
64,64,84790,5,8,0:0:0:0:
104,84,84915,1,0,0:0:0:0:
144,104,85040,2,0,L|232:68,1,90
312,36,85540,1,0,0:0:0:0:
388,88,85790,2,0,P|380:132|392:176,1,90,8|0,0:0|0:0,0:0:0:0:
452,244,86290,5,0,0:0:0:0:
412,324,86540,1,0,0:0:0:0:
324,336,86790,1,8,0:0:0:0:
256,276,87040,1,0,0:0:0:0:
176,316,87290,2,0,P|168:272|184:224,1,90
232,156,87790,2,0,P|192:224|96:224,1,180,8|4,0:0|0:0,0:0:0:0:
96,44,88790,6,0,L|140:28,1,45,8|0,0:0|0:0,0:0:0:0:
184,32,89040,2,0,P|228:40|272:28,1,90
356,56,89540,1,0,0:0:0:0:
432,104,89790,2,0,P|372:160|376:252,1,180,8|0,0:0|0:0,0:0:0:0:
220,340,90790,5,8,0:0:0:0:
176,324,90915,1,0,0:0:0:0:
88,292,91165,1,0,0:0:0:0:
48,272,91290,1,0,0:0:0:0:
32,184,91540,1,0,0:0:0:0:
104,132,91790,2,0,P|144:120|180:88,1,90,8|0,0:0|0:0,0:0:0:0:
256,136,92290,5,0,0:0:0:0:
168,292,92790,1,8,0:0:0:0:
344,292,93290,1,0,0:0:0:0:
256,136,93790,1,8,0:0:0:0:
84,192,94290,5,4,0:0:0:0:
172,172,94540,1,0,0:0:0:0:
256,136,94790,1,12,0:0:0:0:
340,172,95040,1,0,0:0:0:0:
428,192,95290,2,0,P|416:236|428:280,1,90,4|0,0:0|0:0,0:0:0:0:
344,312,95790,1,12,0:0:0:0:
256,156,96290,5,4,0:0:0:0:
84,48,111790,6,0,L|172:32,1,90
256,60,112290,5,4,0:0:0:0:
340,32,112540,1,0,0:0:0:0:
428,48,112790,2,0,P|412:88|372:116,1,90,8|0,0:0|0:0,0:0:0:0:
292,148,113290,1,0,0:0:0:0:
256,232,113540,1,0,0:0:0:0:
256,232,113790,2,0,P|218:258|202:298,1,90,8|0,0:0|0:0,0:0:0:0:
116,276,114290,6,0,P|72:260|48:224,1,90
202,298,114790,2,0,P|246:314|270:350,1,90,8|0,0:0|0:0,0:0:0:0:
356,324,115290,1,0,0:0:0:0:
392,240,115540,1,0,0:0:0:0:
392,240,115790,2,0,P|357:216|341:172,1,90,8|0,0:0|0:0,0:0:0:0:
316,88,116290,6,0,P|256:112|192:88,1,135
156,60,116790,2,0,P|72:88|60:172,2,180,8|0|8,0:0|0:0|0:0,0:0:0:0:
144,148,118040,1,0,0:0:0:0:
200,216,118290,2,0,L|176:260,2,45
288,196,118790,1,8,0:0:0:0:
376,200,119040,1,0,0:0:0:0:
412,120,119290,1,0,0:0:0:0:
356,52,119540,1,0,0:0:0:0:
356,52,119790,2,0,P|292:104|288:196,1,180,8|0,0:0|0:0,0:0:0:0:
256,280,120540,5,0,0:0:0:0:
180,324,120790,1,8,0:0:0:0:
104,280,121040,1,0,0:0:0:0:
76,244,121165,1,0,0:0:0:0:
53,205,121290,1,0,0:0:0:0:
100,128,121540,2,0,P|144:116|180:92,1,90,0|8,0:0|0:0,0:0:0:0:
256,44,122040,5,0,0:0:0:0:
288,76,122165,1,0,0:0:0:0:
324,104,122290,2,0,P|364:124|412:124,1,90
492,96,122790,2,0,P|456:124|440:168,1,90,8|0,0:0|0:0,0:0:0:0:
380,232,123290,1,0,0:0:0:0:
380,232,123415,1,0,0:0:0:0:
288,232,123665,1,0,0:0:0:0:
288,232,123790,5,8,0:0:0:0:
256,316,124040,1,0,0:0:0:0:
256,316,124290,2,0,P|208:308|176:276,2,90,0|0|8,0:0|0:0|0:0,0:0:0:0:
288,232,125040,2,0,P|332:204|368:196,1,90
360,284,125540,5,0,0:0:0:0:
444,256,125790,1,8,0:0:0:0:
452,168,126040,2,0,P|444:124|420:84,1,90
332,72,126540,6,0,L|324:24,2,45,0|0|8,0:0|0:0|0:0,0:0:0:0:
272,140,127040,2,0,L|280:188,2,45
204,84,127540,2,0,L|112:72,1,90,0|8,0:0|0:0,0:0:0:0:
272,140,128290,6,0,L|345:195,1,90,4|0,0:0|0:0,0:0:0:0:
326,284,128790,2,0,P|412:266|436:187,1,180,8|0,0:0|0:0,0:0:0:0:
412,100,129540,1,0,0:0:0:0:
412,100,129790,2,0,P|328:88|264:20,1,180,8|0,0:0|0:0,0:0:0:0:
204,88,130540,2,0,P|172:124|132:144,1,90,0|8,0:0|0:0,0:0:0:0:
56,188,131040,2,0,P|92:206|124:242,1,90
180,316,131540,1,0,0:0:0:0:
268,320,131790,2,0,P|352:312|404:236,1,180,8|0,0:0|0:0,0:0:0:0:
392,148,132540,5,0,0:0:0:0:
316,100,132790,2,0,P|272:104|228:84,1,90,8|0,0:0|0:0,0:0:0:0:
176,12,133290,2,0,P|140:96|188:164,1,180,0|8,0:0|0:0,0:0:0:0:
276,176,134040,1,0,0:0:0:0:
328,252,134290,6,0,L|280:328,1,90
376,176,134790,2,0,L|424:100,1,90,8|0,0:0|0:0,0:0:0:0:
404,248,135290,2,0,L|480:296,1,90
300,176,135790,2,0,L|224:128,1,90,8|0,0:0|0:0,0:0:0:0:
156,72,136290,5,0,0:0:0:0:
96,140,136540,2,0,P|68:172|52:216,1,90,0|8,0:0|0:0,0:0:0:0:
144,220,137040,1,0,0:0:0:0:
140,308,137290,2,0,P|184:316|232:308,1,90
312,348,137790,2,0,B|372:348|372:228|436:228,1,180,8|0,0:0|0:0,0:0:0:0:
388,148,138540,6,0,P|344:148|304:116,1,90,0|8,0:0|0:0,0:0:0:0:
256,48,139040,1,0,0:0:0:0:
204,121,139290,2,0,P|168:148|124:148,1,90
256,48,139790,2,0,P|292:21|336:21,1,90,8|0,0:0|0:0,0:0:0:0:
416,64,140290,1,0,0:0:0:0:
476,132,140540,6,0,P|476:176|456:220,1,90,0|8,0:0|0:0,0:0:0:0:
372,244,141040,1,0,0:0:0:0:
300,300,141290,2,0,P|232:296|180:336,1,135
180,334,141790,2,0,P|176:292|152:252,1,90,8|0,0:0|0:0,0:0:0:0:
128,164,142290,6,0,P|168:164|212:184,1,90
384,164,142790,2,0,P|344:164|300:184,1,90,8|0,0:0|0:0,0:0:0:0:
128,72,143290,2,0,P|168:72|212:92,1,90
384,72,143790,2,0,P|344:72|300:92,1,90
460,120,144290,5,4,0:0:0:0:
468,208,144540,1,0,0:0:0:0:
456,252,144665,1,0,0:0:0:0:
424,280,144790,1,8,0:0:0:0:
384,300,144915,2,0,L|340:304,1,45
296,300,145165,2,0,P|228:284|164:300,1,135
166,299,145790,2,0,P|160:204|108:136,1,180,8|0,0:0|0:0,0:0:0:0:
156,60,146540,6,0,P|176:52|212:48,1,45
244,48,146790,1,8,0:0:0:0:
288,56,146915,1,0,0:0:0:0:
328,72,147040,2,0,P|388:128|368:216,1,180
369,216,147790,2,0,P|281:228|249:304,1,180,8|0,0:0|0:0,0:0:0:0:
80,292,148790,5,8,0:0:0:0:
48,216,149040,2,0,P|88:144|184:136,1,180
228,208,149790,2,0,P|184:224|140:212,1,90,8|0,0:0|0:0,0:0:0:0:
48,216,150290,5,0,0:0:0:0:
80,292,150540,1,0,0:0:0:0:
168,312,150790,1,8,0:0:0:0:
248,272,151040,1,0,0:0:0:0:
328,312,151290,2,0,P|336:268|320:220,1,90
416,228,151790,2,0,P|322:226|282:158,1,180,8|4,0:0|0:0,0:0:0:0:
416,48,152790,6,0,L|364:40,1,45,8|0,0:0|0:0,0:0:0:0:
328,40,153040,2,0,P|284:48|240:36,1,90
172,96,153540,1,0,0:0:0:0:
100,40,153790,2,0,P|84:128|148:184,1,180,8|0,0:0|0:0,0:0:0:0:
256,328,154790,5,8,0:0:0:0:
300,312,154915,1,0,0:0:0:0:
388,280,155165,1,0,0:0:0:0:
428,264,155290,1,0,0:0:0:0:
468,180,155540,1,0,0:0:0:0:
408,112,155790,2,0,P|368:100|332:68,1,90,8|0,0:0|0:0,0:0:0:0:
256,120,156290,5,0,0:0:0:0:
344,276,156790,1,8,0:0:0:0:
168,276,157290,1,0,0:0:0:0:
256,120,157790,1,8,0:0:0:0:
428,176,158290,5,4,0:0:0:0:
340,156,158540,1,0,0:0:0:0:
256,120,158790,1,12,0:0:0:0:
172,156,159040,1,0,0:0:0:0:
84,176,159290,2,0,P|96:220|84:264,1,90,4|0,0:0|0:0,0:0:0:0:
168,296,159790,1,12,0:0:0:0:
168,296,160290,6,0,P|256:276|344:296,1,180,0|8,0:0|0:0,0:0:0:0:
44,124,176290,6,0,P|80:96|124:84,1,90
200,128,176790,2,0,P|164:156|121:167,1,90,8|0,0:0|0:0,0:0:0:0:
92,200,177165,1,0,0:0:0:0:
68,236,177290,2,0,P|60:280|80:324,1,90
152,272,177790,2,0,P|244:252|288:180,1,180,8|0,0:0|0:0,0:0:0:0:
196,184,178540,5,0,0:0:0:0:
304,100,178790,1,8,0:0:0:0:
428,144,179040,1,0,0:0:0:0:
428,144,179290,1,0,0:0:0:0:
436,232,179540,1,0,0:0:0:0:
436,232,179790,2,0,P|360:272|364:356,1,180,8|0,0:0|0:0,0:0:0:0:
448,320,180540,5,0,0:0:0:0:
364,356,180790,1,8,0:0:0:0:
288,308,181040,1,0,0:0:0:0:
212,260,181290,2,0,P|172:240|128:236,1,90
288,308,181790,2,0,P|340:308|376:296,1,90,8|0,0:0|0:0,0:0:0:0:
352,208,182290,6,0,P|312:176|300:140,1,90
212,140,182790,2,0,P|200:176|160:208,1,90,8|0,0:0|0:0,0:0:0:0:
92,264,183290,2,0,P|49:272|5:260,1,90
52,184,183790,2,0,P|56:140|76:100,1,90,8|0,0:0|0:0,0:0:0:0:
160,68,184290,1,0,0:0:0:0:
212,140,184540,5,0,0:0:0:0:
256,60,184790,2,0,P|300:72|348:56,1,90,8|0,0:0|0:0,0:0:0:0:
428,84,185290,2,0,P|456:140|448:212,1,135
408,228,185790,2,0,P|332:260|312:352,1,180,8|0,0:0|0:0,0:0:0:0:
396,320,186540,5,0,0:0:0:0:
396,320,186790,1,8,0:0:0:0:
256,204,187040,1,0,0:0:0:0:
256,204,187290,1,0,0:0:0:0:
116,320,187540,1,0,0:0:0:0:
116,320,187790,2,0,P|36:296|20:208,1,180,8|0,0:0|0:0,0:0:0:0:
108,192,188540,6,0,P|152:180|180:144,1,90,0|8,0:0|0:0,0:0:0:0:
256,100,189040,1,0,0:0:0:0:
333,146,189290,2,0,P|360:180|404:192,1,90
464,260,189790,2,0,P|420:272|393:305,1,90,8|0,0:0|0:0,0:0:0:0:
221,319,190290,6,0,P|264:320|308:336,1,90
152,264,190790,2,0,P|132:224|97:195,1,90,8|0,0:0|0:0,0:0:0:0:
5,43,191290,2,0,P|40:72|60:112,1,90
98,195,191790,2,0,P|138:171|166:131,1,90
256,192,192165,12,0,193790,0:0:0:0:
