osu file format v12

[General]
AudioFilename: HyunA - Bubble Pop!.mp3
AudioLeadIn: 0
PreviewTime: -1
Countdown: 0
SampleSet: None
StackLeniency: 0.3
Mode: 0
LetterboxInBreaks: 0
WidescreenStoryboard: 0

[Editor]
Bookmarks: 20337
DistanceSpacing: 1
BeatDivisor: 2
GridSize: 8

[Metadata]
Title:Bubble Pop!
TitleUnicode:Bubble Pop!
Artist:HyunA
ArtistUnicode:HyunA
Creator:Fuuko
Version:Dusty
Source:
Tags:Dusty
BeatmapID:291256
BeatmapSetID:36394

[Difficulty]
HPDrainRate:3
CircleSize:3
OverallDifficulty:5
ApproachRate:5
SliderMultiplier:1.1
SliderTickRate:2

[Events]
//Background and Video events
0,0,"Background.jpg",0,0
//Break Periods
2,73139,84890
2,142180,165438
//Storyboard Layer 0 (Background)
//Storyboard Layer 1 (Fail)
//Storyboard Layer 2 (Pass)
//Storyboard Layer 3 (Foreground)
//Storyboard Sound Samples
//Background Colour Transformations
3,100,163,162,255

[TimingPoints]
611,410.958904109589,4,2,1,70,1,0
46638,-100,4,2,1,70,0,1
72939,-100,4,2,1,70,0,0

[Colours]
Combo1 : 255,150,0
Combo2 : 240,5,5

[HitObjects]
64,96,7186,2,0,B|184:96,1,110
232,192,8008,2,0,B|122:192,1,110
184,288,8830,2,0,B|304:288,1,110
368,368,9652,2,0,B|456:352|504:280|488:192,1,220
392,160,10884,6,0,B|336:56,2,110
172,63,12528,2,0,B|120:160,2,110
256,136,13761,6,0,B|256:256,1,110
336,328,14583,2,0,B|336:218,1,110
256,272,15405,2,0,B|256:382,1,110
144,368,16227,2,0,B|56:352|8:280|24:192,1,220
120,160,17460,6,0,B|176:56,2,110
192,240,18693,2,0,B|281:74,2,165
104,312,20337,6,0,B|160:368|288:352|304:272,1,220
408,88,21980,2,0,B|352:32|224:48|208:128,1,220
144,192,23213,1,0,0:0:0:0:
256,200,23624,1,0,0:0:0:0:
376,344,24446,6,0,B|432:288|416:160|336:144,1,220
136,40,26089,2,0,B|80:96|96:224|176:240,1,220
256,280,27323,5,0,0:0:0:0:
256,168,27734,2,0,B|224:80|224:80|320:80,2,165
200,264,29378,1,0,0:0:0:0:
256,360,29789,1,0,0:0:0:0:
312,264,30200,1,0,0:0:0:0:
256,168,30610,5,0,0:0:0:0:
168,104,31021,2,0,B|184:56|256:24|328:56|344:104,3,220
456,120,33898,5,0,0:0:0:0:
376,192,34309,2,0,B|408:248|472:248,1,110
352,288,35131,2,0,B|346:352|398:388,1,110
288,216,35953,2,0,B|293:151|241:115,1,110
192,200,36775,1,0,0:0:0:0:
104,264,37186,5,0,0:0:0:0:
8,248,37597,2,0,B|3:313|55:349,1,110
104,264,38419,1,0,0:0:0:0:
208,304,38830,5,0,0:0:0:0:
192,200,39241,1,0,0:0:0:0:
88,160,39652,1,0,0:0:0:0:
32,64,40063,2,0,B|144:32|216:80|320:128|424:96,1,385
304,304,42528,5,0,0:0:0:0:
320,200,42939,1,0,0:0:0:0:
424,160,43350,1,0,0:0:0:0:
224,240,44172,5,0,0:0:0:0:
128,184,44583,1,0,0:0:0:0:
176,88,44994,2,0,B|256:56|336:88,2,165
256,168,46638,6,0,B|256:288,1,110
344,216,47460,2,0,B|344:288,2,55
336,104,48282,2,0,B|440:96|496:192,2,165
256,168,49926,2,0,B|256:288,1,110
168,216,50748,6,0,B|168:288,2,55
176,104,51569,2,0,B|72:96|16:192,2,165
256,24,53213,2,0,B|256:136,1,110
256,248,54035,6,0,B|256:328,2,55
190,345,54857,2,0,B|201:380|255:404|309:380|321:345,2,165
144,240,56501,6,0,B|72:240|32:288,2,110,0|0|0,0:0|0:0|0:0,0:0:0:0:
256,224,57734,1,0,0:0:0:0:
368,240,58145,2,0,B|440:240|480:288,2,110
256,224,59378,1,0,0:0:0:0:
256,224,59789,6,0,B|256:104,1,110
168,176,60611,2,0,B|168:104,2,55
176,288,61433,2,0,B|72:296|16:200,2,165
256,224,63077,6,0,B|256:104,1,110
344,176,63899,2,0,B|344:104,2,55
336,288,64720,2,0,B|440:296|496:200,2,165
256,368,66364,6,0,B|256:256,1,110
256,144,67186,2,0,B|256:64,2,55
322,47,68008,2,0,B|311:12|257:-12|203:12|191:47,2,165
368,152,69652,6,0,B|440:152|480:104,2,110
256,168,70885,1,0,0:0:0:0:
144,152,71296,2,0,B|72:152|32:104,2,110
256,168,72529,1,0,0:0:0:0:
256,168,72939,1,4,0:0:0:0:
80,128,86090,6,0,B|96:56|160:32,1,110
176,144,86912,2,0,B|160:216|96:240,1,110,0|0,0:0|0:0,0:0:0:0:
204,264,87734,2,0,B|255:234|307:264,1,110
205,351,88556,2,0,B|256:380|308:351,1,110
397,231,89378,6,0,B|352:216|336:144,1,110,0|0,0:0|0:0,0:0:0:0:
370,40,90200,2,0,B|416:56|432:128,1,110
256,120,91843,6,0,B|256:240,1,110
256,344,92665,2,0,B|376:344|416:256,1,165
256,40,93898,2,0,B|136:40|96:128,1,165
256,264,95131,6,0,B|256:144,2,110
256,376,96364,1,0,0:0:0:0:
152,336,96775,2,0,B|88:232,1,110
184,176,97597,2,0,B|152:72|48:64,2,165
280,128,99241,6,0,B|320:24,1,110
416,72,100063,2,0,B|376:176,1,110
472,224,100884,2,0,B|511:326,1,110
408,376,101706,2,0,B|368:273,1,110
256,280,102528,1,0,0:0:0:0:
143,273,102939,6,0,B|104:376,1,110
0,326,103761,2,0,B|40:224,1,110
135,174,104582,2,0,B|96:72,1,110
192,25,105404,2,0,B|232:128,1,110
336,88,106227,5,0,0:0:0:0:
312,192,106638,2,0,B|368:216|440:208|480:160,2,165
208,232,108282,5,0,0:0:0:0:
304,288,108693,1,0,0:0:0:0:
256,384,109104,1,0,0:0:0:0:
256,72,109926,5,0,0:0:0:0:
304,168,110337,1,0,0:0:0:0:
200,208,110747,2,0,B|144:184|72:192|32:240,2,165
288,272,112391,2,0,B|304:344|376:352,1,110
472,352,113213,6,0,B|456:280|384:272,1,110
344,184,114035,2,0,B|368:112|432:136|456:64,2,165
224,144,115679,2,0,B|208:72|136:64,1,110
40,64,116501,2,0,B|56:136|128:144,1,110
168,232,117323,2,0,B|144:304|80:280|56:352,2,165
256,304,118967,2,0,B|256:152,1,110
256,80,119789,2,0,B|256:24,2,55
352,112,120610,6,0,B|424:176|376:264|456:328,1,220
504,224,121843,5,0,0:0:0:0:
456,128,122254,1,0,0:0:0:0:
360,184,122665,1,0,0:0:0:0:
320,288,123076,1,0,0:0:0:0:
256,376,123487,1,0,0:0:0:0:
192,288,123898,5,0,0:0:0:0:
152,184,124309,1,0,0:0:0:0:
56,128,124720,1,0,0:0:0:0:
8,224,125131,1,0,0:0:0:0:
109,275,125542,2,0,B|56:280|40:352,1,110
154,348,126364,2,0,B|208:344|224:272,1,110
168,184,127186,2,0,B|144:112|80:136|56:64,2,165
288,144,128830,2,0,B|304:72|376:64,1,110
472,64,129652,2,0,B|456:136|384:144,1,110
344,232,130474,2,0,B|368:304|432:280|456:352,2,165
256,304,132118,2,0,B|256:152,1,110
256,80,132940,2,0,B|256:24,2,55
160,112,133761,2,0,B|88:176|136:264|56:328,1,220
8,224,134994,1,0,0:0:0:0:
56,128,135405,1,0,0:0:0:0:
152,184,135816,1,0,0:0:0:0:
192,288,136227,1,0,0:0:0:0:
256,376,136638,1,0,0:0:0:0:
320,288,137049,1,0,0:0:0:0:
360,184,137460,1,0,0:0:0:0:
456,128,137871,1,0,0:0:0:0:
504,224,138282,1,0,0:0:0:0:
256,192,138693,12,0,141980,0:0:0:0:
256,192,166638,12,0,168282,0:0:0:0:
256,192,169104,5,0,0:0:0:0:
88,336,169926,2,0,B|24:264|24:160,2,165
192,376,171569,1,0,0:0:0:0:
256,192,172391,5,0,0:0:0:0:
424,336,173213,2,0,B|488:264|488:160,2,165
320,376,174856,1,0,0:0:0:0:
136,256,175679,1,0,0:0:0:0:
96,40,176501,2,0,B|200:56|256:120|312:56|416:40,1,330
376,144,178145,5,0,0:0:0:0:
472,192,178556,1,0,0:0:0:0:
424,288,178967,1,0,0:0:0:0:
328,240,179378,1,0,0:0:0:0:
184,240,179789,5,0,0:0:0:0:
88,288,180200,1,0,0:0:0:0:
40,192,180611,1,0,0:0:0:0:
136,144,181022,1,0,0:0:0:0:
