osu file format v5

[General]
AudioFilename: Moonnight of Silla.mp3
AudioLeadIn: 0
PreviewTime: -1
Countdown: 1
SampleSet: Normal
StackLeniency: 0.7
Mode: 0
LetterboxInBreaks: 1

[Metadata]
Title:Moonlight night of Silla
Artist:Hyun Yin
Creator:korean ouendan
Version:Easy
Source:
Tags:

[Difficulty]
HPDrainRate:5
CircleSize:5
OverallDifficulty:5
SliderMultiplier:0.6
SliderTickRate:0.5

[Events]
//Background and Video events
0,0,"Moonnight of Silla.jpg.jpg"
//Break Periods
2,75672,95988
//Storyboard Layer 0 (Background)
//Storyboard Layer 1 (Failing)
//Storyboard Layer 2 (Passing)
//Storyboard Layer 3 (Foreground)
//Storyboard Sound Samples
//Background Colour Transformations
3,100,163,162,255

[TimingPoints]
19292,741.656365883807,4,1,0,100,1
25225,185.414091470952,4,1,0,100,1

[HitObjects]
256,192,25225,2,0,L|256:352|80:192|256:32|448:192|368:280,1,960
56,296,30045,2,0,B|312:296,2,240
128,72,34124,5,0
360,72,35608,1,2
360,296,37091,1,0
128,296,38574,1,2
168,192,40058,5,2
264,192,40799,1,2
344,240,41541,1,0
344,304,43210,1,8
256,304,43951,1,8
168,304,44693,1,8
160,104,46362,5,0
256,192,47103,1,0
255,299,47845,1,4
424,304,49143,1,0
424,192,49885,1,0
424,80,50626,1,0
424,248,52110,6,0,B|424:344|256:344|256:32|56:32|56:352|160:264|376:72|496:200|48:296,1,720
104,248,54705,1,2
104,216,55076,1,2
184,72,56194,1,4
352,192,58043,5,0
352,288,58784,1,0
256,288,59526,1,0
144,288,60268,1,0
144,192,61009,1,0
56,56,63976,6,0,B|480:64|480:328|40:328|48:104|480:40,1,840
416,48,66943,6,0,B|184:78|184:286|424:318,1,480
96,304,69909,5,0
104,72,71393,1,2
256,192,71949,12,4,75472
72,80,97165,6,0,L|400:80|400:272,2,480
72,152,100873,1,0
136,312,101986,5,4
256,240,102728,1,4
384,312,103469,1,4
88,72,106436,5,0
256,72,107919,1,0
408,72,109402,2,0,B|408:328,3,240
336,312,112369,6,4,B|528:152|528:16|280:8|176:96|96:192|112:280|296:288,1,720
152,320,115521,1,8
152,192,116263,1,8
296,192,117004,1,4
64,56,118488,6,2,B|352:136|312:336,2,360
224,64,121454,1,10
256,192,122196,1,10
352,112,122938,1,4
456,328,124393,6,4,B|200:320|480:96,2,360
344,288,127374,1,0
456,192,128119,1,0
312,144,128865,1,0
192,72,130354,5,4
192,192,131096,1,4
112,192,131838,5,0
112,72,132579,1,0
192,40,133321,6,2,B|456:112|160:312,1,360
368,176,135546,1,2
408,64,136288,6,0,B|96:48|56:336,1,480
184,304,139254,2,0,B|400:352|480:160,1,360
408,152,140790,1,8
408,72,142221,6,0,B|416:352|64:352|344:56,1,540
192,64,144631,5,8
240,312,148339,5,0
240,192,149823,1,0
240,312,151306,1,0
160,312,152048,6,0,B|160:176,2,120
136,312,152975,2,0,B|248:128|512:64|440:336|296:328,1,480
160,104,157425,5,0
352,168,158908,1,0
224,168,159650,1,0
128,256,160391,2,0,B|424:256,2,240
64,192,163358,5,0
352,192,165398,1,0
352,192,165768,1,0
352,192,166510,2,4,B|344:304|144:288,2,240
56,192,169486,5,0
344,192,171702,1,0
344,272,172443,2,4,B|160:272|152:168,2,240
248,160,175410,6,8,B|72:160,3,120
128,160,176893,1,8
128,160,178377,6,2,B|152:280|472:32,1,360
432,63,179860,1,2
432,192,181343,6,4,B|16:192,1,360
72,192,184495,2,0,B|480:192,1,360
432,264,187462,5,0
432,264,188945,1,10
432,192,190428,5,0
432,192,191912,1,10
416,136,193395,6,4,B|192:64|120:264|376:264|480:176,1,480
472,192,195620,6,4,B|32:192,1,420
