osu file format v5

[General]
AudioFilename: Hysteric Blue - Haru -spring-.mp3
AudioLeadIn: 1468
PreviewTime: -1
Countdown: 0
SampleSet: Normal
StackLeniency: 0.7
Mode: 0
LetterboxInBreaks: 1

[Metadata]
Title:Haru -spring-
Artist:Hysteric Blue
Creator:James
Version:Hard
Source:
Tags:

[Difficulty]
HPDrainRate:5
CircleSize:4
OverallDifficulty:7
SliderMultiplier:1.6
SliderTickRate:1

[Events]
//Background and Video events
0,0,"carnival.jpg"
//Break Periods
//Storyboard Layer 0 (Background)
//Storyboard Layer 1 (Failing)
//Storyboard Layer 2 (Passing)
//Storyboard Layer 3 (Foreground)
//Storyboard Sound Samples
//Background Colour Transformations
3,100,255,255,255

[TimingPoints]
578,683.760683760684,4,1,0,100,1
14253,683.760683760684,4,2,0,100,1
33398,683.760683760684,4,1,0,100,1
68953,341.880341880342,4,1,0,100,1

[Colours]
Combo1 : 255,255,0
Combo2 : 5,240,5
Combo3 : 5,5,240
Combo4 : 240,5,5

[HitObjects]
144,128,578,2,0,L|248:128,1,80
296,160,1261,2,0,L|320:272,1,80,0|0
264,304,1945,1,0
192,264,2287,2,0,L|88:256,2,80,0|0|0
216,184,3313,2,0,L|320:184,1,80
336,184,3825,1,0
376,184,3996,2,0,L|400:80,1,80,0|0
320,64,4680,5,0
248,104,5022,5,0
176,64,5364,5,0
112,112,5706,5,0
160,176,6048,6,0,L|272:176,1,80
208,248,6731,2,0,L|96:248,1,80,0|0
64,304,7415,1,0
128,344,7757,2,0,L|240:344,2,80,0|0|0
160,272,8783,2,0,L|160:160,1,80,0|0
184,160,9295,1,0
224,160,9466,2,0,L|336:160,1,80
368,200,10150,5,0
336,272,10492,1,0
256,248,10834,1,0
176,272,11176,1,0
144,200,11518,1,0
336,120,12201,6,0,L|152:120,1,160
416,256,14253,5,2
104,96,15620,1,0
168,272,16987,1,2
400,120,19209,5,0
400,120,19380,1,0
400,120,19550,1,0
400,120,19721,2,0,B|384:176|344:224|280:240|232:200|224:136|264:48,1,320,0|2
136,48,21601,5,0
112,88,21772,1,0
104,136,21943,1,0
120,184,22114,1,0
144,224,22285,1,0
168,264,22456,2,0,B|232:232|296:264,1,120,2|2
368,208,23310,1,0
368,208,23481,1,2
320,128,23823,2,0,B|144:128,1,160,0|0
104,48,24848,5,0
152,48,25019,1,0
200,48,25190,2,0,B|168:104|216:120|192:176,1,120,2|2
232,344,26045,1,0
272,320,26216,1,0
296,280,26386,1,0
280,232,26557,1,2
240,200,26728,1,0
144,184,27070,1,2
88,104,27412,1,0
120,72,27583,1,0
160,96,27754,1,0
192,64,27925,1,2
232,96,28095,2,0,B|312:168,1,80,0|2
360,208,28779,5,0
360,208,28950,1,2
296,280,29292,1,2
200,272,29634,1,0
128,208,29975,1,2
128,208,30146,5,0
128,208,30317,1,0
128,208,30488,1,0
128,208,30659,2,0,B|320:208,1,160,2|2
376,168,31684,1,0
312,96,32026,1,0
208,192,32539,1,0
72,136,33052,1,0
56,232,33398,5,0
120,304,33739,1,2
312,304,34423,1,2
384,240,34765,1,0
320,168,35107,1,2
256,192,35278,12,0,35962
112,280,36474,6,0,B|296:280,1,160,4|2
320,240,37329,1,0
272,200,37500,1,0
344,104,37842,1,2
424,192,38184,1,0
432,248,38355,1,0
384,288,38526,1,2
280,352,38868,5,0
160,352,39209,1,2
40,320,39551,1,0
80,280,39722,1,0
64,224,39893,1,2
32,104,40235,1,0
152,96,40577,5,2
272,88,40919,1,0
392,80,41261,1,2
392,200,41603,2,0,B|392:312,1,80,0|2
280,320,42286,2,0,B|280:224,1,80,0|2
168,184,42970,2,0,B|168:280,1,80,0|2
56,320,43654,1,0
40,200,43996,1,2
104,104,44338,2,0,B|200:110|240:232,1,160
264,312,45363,1,0
264,312,45534,1,0
256,192,46218,12,0,46902
256,192,47415,6,0,B|292:145|146:143|200:64,1,160,4|2
256,32,48269,1,0
312,72,48440,1,0
448,64,48782,1,2
336,144,49124,1,0
392,176,49295,1,0
384,240,49466,1,2
272,312,49808,5,0
176,216,50150,1,2
272,120,50492,1,0
208,96,50662,1,0
144,72,50833,1,2
40,160,51175,1,0
104,280,51517,5,2
208,192,51859,1,0
224,256,52030,1,0
240,320,52201,1,2
352,248,52543,2,0,B|432:200,1,80,0|2
368,80,53227,1,0
240,128,53568,1,2
168,240,53910,2,0,B|272:296,1,80,0|2
360,336,54594,1,0
456,240,54936,1,2
368,136,55278,2,0,B|280:120|256:192|200:176,1,160,0|0
80,176,56303,1,0
80,176,56474,1,0
80,176,56645,5,0
160,312,56987,5,0
312,352,57329,5,0
456,288,57671,5,0
392,136,58013,5,0
392,136,58184,2,0,B|272:136,1,80
216,96,58697,1,0
136,152,58953,1,0
136,152,59209,2,0,B|136:208,1,40
216,280,59637,1,0
328,304,59893,1,0
328,304,60064,2,0,B|368:248,1,60
344,136,60577,5,0
344,136,60748,1,0
232,176,61004,2,0,B|192:240,1,60,0|0
200,224,61432,1,0
96,184,61688,1,0
184,112,61945,1,0
184,112,62115,2,0,B|208:184,1,60
320,160,62628,1,0
320,160,62799,1,0
176,224,63141,1,0
176,224,63312,1,0
176,224,63483,2,0,B|236:98|331:92|405:171|424:232,1,320
256,192,65363,12,0,67585
256,192,68611,1,4
392,280,68953,2,0,B|440:200|368:104,1,160,0|2
232,72,69636,1,0
192,144,69807,1,0
232,208,69978,1,2
200,280,70149,1,0
232,352,70320,2,0,B|300:294|392:336,1,160,0|2
440,184,71004,1,0
312,88,71346,1,2
176,176,71688,2,0,B|264:155|320:194|320:272|272:328,1,240
120,336,72542,1,0
40,192,72884,1,0
40,192,73055,6,0,B|184:104,1,160,0|2
328,152,73739,1,0
328,152,73910,1,0
328,152,74081,6,0,C|328:259|264:272,1,160,2|0
120,272,74764,1,2
40,128,75106,1,0
120,120,75277,1,0
200,112,75448,1,2
280,104,75619,1,0
360,96,75790,2,0,C|424:264,1,160,0|2
280,336,76474,1,0
224,184,76816,1,2
144,40,77158,2,0,B|50:79|72:200,1,160
256,192,78012,12,0,78867
256,64,79380,1,0
256,64,79551,1,0
256,64,79722,1,0
352,72,79893,6,0,B|328:176|216:144,1,160,0|2
160,352,80576,1,0
208,272,80747,1,0
224,176,80918,1,2
192,88,81089,1,0
120,24,81260,2,0,B|95:114|16:152,1,160,0|2
248,192,81944,1,0
384,360,82286,2,0,B|409:270|488:232,1,160,2|0
480,192,83141,5,0
256,192,83482,1,0
32,192,83824,1,0
256,360,85021,5,0
256,360,85192,5,0
256,360,85363,5,0
256,192,85534,12,0,86730
112,72,87414,1,0
208,72,87585,1,0
304,72,87756,1,0
400,72,87927,1,0
256,192,88098,12,0,88782
256,192,88867,12,0,89465
392,96,89807,1,2
312,144,89978,1,0
312,144,90064,1,0
312,144,90149,2,0,C|312:256|248:256,1,160,0|2
80,216,90833,6,0,C|122:184|80:136|128:104,1,160,0|2
200,80,91346,1,0
200,80,91431,1,0
200,80,91517,2,0,C|254:98|256:208,1,160,0|2
256,352,92200,5,0
328,288,92371,1,0
256,224,92542,1,2
328,160,92713,1,0
328,160,92799,1,0
328,160,92884,2,0,C|405:191|432:264,1,160,0|2
248,320,93568,6,0,C|168:256,1,80
185,270,93910,1,6
264,64,94252,6,0,C|344:128,1,80
327,114,94594,1,6
464,336,94935,5,0
368,336,95106,1,0
272,336,95277,1,2
200,264,95448,1,0
200,264,95534,1,0
200,264,95619,1,0
136,336,95790,1,0
40,336,95961,1,2
48,48,96303,5,0
144,48,96474,1,0
240,48,96645,1,2
312,120,96816,1,0
312,120,96901,1,0
312,120,96987,1,0
376,48,97158,1,0
472,48,97329,1,2
464,232,97670,5,0
392,296,97841,1,0
336,216,98012,1,2
296,128,98183,1,0
224,184,98354,1,0
144,232,98525,1,0
56,192,98696,1,2
176,40,99038,6,0,C|248:84|224:184,1,160
144,328,99722,1,0
272,168,100064,1,0
272,168,100149,1,0
272,168,100235,1,0
272,168,100320,1,0
272,168,100405,1,0
376,328,100747,1,0
