osu file format v14

[General]
AudioFilename: EOL 1-08 Foresight Is for Losers (Ralph's Theme) [Hylian Lemon].mp3
AudioLeadIn: 0
PreviewTime: 85850
Countdown: 0
SampleSet: Soft
StackLeniency: 0.7
Mode: 2
LetterboxInBreaks: 0
WidescreenStoryboard: 0

[Editor]
DistanceSpacing: 1.6
BeatDivisor: 4
GridSize: 4
TimelineZoom: 1

[Metadata]
Title:Foresight Is for Losers
TitleUnicode:Foresight Is for Losers
Artist:Hylian Lemon
ArtistUnicode:Hylian Lemon
Creator:ZiRoX
Version:Salad
Source:The Legend of Zelda: Oracle of Ages
Tags:MBC10 Deif Essence of Lime Ralph's Theme Koji Kondo 近藤浩治 Nintendo no Densetsu Fushigi Kinomi Jikuu Shou Game Boy Capcom ゼルダの伝説 ふしぎの木の実 時空の章 Ben Hoffman
BeatmapID:757540
BeatmapSetID:342751

[Difficulty]
HPDrainRate:5
CircleSize:3
OverallDifficulty:6
ApproachRate:6
SliderMultiplier:1.4
SliderTickRate:1

[Events]
//Background and Video events
0,0,"14775932493_01b36cfe57_o.jpg",0,0
//Break Periods
2,80207,86300
2,114630,118474
2,144459,146209
//Storyboard Layer 0 (Background)
//Storyboard Layer 1 (Fail)
//Storyboard Layer 2 (Pass)
//Storyboard Layer 3 (Foreground)
//Storyboard Sound Samples

[TimingPoints]
-20,375,4,2,0,60,1,0
1480,375,4,2,0,60,1,0
1761,-100,4,2,0,40,0,0
1855,-100,4,2,0,60,0,0
3261,-100,4,2,0,40,0,0
3355,-100,4,2,0,60,0,0
4761,-100,4,2,0,40,0,0
4855,-100,4,2,0,60,0,0
6261,-100,4,2,0,40,0,0
6355,-100,4,2,0,60,0,0
10480,-100,4,2,0,70,0,0
11980,-100,4,2,0,60,0,0
13105,-100,4,2,0,60,0,0
13480,-100,4,3,0,60,0,0
16480,-133.333333333333,4,3,0,60,0,0
19292,-100,4,3,0,60,0,0
25480,-100,4,1,0,50,0,1
37480,-100,4,3,0,40,0,0
43480,-100,4,3,0,60,0,0
48730,-100,4,3,0,50,0,0
49480,-133.333333333333,4,2,0,40,0,0
52480,-133.333333333333,4,3,0,50,0,0
55480,-133.333333333333,4,2,0,40,0,0
58480,-133.333333333333,4,3,0,50,0,0
61480,-133.333333333333,4,2,0,50,0,0
63730,-133.333333333333,4,1,0,25,0,0
64105,-133.333333333333,4,2,0,50,0,0
67480,-100,4,3,0,50,0,0
76480,-133.333333333333,4,3,0,60,0,0
77042,-133.333333333333,4,3,0,55,0,0
77605,413.793103448276,4,3,0,50,1,0
77605,-133.333333333333,4,3,0,50,0,0
78225,521.739130434783,4,3,0,50,1,0
78225,-133.333333333333,4,3,0,50,0,0
79007,666.666666666667,4,3,0,40,1,0
79007,-133.333333333333,4,3,0,40,0,0
80007,685.714285714286,4,3,0,30,1,0
81035,315.789473684211,4,1,0,60,1,0
81350,375,4,3,0,40,1,0
87350,-100,4,1,0,50,0,1
93350,-100,4,3,0,40,0,0
97850,-100,4,3,0,70,0,0
99350,-100,4,2,0,50,0,0
99912,-100,4,2,0,30,0,0
100850,-100,4,2,0,50,0,0
101412,-100,4,2,0,30,0,0
102350,-100,4,2,0,40,0,0
102912,-100,4,2,0,50,0,0
103850,-100,4,2,0,70,0,0
105350,-100,4,1,0,60,0,1
112850,-100,4,3,0,50,0,0
113225,-100,4,3,0,40,0,0
113600,-100,4,3,0,30,0,0
113975,-100,4,3,0,20,0,0
114350,-100,4,3,0,10,0,0
114430,566.037735849057,4,2,0,10,1,0
114996,566.037735849057,4,2,0,50,1,0
114996,-133.333333333333,4,2,0,50,0,0
120373,-133.333333333333,4,2,0,50,0,0
120656,-133.333333333333,4,2,0,50,0,0
122920,-133.333333333333,4,2,0,50,0,0
123062,-133.333333333333,4,2,0,50,0,0
125184,-133.333333333333,4,2,0,25,0,0
125326,-133.333333333333,4,2,0,50,0,0
125750,-133.333333333333,4,3,0,60,0,0
126316,-133.333333333333,4,2,0,50,0,0
127448,-133.333333333333,4,2,0,25,0,0
127590,-133.333333333333,4,2,0,50,0,0
128014,-133.333333333333,4,3,0,60,0,0
128580,545.454545454546,4,2,0,50,1,0
129125,526.315789473684,4,2,0,55,1,0
129651,491.803278688525,4,2,0,60,1,0
130142,461.538461538462,4,2,0,65,1,0
130603,441.176470588235,4,2,0,70,1,0
131044,428.571428571429,4,2,0,75,1,0
131472,400,4,2,0,80,1,0
131872,387.096774193548,4,2,0,85,1,0
132259,375,4,1,0,60,1,1
144259,-100,4,2,0,60,0,0
147259,-100,4,1,0,50,0,1
152509,-100,4,1,0,35,0,1
153259,-100,4,1,0,50,0,1
158602,-100,4,1,0,40,0,1
159259,-100,4,3,0,50,0,0
163759,375,4,3,0,50,1,0
164134,397.350993377483,4,3,0,60,1,0
164928,416.666666666667,4,3,0,60,1,0
165761,451.127819548872,4,3,0,60,1,0
166663,480,4,3,0,60,1,0
167623,508.474576271186,4,3,0,60,1,0
168131,517.241379310345,4,3,0,60,1,0
168648,560.747663551402,4,3,0,60,1,0
169208,582.52427184466,4,3,0,60,1,0
169499,645.161290322581,4,3,0,60,1,0
169821,714.285714285714,4,3,0,60,1,0
170178,833.333333333333,4,3,0,60,1,0
170594,882.352941176471,4,3,0,60,1,0
171035,1090.90909090909,4,3,0,60,1,0
171580,1176.47058823529,4,3,0,30,1,0

[Colours]
Combo1 : 255,145,91
Combo2 : 255,255,128

[HitObjects]
352,256,1480,6,0,L|452:188,2,105,6|2|0,0:0|0:0|0:0,0:0:0:0:
200,264,2417,1,0,0:0:0:0:
136,212,2605,1,8,0:0:0:0:
332,256,2980,6,0,L|412:168,2,105,2|2|0,0:0|0:0|0:0,0:0:0:0:
176,264,3917,1,0,0:0:0:0:
248,196,4105,1,8,0:0:0:0:
72,260,4480,6,0,L|-8:172,2,105,4|2|0,0:0|0:0|0:0,0:0:0:0:
216,268,5417,1,0,0:0:0:0:
280,208,5605,1,8,0:0:0:0:
100,260,5980,6,0,L|20:172,2,105,2|2|0,0:0|0:0|0:0,0:0:0:0:
252,268,6917,1,0,0:0:0:0:
192,196,7105,1,10,0:0:0:0:
388,256,7480,6,0,P|308:156|212:152,1,210,4|0,0:0|0:0,0:0:0:0:
76,272,8417,1,0,0:0:0:0:
156,272,8605,1,8,0:0:0:0:
336,280,8980,6,0,P|400:232|400:168,1,140,2|10,0:0|0:0,0:0:0:0:
392,128,9542,2,0,L|368:56,1,70,0|2,0:0|0:0,0:0:0:0:
172,68,10105,1,10,0:0:0:0:
324,64,10480,6,0,L|348:160,1,70,2|0,0:0|0:0,0:0:0:0:
256,112,10855,2,0,L|232:208,1,70,10|0,0:0|0:0,0:0:0:0:
344,144,11230,2,0,L|368:240,1,70,2|2,0:0|0:0,0:0:0:0:
236,200,11605,2,0,L|212:296,1,70,8|2,0:0|0:0,0:0:0:0:
204,340,11980,5,2,0:0:0:0:
396,308,12355,1,2,0:0:0:0:
168,264,12730,1,2,0:0:0:0:
108,256,12917,1,2,0:0:0:0:
52,248,13105,1,10,0:0:0:0:
281,268,13480,6,0,L|328:136,1,140,10|4,0:0|0:0,0:0:0:0:
416,136,14042,1,0,0:0:0:0:
504,144,14230,2,0,L|460:277,1,140,8|4,0:0|0:0,0:0:0:0:
248,128,14980,6,0,L|168:256,1,140,8|4,0:0|0:0,0:0:0:0:
96,248,15542,1,0,0:0:0:0:
172,184,15730,2,0,L|247:66,1,140,8|4,0:0|0:0,0:0:0:0:
404,232,16480,6,0,L|375:78,1,157.500006008148,8|0,0:0|0:0,0:0:0:0:
244,240,17230,2,0,L|273:85,1,157.500006008148,8|0,0:0|0:0,0:0:0:0:
136,80,17980,6,0,L|104:248,1,157.500006008148,8|0,0:0|0:0,0:0:0:0:
252,240,18730,2,0,L|281:85,1,157.500006008148,8|0,0:0|0:0,0:0:0:0:
176,80,19480,6,0,L|88:192,2,140,8|4|8,0:0|0:0|0:0,0:0:0:0:
268,76,20417,1,0,0:0:0:0:
372,76,20605,1,4,0:0:0:0:
80,80,20980,6,0,L|182:175,2,140,10|4|8,0:0|0:0|0:0,0:0:0:0:
196,76,21917,1,0,0:0:0:0:
324,76,22105,1,4,0:0:0:0:
160,256,22480,6,0,L|272:160,1,140,8|4,0:0|0:0,0:0:0:0:
72,196,23230,2,0,L|184:100,1,140,10|6,0:0|0:0,0:0:0:0:
452,136,23980,6,0,L|340:40,1,140,2|2,0:0|0:0,0:0:0:0:
188,52,24730,2,0,L|108:100,1,70,2|0,0:0|0:0,0:0:0:0:
28,132,25105,2,0,L|108:180,1,70,8|8,0:0|0:0,0:0:0:0:
232,172,25480,6,0,L|372:88,1,140,4|8,0:1|0:0,0:0:0:0:
100,52,26230,2,0,L|180:100,1,70
240,116,26605,2,0,L|192:192,1,70,8|0,0:0|0:0,0:0:0:0:
344,208,26980,6,0,L|414:328,1,140,6|8,0:3|0:0,0:0:0:0:
184,340,27730,2,0,L|104:292,1,70,0|0,0:0|0:0,0:0:0:0:
40,276,28105,2,0,L|92:200,1,70,8|0,0:0|0:0,0:0:0:0:
192,188,28480,6,0,L|264:136,2,70,6|0|8,0:3|0:0|0:0,0:0:0:0:
400,204,29230,2,0,L|472:140,2,70,6|0|8,0:3|0:0|0:0,0:0:0:0:
212,284,29980,5,0,0:0:0:0:
372,288,30355,1,6,0:3:0:0:
136,152,30730,1,0,0:0:0:0:
208,152,30917,1,0,0:0:0:0:
280,152,31105,1,8,0:0:0:0:
112,152,31480,6,0,L|52:224,2,70,4|0|8,0:0|0:0|0:0,0:0:0:0:
280,152,32230,2,0,L|320:232,1,70,0|0,0:0|0:0,0:0:0:0:
280,224,32605,2,0,L|320:304,1,70,8|0,0:0|0:0,0:0:0:0:
456,288,32980,6,0,L|489:350,2,70,6|0|8,0:3|0:0|0:0,0:0:0:0:
232,224,33730,2,0,L|200:162,1,70,0|0,0:0|0:0,0:0:0:0:
304,152,34105,2,0,L|272:90,1,70,8|0,0:0|0:0,0:0:0:0:
156,80,34480,6,0,L|108:160,2,70,6|0|8,0:3|0:0|0:0,0:0:0:0:
396,200,35230,2,0,L|436:288,2,70,6|0|8,0:3|0:0|0:0,0:0:0:0:
216,328,35980,5,6,0:3:0:0:
384,328,36355,1,8,0:0:0:0:
344,328,36448,1,0,0:0:0:0:
304,328,36542,1,0,0:0:0:0:
256,328,36636,1,0,0:0:0:0:
216,328,36730,1,2,0:2:0:0:
468,328,37105,1,8,0:0:0:0:
272,304,37480,6,0,L|176:176,1,140,4|2,0:0|0:0,0:0:0:0:
272,244,38042,2,0,L|176:116,1,140,4|2,0:0|0:0,0:0:0:0:
304,200,38605,1,2,0:0:0:0:
80,304,38980,6,0,L|176:176,1,140,4|2,0:0|0:0,0:0:0:0:
272,196,39542,2,0,L|176:68,1,140,4|0,0:0|0:0,0:0:0:0:
96,36,40105,1,2,0:0:0:0:
376,76,40480,6,0,L|448:196,1,140,4|0,0:0|0:0,0:0:0:0:
344,200,41042,2,0,L|272:320,1,140,4|0,0:0|0:0,0:0:0:0:
384,368,41605,1,4,0:0:0:0:
112,364,42167,1,0,0:0:0:0:
426,243,42730,2,0,L|440:104,1,140,4|4,0:0|0:0,0:0:0:0:
200,240,43480,6,0,L|128:200,2,70,12|0|2,0:0|0:0|0:0,0:0:0:0:
296,240,44042,2,0,L|200:112,1,140,12|2,0:0|0:0,0:0:0:0:
300,80,44605,1,12,0:0:0:0:
160,240,44980,6,0,L|232:200,2,70,12|0|2,0:0|0:0|0:0,0:0:0:0:
64,240,45542,2,0,L|160:112,1,140,12|2,0:0|0:0,0:0:0:0:
252,120,46105,1,12,0:0:0:0:
36,56,46480,6,0,L|96:96,2,70,12|0|2,0:0|0:0|0:0,0:0:0:0:
136,168,47042,2,0,L|48:208,2,70,12|0|2,0:0|0:0|0:0,0:0:0:0:
264,208,47605,1,12,0:0:0:0:
52,276,48167,1,0,0:0:0:0:
344,324,48730,2,0,L|357:184,1,140,12|12,0:0|0:0,0:0:0:0:
128,332,49480,6,0,L|96:212,1,105.000004005432,6|0,0:0|0:0,0:0:0:0:
208,232,50042,2,0,L|256:64,1,157.500006008148,8|4,0:0|0:0,0:0:0:0:
416,172,50980,6,0,L|388:70,1,105.000004005432,2|0,0:0|0:0,0:0:0:0:
512,176,51542,2,0,L|480:296,1,105.000004005432,10|6,0:0|0:0,0:0:0:0:
152,304,52480,6,0,L|216:264,2,52.5000020027161,10|0|2,0:0|0:0|0:0,0:0:0:0:
260,356,53042,1,10,0:0:0:0:
460,304,53605,6,0,L|396:264,2,52.5000020027161,10|0|2,0:0|0:0|0:0,0:0:0:0:
348,356,54167,1,4,0:0:0:0:
112,104,54730,2,0,L|200:48,1,105.000004005432,4|4,0:0|0:0,0:0:0:0:
408,52,55480,6,0,L|435:153,1,105.000004005432,6|0,0:0|0:0,0:0:0:0:
316,168,56042,2,0,L|188:280,1,157.500006008148,8|0,0:0|0:0,0:0:0:0:
388,356,56980,1,2,0:0:0:0:
104,356,57542,2,0,L|72:236,1,105.000004005432,2|4,0:0|0:0,0:0:0:0:
392,304,58480,6,0,L|256:216,1,157.500006008148,10|10,0:0|0:0,0:0:0:0:
52,208,59605,2,0,L|188:120,1,157.500006008148,10|10,0:0|0:0,0:0:0:0:
452,104,60730,2,0,L|364:48,1,105.000004005432,0|4,0:0|0:0,0:0:0:0:
168,80,61480,6,0,L|120:120,1,52.5000020027161,4|0,0:0|0:0,0:0:0:0:
232,148,61855,2,0,L|304:240,1,105.000004005432,2|2,0:0|0:0,0:0:0:0:
24,296,62605,6,0,L|72:256,1,52.5000020027161,0|0,0:0|0:0,0:0:0:0:
156,208,62980,2,0,L|84:116,1,105.000004005432,2|2,0:0|0:0,0:0:0:0:
384,272,63730,6,0,L|260:272,1,105.000004005432,0|6,0:0|0:0,0:0:0:0:
24,284,64667,1,2,0:0:0:0:
308,256,65230,1,2,0:0:0:0:
80,280,65605,1,8,0:0:0:0:
144,276,65792,1,0,0:0:0:0:
208,272,65980,1,8,0:0:0:0:
268,268,66167,1,0,0:0:0:0:
332,264,66355,5,8,0:0:0:0:
364,260,66448,1,0,0:0:0:0:
392,256,66542,1,0,0:0:0:0:
420,240,66636,1,0,0:0:0:0:
444,212,66730,1,8,0:0:0:0:
460,176,66823,1,0,0:0:0:0:
472,128,66917,1,0,0:0:0:0:
476,88,67011,1,0,0:0:0:0:
480,40,67105,1,8,0:0:0:0:
216,208,67480,6,0,L|144:152,1,70,2|2,0:0|0:0,0:0:0:0:
412,208,68042,1,2,0:0:0:0:
96,208,68605,2,0,L|145:257,1,70,2|4,0:0|0:0,0:0:0:0:
420,248,69167,2,0,L|268:88,1,210,10|4,0:0|0:0,0:0:0:0:
68,88,70105,1,6,0:0:0:0:
304,92,70480,6,0,L|392:92,2,70,2|0|0,0:0|0:0|0:0,0:0:0:0:
203,95,71042,1,2,0:0:0:0:
440,208,71605,6,0,L|512:208,1,70,2|4,0:0|0:0,0:0:0:0:
236,208,72167,2,0,L|60:80,1,210,10|6,0:0|0:0,0:0:0:0:
252,84,73105,1,4,0:0:0:0:
44,216,73480,6,0,L|116:216,1,70,2|2,0:0|0:0,0:0:0:0:
380,208,74042,2,0,L|204:80,1,210,10|4,0:0|0:0,0:0:0:0:
376,88,75167,1,4,0:0:0:0:
148,92,75730,1,4,0:0:0:0:
304,88,76105,1,6,0:0:0:0:
72,224,76480,6,0,L|154:89,1,157.500006008148,2|2,0:0|0:0,0:0:0:0:
428,352,77605,2,0,L|348:216,1,157.500006008148,2|2,0:0|0:0,0:0:0:0:
44,348,79007,2,0,L|140:204,1,157.500006008148,2|2,0:0|0:0,0:0:0:0:
304,288,87350,6,0,L|376:248,2,70,4|0|8,0:0|0:0|0:0,0:0:0:0:
88,216,88100,2,0,L|64:136,1,70,0|0,0:0|0:0,0:0:0:0:
168,160,88475,2,0,L|144:84,1,70,8|0,0:0|0:0,0:0:0:0:
272,92,88850,6,0,L|368:132,2,70,6|0|8,0:3|0:0|0:0,0:0:0:0:
424,216,89600,2,0,L|448:136,1,70,2|0,0:2|0:0,0:0:0:0:
344,160,89975,2,0,L|368:84,1,70,8|0,0:0|0:0,0:0:0:0:
196,144,90350,6,0,L|132:96,2,70,6|0|8,0:3|0:0|0:0,0:0:0:0:
408,156,91100,2,0,L|472:108,2,70,6|0|8,0:3|0:0|0:0,0:0:0:0:
264,216,91850,1,6,0:3:0:0:
96,328,92225,1,10,0:2:0:0:
136,328,92318,1,0,0:0:0:0:
176,328,92412,1,0,0:0:0:0:
224,328,92506,1,0,0:0:0:0:
264,328,92600,1,6,0:3:0:0:
12,328,92975,1,10,0:2:0:0:
180,304,93350,6,0,L|244:248,2,70,4|2|8,0:0|0:0|0:0,0:0:0:0:
432,236,94287,1,0,0:0:0:0:
136,300,94850,6,0,L|185:250,2,70,4|2|8,0:0|0:0|0:0,0:0:0:0:
376,304,95600,2,0,L|277:205,1,140,4|8,0:0|0:0,0:0:0:0:
444,300,96350,6,0,L|380:244,2,70,4|2|8,0:0|0:0|0:0,0:0:0:0:
192,232,97287,1,0,0:0:0:0:
488,240,97850,6,0,L|376:128,1,140,12|10,0:0|0:0,0:0:0:0:
264,136,98412,2,0,L|376:24,1,140,12|10,0:0|0:0,0:0:0:0:
88,224,99350,6,0,P|124:126|200:55,1,210,4|8,0:0|0:0,0:0:0:0:
392,56,100475,1,10,0:0:0:0:
196,56,100850,6,0,P|120:128|84:226,1,210,8|8,0:0|0:0,0:0:0:0:
348,284,101975,1,8,0:0:0:0:
152,280,102350,6,0,P|168:176|256:116,2,210,8|8|8,0:0|0:0|0:0,0:0:0:0:
368,308,103850,5,2,0:0:0:0:
140,204,104225,2,0,L|155:135,1,70,2|0,0:0|0:0,0:0:0:0:
372,204,104787,2,0,L|356:135,1,70,0|2,0:0|0:0,0:0:0:0:
172,168,105350,6,0,L|100:224,2,70,12|0|0,0:0|0:0|0:0,0:0:0:0:
292,168,105912,2,0,L|364:224,2,70,8|0|0,0:0|0:0|0:0,0:0:0:0:
172,168,106475,1,8,0:0:0:0:
396,168,106850,6,0,L|396:320,1,140
216,168,107600,2,0,L|380:168,1,140,0|0,0:0|0:0,0:0:0:0:
172,168,108350,6,0,L|100:224,2,70,8|0|0,0:0|0:0|0:0,0:0:0:0:
312,168,108912,2,0,L|384:224,2,70,8|0|0,0:0|0:0|0:0,0:0:0:0:
172,168,109475,1,8,0:0:0:0:
32,164,109850,6,0,L|56:92,1,70,8|0,0:0|0:0,0:0:0:0:
304,172,110412,2,0,L|280:100,1,70,8|0,0:0|0:0,0:0:0:0:
444,112,110975,1,8,0:0:0:0:
256,112,111350,5,8,0:0:0:0:
444,112,111725,1,8,0:0:0:0:
200,112,112100,1,8,0:0:0:0:
488,112,112475,1,8,0:0:0:0:
256,192,112850,12,0,114430,0:0:0:0:
176,192,119524,6,0,L|108:296,1,105.000004005432,2|2,0:0|0:0,0:0:0:0:
232,296,120373,1,0,0:0:0:0:
336,296,120656,2,0,L|280:192,1,105.000004005432,2|2,0:0|0:0,0:0:0:0:
460,208,121788,6,0,L|492:96,1,105.000004005432,2|2,0:0|0:0,0:0:0:0:
392,96,122637,1,0,0:0:0:0:
288,84,122920,2,0,L|256:196,1,105.000004005432,2|2,0:0|0:0,0:0:0:0:
412,220,124052,6,0,L|412:288,2,52.5000020027161,2|0|2,0:0|0:0|0:0,0:0:0:0:
224,236,125184,2,0,L|248:308,1,52.5000020027161,2|0,0:0|0:0,0:0:0:0:
52,328,125750,1,2,0:0:0:0:
376,196,126316,6,0,L|348:96,1,105.000004005432,2|2,0:0|0:0,0:0:0:0:
156,172,127448,2,0,L|132:100,1,52.5000020027161,8|0,0:0|0:0,0:0:0:0:
352,88,128014,1,2,0:0:0:0:
148,124,128580,6,0,L|206:85,2,70,2|0|2,0:0|0:0|0:0,0:0:0:0:
364,124,129651,2,0,L|305:85,2,70,2|0|2,0:0|0:0|0:0,0:0:0:0:
128,124,130603,6,0,L|188:80,2,70,2|0|2,0:0|0:0|0:0,0:0:0:0:
396,124,131472,2,0,L|336:80,2,70,2|0|2,0:0|0:0|0:0,0:0:0:0:
148,124,132259,6,0,L|84:212,1,105,4|0,0:1|0:0,0:0:0:0:
276,228,132821,2,0,L|392:332,1,140,0|0,0:0|0:0,0:0:0:0:
404,340,133290,1,0,0:0:0:0:
384,360,133384,1,8,0:0:0:0:
304,360,133571,1,0,0:0:0:0:
180,348,133759,6,0,L|244:232,1,105,6|0,0:3|0:0,0:0:0:0:
408,248,134321,2,0,L|292:144,1,140,0|0,0:0|0:0,0:0:0:0:
276,132,134790,1,0,0:0:0:0:
248,108,134884,1,8,0:0:0:0:
152,100,135071,1,0,0:0:0:0:
264,108,135259,6,0,L|306:52,2,70,6|0|0,0:3|0:0|0:0,0:0:0:0:
148,148,135821,2,0,L|236:256,1,140,0|0,0:0|0:0,0:0:0:0:
324,256,136384,1,8,0:0:0:0:
408,256,136571,1,0,0:0:0:0:
324,256,136759,5,6,0:3:0:0:
156,256,137134,1,0,0:0:0:0:
304,240,137415,1,0,0:0:0:0:
288,176,137602,1,0,0:0:0:0:
276,140,137696,1,0,0:0:0:0:
264,100,137790,1,0,0:0:0:0:
252,60,137884,1,8,0:0:0:0:
468,60,138259,6,0,L|412:156,1,105,4|0,0:0|0:0,0:0:0:0:
248,156,138821,2,0,L|320:284,1,140,0|0,0:0|0:0,0:0:0:0:
336,312,139290,1,0,0:0:0:0:
360,348,139384,1,8,0:0:0:0:
260,348,139571,1,0,0:0:0:0:
124,340,139759,6,0,L|180:244,1,105,6|0,0:3|0:0,0:0:0:0:
364,264,140321,2,0,L|292:136,1,140,0|0,0:0|0:0,0:0:0:0:
272,108,140790,1,0,0:0:0:0:
252,72,140884,1,8,0:0:0:0:
160,56,141071,1,0,0:0:0:0:
64,336,141259,6,0,P|24:328|-16:288,2,70,6|0|0,0:3|0:0|0:0,0:0:0:0:
132,328,141821,1,0,0:0:0:0:
196,316,142009,1,0,0:0:0:0:
8,216,142384,1,8,0:0:0:0:
208,216,142759,5,4,0:0:0:0:
72,64,143040,1,0,0:0:0:0:
100,64,143134,1,0,0:0:0:0:
128,64,143227,1,0,0:0:0:0:
156,64,143321,1,0,0:0:0:0:
184,64,143415,1,0,0:0:0:0:
212,64,143509,1,0,0:0:0:0:
492,72,143884,1,8,0:0:0:0:
380,72,144259,1,0,0:0:0:0:
152,40,147259,6,0,L|104:120,2,70,12|0|0,0:0|0:0|0:0,0:0:0:0:
300,40,147821,2,0,L|372:176,1,140,8|0,0:0|0:0,0:0:0:0:
152,40,148759,6,0,L|184:108,2,70,8|0|0,0:0|0:0|0:0,0:0:0:0:
300,40,149321,2,0,L|228:176,1,140,8|0,0:0|0:0,0:0:0:0:
424,312,150259,5,8,0:0:0:0:
424,312,150446,1,0,0:0:0:0:
212,312,150821,1,8,0:0:0:0:
212,312,151009,1,0,0:0:0:0:
424,312,151384,1,8,0:2:0:0:
424,312,151571,1,0,0:0:0:0:
172,312,151946,1,0,0:0:0:0:
172,312,152134,1,0,0:2:0:0:
408,312,152509,1,8,0:0:0:0:
156,312,152884,1,8,0:0:0:0:
392,56,153259,5,8,0:0:0:0:
208,120,153634,2,0,L|240:200,1,70,0|8,0:0|0:0,0:0:0:0:
472,220,154196,1,0,0:0:0:0:
180,56,154759,5,8,0:0:0:0:
364,120,155134,2,0,L|332:200,1,70,0|8,0:0|0:0,0:0:0:0:
100,220,155696,1,0,0:0:0:0:
404,184,156259,6,0,L|332:248,1,70,8|0,0:0|0:0,0:0:0:0:
100,184,156821,2,0,L|172:248,1,70,8|0,0:0|0:0,0:0:0:0:
404,184,157384,2,0,L|332:248,1,70,8|0,0:0|0:0,0:0:0:0:
100,184,157946,2,0,L|172:248,1,70,0|0,0:0|0:0,0:0:0:0:
324,240,158509,1,8,0:0:0:0:
112,236,158884,1,8,0:0:0:0:
392,48,159259,6,0,L|512:240,2,210,12|4|8,0:0|0:0|0:0,0:0:0:0:
96,48,160946,1,4,0:0:0:0:
416,48,161509,6,0,L|296:240,1,210,12|8,0:0|0:0,0:0:0:0:
8,276,162634,2,0,L|128:84,1,210,8|4,0:0|0:0,0:0:0:0:
396,80,163759,5,8,0:0:0:0:
396,152,163946,1,0,0:0:0:0:
396,228,164134,1,0,0:0:0:0:
256,80,164332,1,4,0:0:0:0:
256,156,164531,1,0,0:0:0:0:
252,224,164730,1,0,0:0:0:0:
116,80,164928,5,8,0:0:0:0:
116,152,165136,1,0,0:0:0:0:
116,228,165344,1,0,0:0:0:0:
256,80,165553,1,4,0:0:0:0:
256,156,165761,1,0,0:0:0:0:
252,224,165986,1,0,0:0:0:0:
408,80,166212,5,8,0:0:0:0:
348,80,166437,1,0,0:0:0:0:
408,80,166663,1,0,0:0:0:0:
248,80,166903,5,4,0:0:0:0:
308,80,167143,1,0,0:0:0:0:
248,80,167383,1,0,0:0:0:0:
132,80,167623,5,8,0:0:0:0:
404,80,168389,1,4,0:0:0:0:
72,80,169208,1,8,0:0:0:0:
476,80,170178,1,4,0:0:0:0:
256,192,171580,12,0,173932,0:0:0:0:
