osu file format v14

[General]
AudioFilename: EOL 1-08 Foresight Is for Losers (Ralph's Theme) [Hylian Lemon].mp3
AudioLeadIn: 0
PreviewTime: 85850
Countdown: 0
SampleSet: None
StackLeniency: 0.7
Mode: 2
LetterboxInBreaks: 0
WidescreenStoryboard: 0

[Editor]
DistanceSpacing: 1.6
BeatDivisor: 4
GridSize: 4
TimelineZoom: 1.7

[Metadata]
Title:Foresight Is for Losers
TitleUnicode:Foresight Is for Losers
Artist:Hylian Lemon
ArtistUnicode:Hylian Lemon
Creator:ZiRoX
Version:Platter
Source:The Legend of Zelda: Oracle of Ages
Tags:MBC10 Deif Essence of Lime Ralph's Theme Koji Kondo 近藤浩治 Nintendo no Densetsu Fushigi Kinomi Jikuu Shou Game Boy Capcom ゼルダの伝説 ふしぎの木の実 時空の章 Ben Hoffman
BeatmapID:757538
BeatmapSetID:342751

[Difficulty]
HPDrainRate:6
CircleSize:3.5
OverallDifficulty:7.5
ApproachRate:7.5
SliderMultiplier:1.7
SliderTickRate:1

[Events]
//Background and Video events
0,0,"14775932493_01b36cfe57_o.jpg",0,0
//Break Periods
2,80207,86525
2,114630,118699
2,144459,146434
//Storyboard Layer 0 (Background)
//Storyboard Layer 1 (Fail)
//Storyboard Layer 2 (Pass)
//Storyboard Layer 3 (Foreground)
//Storyboard Sound Samples

[TimingPoints]
-20,375,4,2,0,60,1,0
1480,375,4,2,0,60,1,0
1761,-100,4,2,0,40,0,0
1855,-100,4,2,0,60,0,0
3261,-100,4,2,0,40,0,0
3355,-100,4,2,0,60,0,0
4761,-100,4,2,0,40,0,0
4855,-100,4,2,0,60,0,0
6261,-100,4,2,0,40,0,0
6355,-100,4,2,0,60,0,0
7761,-100,4,2,0,40,0,0
7855,-100,4,2,0,60,0,0
10480,-100,4,2,0,70,0,0
11980,-100,4,2,0,60,0,0
13105,-100,4,2,0,60,0,0
13480,-100,4,3,0,60,0,0
25480,-100,4,1,0,50,0,1
37480,-100,4,3,0,40,0,0
43480,-100,4,3,0,60,0,0
48730,-100,4,3,0,50,0,0
49480,-133.333333333333,4,2,0,40,0,0
52480,-133.333333333333,4,3,0,50,0,0
55480,-133.333333333333,4,2,0,40,0,0
58480,-133.333333333333,4,3,0,50,0,0
61480,-133.333333333333,4,2,0,50,0,0
63730,-133.333333333333,4,1,0,25,0,0
64105,-133.333333333333,4,2,0,50,0,0
67480,-100,4,3,0,50,0,0
76480,-133.333333333333,4,3,0,60,0,0
77042,-133.333333333333,4,3,0,55,0,0
77605,413.793103448276,4,3,0,50,1,0
77605,-133.333333333333,4,3,0,50,0,0
78225,521.739130434783,4,3,0,50,1,0
78225,-133.333333333333,4,3,0,50,0,0
79007,666.666666666667,4,3,0,40,1,0
79007,-133.333333333333,4,3,0,40,0,0
80007,685.714285714286,4,3,0,30,1,0
81035,315.789473684211,4,1,0,60,1,0
81350,375,4,3,0,40,1,0
87350,-100,4,1,0,50,0,1
93350,-100,4,3,0,40,0,0
97850,-100,4,3,0,70,0,0
99350,-100,4,2,0,50,0,0
99912,-100,4,2,0,30,0,0
100850,-100,4,2,0,50,0,0
101412,-100,4,2,0,30,0,0
102350,-100,4,2,0,40,0,0
102912,-100,4,2,0,50,0,0
103850,-100,4,2,0,70,0,0
105350,-100,4,1,0,60,0,1
112850,-100,4,3,0,50,0,0
113225,-100,4,3,0,40,0,0
113600,-100,4,3,0,30,0,0
113975,-100,4,3,0,20,0,0
114350,-100,4,3,0,10,0,0
114430,566.037735849057,4,2,0,10,1,0
114996,566.037735849057,4,2,0,50,1,0
118392,-133.333333333333,4,2,0,50,0,0
120373,-133.333333333333,4,2,0,50,0,0
120656,-133.333333333333,4,2,0,50,0,0
121505,-133.333333333333,4,2,0,50,0,0
121788,-133.333333333333,4,2,0,50,0,0
122920,-133.333333333333,4,2,0,50,0,0
123062,-133.333333333333,4,2,0,50,0,0
123628,-133.333333333333,4,2,0,50,0,0
123911,-133.333333333333,4,2,0,50,0,0
125184,-133.333333333333,4,2,0,25,0,0
125326,-133.333333333333,4,2,0,50,0,0
125750,-133.333333333333,4,3,0,60,0,0
125892,-133.333333333333,4,2,0,35,0,0
126316,-133.333333333333,4,2,0,50,0,0
127448,-133.333333333333,4,2,0,25,0,0
127590,-133.333333333333,4,2,0,50,0,0
128014,-133.333333333333,4,3,0,60,0,0
128156,-133.333333333333,4,2,0,50,0,0
128580,545.454545454546,4,2,0,50,1,0
129125,526.315789473684,4,2,0,55,1,0
129651,491.803278688525,4,2,0,60,1,0
130142,461.538461538462,4,2,0,65,1,0
130603,441.176470588235,4,2,0,70,1,0
131044,428.571428571429,4,2,0,75,1,0
131472,400,4,2,0,80,1,0
131872,387.096774193548,4,2,0,85,1,0
132259,375,4,1,0,60,1,1
144259,-100,4,2,0,60,0,0
147259,-100,4,1,0,50,0,1
152509,-100,4,1,0,35,0,1
153259,-100,4,1,0,50,0,1
158602,-100,4,1,0,40,0,1
159259,-100,4,3,0,50,0,0
163759,375,4,3,0,50,1,0
164134,397.350993377483,4,3,0,60,1,0
164928,416.666666666667,4,3,0,60,1,0
165761,451.127819548872,4,3,0,60,1,0
166663,480,4,3,0,60,1,0
167623,508.474576271186,4,3,0,60,1,0
168131,517.241379310345,4,3,0,60,1,0
168648,560.747663551402,4,3,0,60,1,0
169208,582.52427184466,4,3,0,60,1,0
169499,645.161290322581,4,3,0,60,1,0
169821,714.285714285714,4,3,0,60,1,0
170178,833.333333333333,4,3,0,60,1,0
170594,882.352941176471,4,3,0,60,1,0
171035,1090.90909090909,4,3,0,60,1,0
171580,1176.47058823529,4,3,0,30,1,0

[Colours]
Combo1 : 255,145,91
Combo2 : 255,255,128

[HitObjects]
172,276,1480,6,0,L|48:212,2,127.5,6|2|0,0:0|0:0|0:0,0:0:0:0:
296,264,2417,1,0,0:0:0:0:
380,212,2605,1,8,0:0:0:0:
288,152,2792,1,0,0:0:0:0:
120,152,2980,6,0,L|4:72,2,127.5,2|2|0,0:0|0:0|0:0,0:0:0:0:
296,264,3917,1,0,0:0:0:0:
380,212,4105,1,8,0:0:0:0:
288,152,4292,1,0,0:0:0:0:
432,172,4480,6,0,L|324:264,1,127.5,4|2,0:0|0:0,0:0:0:0:
128,268,5042,1,0,0:0:0:0:
244,268,5417,1,0,0:0:0:0:
328,216,5605,1,8,0:0:0:0:
412,156,5792,1,0,0:0:0:0:
208,152,5980,6,0,L|100:244,1,127.5,2|2,0:0|0:0,0:0:0:0:
244,268,6542,1,0,0:0:0:0:
412,156,6917,1,0,0:0:0:0:
328,216,7104,1,10,0:0:0:0:
244,268,7292,1,0,0:0:0:0:
88,256,7480,6,0,L|192:176,2,127.5,4|2|0,0:0|0:0|0:0,0:0:0:0:
240,268,8417,2,0,L|284:240,2,42.5,0|0|8,0:0|0:0|0:0,0:0:0:0:
148,272,8792,1,0,0:0:0:0:
288,340,8980,6,0,L|364:284,2,85,2|0|10,0:0|0:0|0:0,0:0:0:0:
152,272,9542,2,0,L|108:240,2,42.5,0|0|2,0:0|0:0|0:0,0:0:0:0:
260,204,9917,2,0,L|300:168,2,42.5,0|0|10,0:0|0:0|0:0,0:0:0:0:
160,136,10292,1,0,0:0:0:0:
312,64,10480,6,0,L|388:140,1,85,2|0,0:0|0:0,0:0:0:0:
240,152,10855,2,0,L|152:224,1,85,10|0,0:0|0:0,0:0:0:0:
324,228,11230,2,0,P|369:264|360:324,1,85,2|2,0:0|0:0,0:0:0:0:
348,332,11511,1,0,0:0:0:0:
300,324,11605,1,8,0:0:0:0:
256,300,11698,1,0,0:0:0:0:
232,260,11792,1,2,0:0:0:0:
400,148,11980,6,0,L|412:232,1,85,2|0,0:0|0:0,0:0:0:0:
232,236,12355,2,0,L|220:148,1,85,2|0,0:0|0:0,0:0:0:0:
356,136,12730,1,2,0:0:0:0:
400,136,12823,1,0,0:0:0:0:
448,144,12917,1,2,0:0:0:0:
488,168,13010,1,0,0:0:0:0:
512,208,13104,1,10,0:0:0:0:
188,168,13480,6,0,P|136:240|212:280,1,170,10|4,0:0|0:0,0:0:0:0:
280,304,14042,1,0,0:0:0:0:
388,312,14230,2,0,L|464:264,2,85,8|0|4,0:0|0:0|0:0,0:0:0:0:
112,272,14980,6,0,P|56:216|136:160,1,170,8|4,0:0|0:0,0:0:0:0:
200,152,15542,1,0,0:0:0:0:
96,80,15730,2,0,L|184:140,2,85,8|0|4,0:0|0:0|0:0,0:0:0:0:
348,136,16480,6,0,L|412:80,2,85,8|0|4,0:0|0:0|0:0,0:0:0:0:
256,184,17042,1,0,0:0:0:0:
152,140,17230,2,0,L|68:68,2,85,8|0|4,0:0|0:0|0:0,0:0:0:0:
256,184,17792,1,0,0:0:0:0:
368,192,17980,6,0,L|320:120,2,85,8|0|4,0:0|0:0|0:0,0:0:0:0:
256,140,18542,1,0,0:0:0:0:
132,192,18729,2,0,L|192:112,2,85,8|8|4,0:0|0:0|0:0,0:0:0:0:
260,140,19292,1,0,0:0:0:0:
392,140,19480,6,0,P|452:156|500:260,2,170,8|4|8,0:0|0:0|0:0,0:0:0:0:
276,140,20417,1,0,0:0:0:0:
152,140,20605,1,4,0:0:0:0:
480,136,20980,6,0,L|368:272,2,170,10|4|8,0:0|0:0|0:0,0:0:0:0:
332,140,21917,1,0,0:0:0:0:
184,140,22105,1,4,0:0:0:0:
336,240,22480,6,0,L|432:272,2,85,8|0|4,0:0|0:0|0:0,0:0:0:0:
116,240,23230,2,0,L|20:272,2,85,10|0|6,0:0|0:0|0:0,0:0:0:0:
372,204,23980,6,0,L|240:92,1,170,2|2,0:0|0:0,0:0:0:0:
31,91,24730,2,0,L|107:47,1,85,2|0,0:0|0:0,0:0:0:0:
176,120,25105,2,0,L|144:36,1,85,8|8,0:0|0:0,0:0:0:0:
404,136,25480,6,0,L|472:200,2,85,4|0|8,0:1|0:0|0:0,0:0:0:0:
164,72,26230,2,0,L|88:132,1,85,0|0,0:0|0:0,0:0:0:0:
60,168,26511,1,0,0:0:0:0:
100,208,26605,2,0,L|176:268,1,85,8|0,0:0|0:0,0:0:0:0:
424,264,26980,6,0,L|484:200,2,85,6|0|8,0:3|0:0|0:0,0:0:0:0:
224,264,27730,2,0,L|272:168,1,85,0|0,0:0|0:0,0:0:0:0:
308,188,28011,1,0,0:0:0:0:
356,188,28105,2,0,L|320:100,1,85,8|0,0:0|0:0,0:0:0:0:
68,160,28480,6,0,L|8:92,2,85,6|0|8,0:3|0:0|0:0,0:0:0:0:
176,164,29042,1,0,0:0:0:0:
296,164,29230,2,0,L|236:228,2,85,6|0|8,0:3|0:0|0:0,0:0:0:0:
384,164,29792,1,0,0:0:0:0:
212,164,29980,5,0,0:0:0:0:
16,168,30355,1,6,0:3:0:0:
320,168,30730,1,0,0:0:0:0:
280,168,30824,1,0,0:0:0:0:
240,168,30918,1,0,0:0:0:0:
200,168,31012,1,0,0:0:0:0:
160,168,31105,1,8,0:0:0:0:
406,337,31480,6,0,L|468:280,2,85,4|0|8,0:0|0:0|0:0,0:0:0:0:
276,328,32230,2,0,L|228:232,1,85,0|0,0:0|0:0,0:0:0:0:
192,252,32511,1,0,0:0:0:0:
136,244,32605,2,0,L|200:168,1,85,8|0,0:0|0:0,0:0:0:0:
408,196,32980,6,0,L|484:272,2,85,6|0|8,0:3|0:0|0:0,0:0:0:0:
128,336,33730,2,0,L|52:276,1,85,0|0,0:0|0:0,0:0:0:0:
24,240,34011,1,0,0:0:0:0:
64,200,34105,2,0,L|140:140,1,85,8|0,0:0|0:0,0:0:0:0:
388,164,34480,6,0,L|472:100,2,85,6|0|8,0:3|0:0|0:0,0:0:0:0:
268,168,35042,1,0,0:0:0:0:
128,212,35230,2,0,L|52:284,2,85,6|0|8,0:3|0:0|0:0,0:0:0:0:
256,208,35792,1,0,0:0:0:0:
400,184,35980,5,6,0:3:0:0:
172,176,36355,1,8,0:0:0:0:
132,176,36449,1,0,0:0:0:0:
92,176,36543,1,0,0:0:0:0:
52,176,36637,1,0,0:0:0:0:
12,176,36730,1,2,0:2:0:0:
448,176,37105,1,8,0:0:0:0:
296,264,37480,6,0,L|384:208,2,85,4|0|2,0:0|0:0|0:0,0:0:0:0:
192,192,38042,2,0,L|104:136,2,85,4|0|2,0:0|0:0|0:0,0:0:0:0:
328,116,38605,1,2,0:0:0:0:
112,264,38980,6,0,L|24:208,2,85,4|0|2,0:0|0:0|0:0,0:0:0:0:
256,192,39542,2,0,L|344:136,2,85,4|0|0,0:0|0:0|0:0,0:0:0:0:
132,136,40105,1,2,0:0:0:0:
16,100,40292,1,0,0:0:0:0:
360,80,40480,6,0,L|436:252,1,170,4|0,0:0|0:0,0:0:0:0:
276,240,41042,2,0,L|220:80,1,170,4|0,0:0|0:0,0:0:0:0:
388,84,41605,2,0,L|404:184,1,85,4|0,0:0|0:0,0:0:0:0:
236,248,41980,2,0,L|228:156,1,85,2|0,0:0|0:0,0:0:0:0:
388,84,42355,2,0,L|404:184,1,85,0|0,0:0|0:0,0:0:0:0:
140,328,42730,2,0,L|124:148,1,170,4|4,0:0|0:0,0:0:0:0:
392,328,43480,6,0,L|408:148,1,170,12|2,0:0|0:0,0:0:0:0:
236,224,44042,2,0,L|220:44,1,170,12|2,0:0|0:0,0:0:0:0:
408,52,44605,1,12,0:0:0:0:
120,146,44980,6,0,L|176:212,2,85,12|0|2,0:0|0:0|0:0,0:0:0:0:
260,220,45542,2,0,L|208:288,2,85,12|0|2,0:0|0:0|0:0,0:0:0:0:
152,324,46105,1,12,0:0:0:0:
420,324,46480,6,0,L|359:263,2,85,12|0|2,0:0|0:0|0:0,0:0:0:0:
272,328,47042,2,0,L|206:248,2,85,12|0|2,0:0|0:0|0:0,0:0:0:0:
172,328,47605,1,12,0:0:0:0:
200,288,47698,1,0,0:0:0:0:
224,248,47792,1,0,0:0:0:0:
140,220,47980,1,2,0:0:0:0:
112,192,48073,1,0,0:0:0:0:
32,140,48261,1,2,0:0:0:0:
132,96,48448,1,2,0:0:0:0:
160,88,48542,1,0,0:0:0:0:
196,84,48636,1,2,0:0:0:0:
236,84,48730,2,0,P|292:136|296:236,1,170,12|12,0:0|0:0,0:0:0:0:
104,344,49480,6,0,L|36:280,2,63.7500024318696,6|0|0,0:0|0:0|0:0,0:0:0:0:
264,340,50042,2,0,L|340:152,1,191.250007295609,8|4,0:0|0:0,0:0:0:0:
80,72,50980,6,0,L|112:200,1,127.500004863739,2|0,0:0|0:0,0:0:0:0:
264,188,51542,2,0,L|224:340,1,127.500004863739,10|6,0:0|0:0,0:0:0:0:
444,332,52480,6,0,L|364:228,1,127.500004863739,10|2,0:0|0:0,0:0:0:0:
260,216,53042,2,0,L|340:112,1,127.500004863739,10|2,0:0|0:0,0:0:0:0:
480,56,53605,2,0,L|407:165,1,127.500004863739,10|2,0:0|0:0,0:0:0:0:
244,212,54167,2,0,L|324:108,1,127.500004863739,4|0,0:0|0:0,0:0:0:0:
492,336,54730,2,0,L|352:336,1,127.500004863739,4|4,0:0|0:0,0:0:0:0:
104,216,55480,6,0,L|32:232,2,63.7500024318696,6|0|0,0:0|0:0|0:0,0:0:0:0:
272,312,56042,2,0,L|219:128,1,191.250007295609,8|0,0:0|0:0,0:0:0:0:
408,184,56980,1,2,0:0:0:0:
231,180,57355,1,0,0:0:0:0:
332,180,57542,2,0,L|440:104,1,127.500004863739,2|4,0:0|0:0,0:0:0:0:
128,304,58480,6,0,L|200:264,2,63.7500024318696,10|0|2,0:0|0:0|0:0,0:0:0:0:
32,344,59042,1,10,0:0:0:0:
304,344,59417,1,2,0:0:0:0:
216,300,59605,2,0,L|140:264,2,63.7500024318696,10|0|2,0:0|0:0|0:0,0:0:0:0:
304,344,60167,1,10,0:0:0:0:
32,232,60542,1,2,0:0:0:0:
160,184,60730,2,0,L|300:124,1,127.500004863739,0|4,0:0|0:0,0:0:0:0:
472,84,61480,6,0,L|424:136,1,63.7500024318696,4|0,0:0|0:0,0:0:0:0:
296,136,61855,2,0,L|360:248,1,127.500004863739,2|2,0:0|0:0,0:0:0:0:
40,84,62605,6,0,L|88:136,1,63.7500024318696,0|0,0:0|0:0,0:0:0:0:
216,136,62980,2,0,L|152:248,1,127.500004863739,2|2,0:0|0:0,0:0:0:0:
448,344,63730,6,0,L|296:344,1,127.500004863739,0|6,0:0|0:0,0:0:0:0:
68,340,64667,1,2,0:0:0:0:
404,340,65230,1,2,0:0:0:0:
232,340,65605,1,8,0:0:0:0:
140,340,65792,1,0,0:0:0:0:
56,340,65980,1,8,0:0:0:0:
0,340,66167,1,0,0:0:0:0:
184,340,66355,5,8,0:0:0:0:
224,336,66448,1,0,0:0:0:0:
260,320,66542,1,0,0:0:0:0:
296,296,66636,1,0,0:0:0:0:
324,268,66730,1,8,0:0:0:0:
348,224,66823,1,0,0:0:0:0:
364,176,66917,1,0,0:0:0:0:
372,132,67011,1,0,0:0:0:0:
380,76,67105,1,8,0:0:0:0:
88,344,67480,6,0,L|120:248,1,85,2|2,0:0|0:0,0:0:0:0:
224,264,67855,2,0,L|212:172,1,85,0|2,0:0|0:0,0:0:0:0:
340,252,68417,1,0,0:0:0:0:
444,256,68605,2,0,L|512:192,1,85,2|4,0:0|0:0,0:0:0:0:
168,228,69167,2,0,L|420:144,1,255,10|4,0:0|0:0,0:0:0:0:
172,48,70105,1,6,0:0:0:0:
384,192,70480,6,0,L|290:192,2,85,2|0|0,0:0|0:0|0:0,0:0:0:0:
488,196,71042,1,2,0:0:0:0:
200,204,71417,1,0,0:0:0:0:
108,204,71605,2,0,L|4:204,1,85,2|4,0:0|0:0,0:0:0:0:
465,84,72167,2,0,L|240:212,1,255,10|6,0:0|0:0,0:0:0:0:
428,324,73105,1,4,0:0:0:0:
188,192,73480,6,0,L|120:136,1,85,2|2,0:0|0:0,0:0:0:0:
224,192,73855,1,0,0:0:0:0:
404,188,74042,2,0,L|188:52,1,255,10|4,0:0|0:0,0:0:0:0:
380,60,74980,5,0,0:0:0:0:
324,116,75167,1,4,0:0:0:0:
52,64,75542,1,0,0:0:0:0:
108,120,75729,1,4,0:0:0:0:
424,112,76105,1,6,0:0:0:0:
184,80,76480,6,0,L|80:252,1,191.250007295609,2|2,0:0|0:0,0:0:0:0:
316,332,77605,2,0,L|424:160,1,191.250007295609,2|2,0:0|0:0,0:0:0:0:
56,336,79007,2,0,L|172:156,1,191.250007295609,2|2,0:0|0:0,0:0:0:0:
152,264,87350,6,0,L|76:212,2,85,4|0|8,0:0|0:0|0:0,0:0:0:0:
424,80,88100,2,0,L|348:140,1,85,0|0,0:0|0:0,0:0:0:0:
320,176,88381,1,0,0:0:0:0:
360,216,88475,2,0,L|436:276,1,85,8|0,0:0|0:0,0:0:0:0:
168,264,88850,6,0,L|92:212,2,85,6|0|8,0:3|0:0|0:0,0:0:0:0:
336,264,89600,2,0,L|344:168,1,85,2|0,0:2|0:0,0:0:0:0:
400,180,89881,1,0,0:0:0:0:
460,180,89975,2,0,L|420:76,1,85,8|0,0:0|0:0,0:0:0:0:
112,148,90350,6,0,L|56:84,2,85,6|0|8,0:3|0:0|0:0,0:0:0:0:
200,164,90912,1,0,0:0:0:0:
456,148,91100,6,0,L|512:84,2,85,6|0|8,0:3|0:0|0:0,0:0:0:0:
368,164,91662,1,0,0:0:0:0:
112,48,91850,1,6,0:3:0:0:
320,56,92225,1,10,0:2:0:0:
368,68,92318,1,0,0:0:0:0:
412,92,92412,1,0,0:0:0:0:
444,124,92506,1,0,0:0:0:0:
456,164,92600,1,6,0:3:0:0:
140,320,92975,1,10,0:2:0:0:
344,336,93350,6,0,L|304:248,2,85,4|2|8,0:0|0:0|0:0,0:0:0:0:
128,216,94100,2,0,L|168:304,2,85,4|0|8,0:0|0:0|0:0,0:0:0:0:
20,220,94662,1,2,0:0:0:0:
208,232,94850,6,4,L|240:324,2,85,4|2|8,0:0|0:0|0:0,0:0:0:0:
76,240,95600,2,0,L|112:328,2,85,4|0|8,0:0|0:0|0:0,0:0:0:0:
0,184,96162,1,2,0:0:0:0:
188,296,96350,6,0,L|152:200,2,85,4|2|8,0:0|0:0|0:0,0:0:0:0:
384,240,97100,2,0,L|424:156,1,85,4|0,0:0|0:0,0:0:0:0:
268,220,97475,2,0,L|308:136,1,85,8|2,0:0|0:0,0:0:0:0:
488,240,97850,6,0,L|356:128,1,170,12|10,0:0|0:0,0:0:0:0:
100,152,98412,2,0,L|228:28,1,170,12|10,0:0|0:0,0:0:0:0:
96,116,99350,6,0,L|4:168,2,85,4|0|2,0:0|0:0|0:0,0:0:0:0:
192,80,99912,1,8,0:0:0:0:
448,80,100475,1,10,0:0:0:0:
192,80,100850,6,0,L|96:124,2,85,8|2|0,0:0|0:0|0:0,0:0:0:0:
304,68,101412,1,8,0:0:0:0:
44,88,101975,1,8,0:0:0:0:
368,240,102350,5,8,0:0:0:0:
200,212,102725,2,0,L|176:120,1,85,2|8,0:0|0:0,0:0:0:0:
404,152,103287,2,0,L|420:68,1,85,2|8,0:0|0:0,0:0:0:0:
232,64,103850,5,2,0:0:0:0:
336,136,104225,2,0,L|352:224,1,85,2|0,0:0|0:0,0:0:0:0:
216,216,104600,2,0,L|192:324,1,85,2|0,0:0|0:0,0:0:0:0:
60,244,104975,2,0,L|36:332,1,85,2|0,0:0|0:0,0:0:0:0:
344,308,105350,5,12,0:0:0:0:
392,296,105443,1,0,0:0:0:0:
436,272,105537,1,0,0:0:0:0:
468,240,105631,1,0,0:0:0:0:
480,200,105725,1,0,0:0:0:0:
332,180,105912,1,8,0:0:0:0:
284,192,106005,1,0,0:0:0:0:
240,216,106099,1,0,0:0:0:0:
208,248,106193,1,0,0:0:0:0:
196,288,106287,1,0,0:0:0:0:
316,296,106475,1,8,0:0:0:0:
196,288,106662,1,0,0:0:0:0:
68,288,106850,6,0,L|72:196,1,85
212,288,107225,2,0,L|208:196,1,85
348,288,107600,2,0,L|352:196,1,85,0|0,0:0|0:0,0:0:0:0:
488,292,107975,2,0,L|484:200,1,85
168,76,108350,5,8,0:0:0:0:
120,88,108443,1,0,0:0:0:0:
76,112,108537,1,0,0:0:0:0:
44,144,108631,1,0,0:0:0:0:
32,184,108725,1,0,0:0:0:0:
180,204,108912,1,8,0:0:0:0:
228,192,109005,1,0,0:0:0:0:
272,168,109099,1,0,0:0:0:0:
304,136,109193,1,0,0:0:0:0:
316,96,109287,1,0,0:0:0:0:
188,88,109475,1,8,0:0:0:0:
316,96,109662,1,0,0:0:0:0:
164,88,109850,5,8,0:0:0:0:
256,212,110037,2,0,L|268:168,2,42.5,0|0|0,0:0|0:0|0:0,0:0:0:0:
104,248,110412,5,8,0:0:0:0:
196,268,110600,2,0,L|208:216,2,42.5,0|0|0,0:0|0:0|0:0,0:0:0:0:
76,312,110975,1,8,0:0:0:0:
36,312,111068,1,0,0:0:0:0:
4,312,111162,1,0,0:0:0:0:
176,312,111350,5,8,0:0:0:0:
224,312,111443,1,0,0:0:0:0:
276,312,111537,1,0,0:0:0:0:
312,304,111631,1,0,0:0:0:0:
356,280,111725,1,8,0:0:0:0:
380,232,111818,1,0,0:0:0:0:
372,184,111912,1,8,0:0:0:0:
332,160,112006,1,0,0:0:0:0:
216,144,112100,5,8,0:0:0:0:
168,140,112193,1,0,0:0:0:0:
120,132,112287,1,8,0:0:0:0:
96,100,112381,1,0,0:0:0:0:
112,56,112475,1,8,0:0:0:0:
152,36,112568,1,0,0:0:0:0:
272,32,112662,1,8,0:0:0:0:
256,192,112850,12,0,114430,0:0:0:0:
176,192,119524,6,0,L|104:232,2,63.7500024318696,2|0|2,0:0|0:0|0:0,0:0:0:0:
276,164,120373,1,0,0:0:0:0:
372,144,120656,2,0,L|448:112,2,63.7500024318696,2|0|2,0:0|0:0|0:0,0:0:0:0:
276,164,121505,1,0,0:0:0:0:
140,224,121788,6,0,L|72:176,2,63.7500024318696,2|0|2,0:0|0:0|0:0,0:0:0:0:
244,224,122637,1,0,0:0:0:0:
128,224,122920,1,2,0:0:0:0:
244,224,123203,1,0,0:0:0:0:
128,224,123486,1,2,0:0:0:0:
168,200,123628,1,0,0:0:0:0:
212,188,123769,1,0,0:0:0:0:
256,192,123911,1,0,0:0:0:0:
304,196,124052,6,0,L|372:256,2,63.7500024318696,2|0|2,0:0|0:0|0:0,0:0:0:0:
176,280,124901,1,0,0:0:0:0:
352,272,125184,2,0,L|376:352,1,63.7500024318696,2|0,0:0|0:0,0:0:0:0:
148,364,125750,1,2,0:0:0:0:
376,364,126316,6,0,L|348:260,1,95.6250036478044,2|0,0:0|0:0,0:0:0:0:
340,228,126882,1,2,0:0:0:0:
224,240,127165,1,0,0:0:0:0:
344,228,127448,2,0,L|324:152,1,63.7500024318696,8|0,0:0|0:0,0:0:0:0:
56,168,128014,1,2,0:0:0:0:
208,40,128580,6,0,L|136:124,2,85,2|0|2,0:0|0:0|0:0,0:0:0:0:
128,168,129388,1,0,0:0:0:0:
288,176,129651,2,0,L|352:256,2,85,2|0|2,0:0|0:0|0:0,0:0:0:0:
184,272,130372,1,0,0:0:0:0:
376,280,130603,6,0,L|460:192,2,85,2|0|2,0:0|0:0|0:0,0:0:0:0:
264,288,131258,1,0,0:0:0:0:
64,224,131472,2,0,L|-4:156,2,85,2|0|2,0:0|0:0|0:0,0:0:0:0:
168,240,132065,1,2,0:0:0:0:
440,48,132259,6,0,L|496:124,1,85,4|0,0:1|0:0,0:0:0:0:
512,144,132540,1,0,0:0:0:0:
140,168,132821,2,0,P|108:248|160:304,1,170,0|0,0:0|0:0,0:0:0:0:
184,312,133290,1,0,0:0:0:0:
216,320,133384,1,8,0:0:0:0:
320,332,133571,1,0,0:0:0:0:
144,312,133759,6,0,L|84:240,1,85,6|0,0:3|0:0,0:0:0:0:
64,224,134040,1,0,0:0:0:0:
452,320,134321,2,0,P|484:240|436:164,1,170,0|0,0:0|0:0,0:0:0:0:
416,160,134790,1,0,0:0:0:0:
384,152,134884,1,8,0:0:0:0:
260,132,135071,1,0,0:0:0:0:
88,64,135259,6,0,L|36:136,2,85,6|0|0,0:3|0:0|0:0,0:0:0:0:
200,48,135821,2,0,P|240:56|292:124,1,127.5,0|0,0:0|0:0,0:0:0:0:
208,180,136290,1,0,0:0:0:0:
168,200,136384,1,8,0:0:0:0:
272,288,136571,1,0,0:0:0:0:
392,296,136759,5,6,0:3:0:0:
472,208,136946,1,0,0:0:0:0:
464,164,137040,1,0,0:0:0:0:
356,168,137227,1,0,0:0:0:0:
244,168,137415,2,0,P|188:180|168:200,1,85,0|0,0:0|0:0,0:0:0:0:
148,236,137696,1,0,0:0:0:0:
124,284,137790,1,0,0:0:0:0:
116,332,137884,1,8,0:0:0:0:
356,344,138259,6,0,L|412:264,1,85,4|0,0:0|0:0,0:0:0:0:
432,228,138540,1,0,0:0:0:0:
180,236,138821,2,0,P|220:152|304:128,1,170,0|0,0:0|0:0,0:0:0:0:
232,108,139290,1,0,0:0:0:0:
184,88,139384,1,8,0:0:0:0:
148,76,139477,1,0,0:0:0:0:
112,64,139571,1,0,0:0:0:0:
412,92,139759,6,0,L|452:166,1,85,6|0,0:3|0:0,0:0:0:0:
468,208,140040,1,0,0:0:0:0:
120,296,140321,2,0,P|65:237|98:164,1,170,0|0,0:0|0:0,0:0:0:0:
128,152,140790,1,0,0:0:0:0:
168,144,140884,1,8,0:0:0:0:
200,140,140977,1,0,0:0:0:0:
240,136,141071,1,0,0:0:0:0:
88,64,141259,6,0,L|36:132,1,85,6|0,0:3|0:0,0:0:0:0:
12,168,141540,1,0,0:0:0:0:
128,248,141727,1,0,0:0:0:0:
256,272,141915,2,0,P|296:264|332:224,1,85,0|0,0:0|0:0,0:0:0:0:
356,200,142196,1,0,0:0:0:0:
380,156,142290,1,0,0:0:0:0:
400,108,142384,1,8,0:0:0:0:
404,16,142571,1,0,0:0:0:0:
144,28,142759,5,4,0:0:0:0:
24,52,143040,1,0,0:0:0:0:
124,108,143227,1,0,0:0:0:0:
160,132,143321,1,0,0:0:0:0:
192,152,143415,1,0,0:0:0:0:
232,176,143509,1,0,0:0:0:0:
316,228,143696,1,0,0:0:0:0:
240,280,143884,1,8,0:0:0:0:
328,328,144071,1,0,0:0:0:0:
68,344,144259,1,4,0:0:0:0:
360,40,147259,6,0,L|444:104,1,85,12|0,0:0|0:0,0:0:0:0:
456,112,147540,1,0,0:0:0:0:
484,136,147634,1,0,0:0:0:0:
336,192,147821,2,0,L|256:344,1,170,8|0,0:0|0:0,0:0:0:0:
372,344,148384,1,8,0:2:0:0:
472,344,148571,1,0,0:0:0:0:
204,344,148759,6,0,L|120:280,1,85,8|0,0:0|0:0,0:0:0:0:
108,272,149040,1,0,0:0:0:0:
80,248,149134,1,0,0:0:0:0:
212,232,149321,2,0,L|251:156,1,85,8|0,0:0|0:0,0:0:0:0:
284,52,149696,1,0,0:0:0:0:
188,48,149884,1,8,0:2:0:0:
292,52,150071,1,0,0:0:0:0:
136,48,150259,5,8,0:0:0:0:
236,148,150446,1,0,0:0:0:0:
236,148,150540,1,0,0:0:0:0:
236,148,150634,1,0,0:0:0:0:
80,144,150821,1,8,0:0:0:0:
172,248,151009,1,0,0:0:0:0:
172,248,151102,1,0,0:0:0:0:
172,248,151196,1,0,0:0:0:0:
12,292,151384,1,8,0:2:0:0:
116,292,151571,1,0,0:0:0:0:
220,292,151759,5,8,0:2:0:0:
328,216,151946,1,0,0:0:0:0:
220,200,152134,1,0,0:2:0:0:
328,124,152321,1,0,0:0:0:0:
220,84,152509,1,8,0:0:0:0:
112,52,152696,1,0,0:0:0:0:
316,40,152884,1,8,0:0:0:0:
192,40,153259,6,0,L|108:104,1,85,8|0,0:0|0:0,0:0:0:0:
96,112,153540,1,0,0:0:0:0:
68,136,153634,1,0,0:0:0:0:
224,184,153821,2,0,L|144:336,1,170,8|0,0:0|0:0,0:0:0:0:
300,336,154384,1,8,0:2:0:0:
240,336,154478,1,0,0:0:0:0:
184,332,154571,1,0,0:0:0:0:
320,336,154759,6,0,L|404:272,1,85,8|0,0:0|0:0,0:0:0:0:
416,264,155040,1,0,0:0:0:0:
444,240,155134,1,0,0:0:0:0:
308,216,155321,1,8,0:0:0:0:
264,188,155415,1,0,0:0:0:0:
224,164,155509,1,0,0:0:0:0:
188,148,155602,1,0,0:0:0:0:
152,128,155696,1,0,0:0:0:0:
56,88,155884,1,8,0:2:0:0:
168,24,156071,1,0,0:0:0:0:
428,28,156259,5,8,0:0:0:0:
512,96,156446,1,0,0:0:0:0:
512,96,156540,1,0,0:0:0:0:
512,96,156634,1,0,0:0:0:0:
180,108,156821,1,8,0:0:0:0:
96,176,157008,1,0,0:0:0:0:
96,176,157102,1,0,0:0:0:0:
96,176,157196,1,0,0:0:0:0:
356,248,157384,1,8,0:0:0:0:
392,244,157477,1,0,0:0:0:0:
428,232,157571,1,0,0:0:0:0:
464,200,157665,1,0,0:0:0:0:
484,160,157759,5,2,0:0:0:0:
492,112,157852,1,0,0:0:0:0:
372,96,158040,1,0,0:0:0:0:
248,96,158227,1,0,0:0:0:0:
280,96,158321,1,0,0:0:0:0:
324,96,158415,1,0,0:0:0:0:
372,96,158509,1,8,0:0:0:0:
64,96,158884,1,8,0:0:0:0:
336,88,159259,5,12,0:0:0:0:
412,128,159446,1,0,0:0:0:0:
480,180,159634,1,0,0:0:0:0:
496,264,159821,1,4,0:0:0:0:
424,320,160009,1,0,0:0:0:0:
332,332,160196,1,0,0:0:0:0:
64,320,160384,5,8,0:0:0:0:
104,240,160571,1,0,0:0:0:0:
180,176,160759,1,0,0:0:0:0:
268,128,160946,1,4,0:0:0:0:
352,88,161134,1,0,0:0:0:0:
404,16,161321,1,0,0:0:0:0:
208,24,161509,5,12,0:0:0:0:
116,56,161696,1,0,0:0:0:0:
60,140,161884,1,0,0:0:0:0:
88,244,162071,1,8,0:0:0:0:
184,280,162259,1,0,0:0:0:0:
264,344,162446,1,0,0:0:0:0:
116,348,162634,5,8,0:0:0:0:
128,252,162821,1,0,0:0:0:0:
208,180,163009,1,0,0:0:0:0:
304,160,163196,1,4,0:0:0:0:
372,88,163384,1,0,0:0:0:0:
300,16,163571,1,0,0:0:0:0:
432,44,163759,5,8,0:0:0:0:
504,128,163946,1,0,0:0:0:0:
440,212,164134,1,0,0:0:0:0:
352,264,164332,1,4,0:0:0:0:
280,336,164531,1,0,0:0:0:0:
232,240,164730,1,0,0:0:0:0:
344,304,164928,5,8,0:0:0:0:
368,192,165136,1,0,0:0:0:0:
296,100,165344,1,0,0:0:0:0:
200,80,165553,1,4,0:0:0:0:
100,80,165761,1,0,0:0:0:0:
8,84,165986,1,0,0:0:0:0:
112,80,166212,5,8,0:0:0:0:
196,80,166437,1,0,0:0:0:0:
300,80,166663,1,0,0:0:0:0:
392,80,166903,1,4,0:0:0:0:
272,80,167143,1,0,0:0:0:0:
392,80,167383,1,0,0:0:0:0:
248,80,167623,5,8,0:0:0:0:
480,80,168389,1,4,0:0:0:0:
100,80,169208,1,8,0:0:0:0:
480,80,170178,1,4,0:0:0:0:
256,192,171580,12,0,173932,0:0:0:0:
