osu file format v14

[General]
AudioFilename: EOL 1-08 Foresight Is for Losers (Ralph's Theme) [Hylian Lemon].mp3
AudioLeadIn: 0
PreviewTime: 85850
Countdown: 0
SampleSet: Soft
StackLeniency: 0.7
Mode: 2
LetterboxInBreaks: 0
WidescreenStoryboard: 0

[Editor]
DistanceSpacing: 1.6
BeatDivisor: 4
GridSize: 8
TimelineZoom: 1

[Metadata]
Title:Foresight Is for Losers
TitleUnicode:Foresight Is for Losers
Artist:Hylian Lemon
ArtistUnicode:Hylian Lemon
Creator:ZiRoX
Version:Cup
Source:The Legend of Zelda: Oracle of Ages
Tags:MBC10 Deif Essence of Lime Ralph's Theme Koji Kondo 近藤浩治 Nintendo no Densetsu Fushigi Kinomi Jikuu Shou Game Boy Capcom ゼルダの伝説 ふしぎの木の実 時空の章 Ben Hoffman
BeatmapID:757537
BeatmapSetID:342751

[Difficulty]
HPDrainRate:4
CircleSize:2.5
OverallDifficulty:5
ApproachRate:5
SliderMultiplier:1.2
SliderTickRate:1

[Events]
//Background and Video events
0,0,"14775932493_01b36cfe57_o.jpg",0,0
//Break Periods
2,80207,86150
2,114630,118324
2,144084,146059
//Storyboard Layer 0 (Background)
//Storyboard Layer 1 (Fail)
//Storyboard Layer 2 (Pass)
//Storyboard Layer 3 (Foreground)
//Storyboard Sound Samples

[TimingPoints]
-20,375,4,2,0,60,1,0
1480,375,4,2,0,60,1,0
4761,-100,4,2,0,40,0,0
4855,-100,4,2,0,60,0,0
6261,-100,4,2,0,40,0,0
6355,-100,4,2,0,60,0,0
10480,-100,4,2,0,70,0,0
11980,-100,4,2,0,60,0,0
13105,-100,4,2,0,60,0,0
13480,-100,4,3,0,60,0,0
16480,-133.333333333333,4,3,0,60,0,0
19292,-100,4,3,0,60,0,0
25480,-100,4,1,0,50,0,1
37480,-100,4,3,0,40,0,0
43480,-100,4,3,0,60,0,0
48730,-100,4,3,0,50,0,0
49480,-133.333333333333,4,2,0,40,0,0
52480,-133.333333333333,4,3,0,50,0,0
55480,-133.333333333333,4,2,0,40,0,0
58480,-133.333333333333,4,3,0,50,0,0
61480,-133.333333333333,4,2,0,50,0,0
63730,-133.333333333333,4,1,0,25,0,0
64105,-133.333333333333,4,2,0,50,0,0
67480,-100,4,3,0,50,0,0
76480,-133.333333333333,4,3,0,60,0,0
77042,-133.333333333333,4,3,0,55,0,0
77605,413.793103448276,4,3,0,50,1,0
77605,-133.333333333333,4,3,0,50,0,0
78225,521.739130434783,4,3,0,50,1,0
78225,-133.333333333333,4,3,0,50,0,0
79007,666.666666666667,4,3,0,40,1,0
79007,-133.333333333333,4,3,0,40,0,0
80007,685.714285714286,4,3,0,30,1,0
81035,315.789473684211,4,1,0,60,1,0
81350,375,4,3,0,40,1,0
87350,-100,4,1,0,50,0,1
93350,-100,4,3,0,40,0,0
97850,-100,4,3,0,70,0,0
99350,-100,4,2,0,50,0,0
99912,-100,4,2,0,30,0,0
100850,-100,4,2,0,50,0,0
101412,-100,4,2,0,30,0,0
102350,-100,4,2,0,40,0,0
102912,-100,4,2,0,50,0,0
103850,-100,4,2,0,70,0,0
105350,-100,4,1,0,60,0,1
112850,-100,4,3,0,50,0,0
113225,-100,4,3,0,40,0,0
113600,-100,4,3,0,30,0,0
113975,-100,4,3,0,20,0,0
114350,-100,4,3,0,10,0,0
114430,566.037735849057,4,2,0,10,1,0
114996,566.037735849057,4,2,0,50,1,0
114996,-133.333333333333,4,2,0,50,0,0
122920,-133.333333333333,4,2,0,50,0,0
123062,-133.333333333333,4,2,0,50,0,0
125184,-133.333333333333,4,2,0,25,0,0
125326,-133.333333333333,4,2,0,50,0,0
125750,-133.333333333333,4,3,0,60,0,0
126316,-133.333333333333,4,2,0,50,0,0
127448,-133.333333333333,4,2,0,25,0,0
127590,-133.333333333333,4,2,0,50,0,0
128014,-133.333333333333,4,3,0,60,0,0
128580,545.454545454546,4,2,0,50,1,0
129125,526.315789473684,4,2,0,55,1,0
129651,491.803278688525,4,2,0,60,1,0
130142,461.538461538462,4,2,0,65,1,0
130603,441.176470588235,4,2,0,70,1,0
131044,428.571428571429,4,2,0,75,1,0
131472,400,4,2,0,80,1,0
131872,387.096774193548,4,2,0,85,1,0
132259,375,4,1,0,60,1,1
144259,-100,4,2,0,60,0,0
147259,-100,4,1,0,50,0,1
152509,-100,4,1,0,35,0,1
153259,-100,4,1,0,50,0,1
158602,-100,4,1,0,40,0,1
159259,-100,4,3,0,50,0,0
163759,375,4,3,0,50,1,0
164134,397.350993377483,4,3,0,60,1,0
164928,416.666666666667,4,3,0,60,1,0
165761,451.127819548872,4,3,0,60,1,0
166663,480,4,3,0,60,1,0
167623,508.474576271186,4,3,0,60,1,0
168131,517.241379310345,4,3,0,60,1,0
168648,560.747663551402,4,3,0,60,1,0
169208,582.52427184466,4,3,0,60,1,0
169499,645.161290322581,4,3,0,60,1,0
169821,714.285714285714,4,3,0,60,1,0
170178,833.333333333333,4,3,0,60,1,0
170594,882.352941176471,4,3,0,60,1,0
171035,1090.90909090909,4,3,0,60,1,0
171580,1176.47058823529,4,3,0,30,1,0

[Colours]
Combo1 : 255,145,91
Combo2 : 255,255,128

[HitObjects]
384,280,1480,6,0,P|448:192|464:112,1,180,6|0,0:0|0:0,0:0:0:0:
344,120,2605,1,8,0:0:0:0:
256,120,2980,6,0,P|192:184|184:272,1,180,2|0,0:0|0:0,0:0:0:0:
256,264,4105,1,8,0:0:0:0:
160,264,4480,6,0,L|120:168,2,90,4|2|0,0:0|0:0|0:0,0:0:0:0:
272,264,5605,1,8,0:0:0:0:
368,264,5980,6,0,L|320:176,2,90,2|2|0,0:0|0:0|0:0,0:0:0:0:
488,256,7105,1,10,0:0:0:0:
368,328,7480,6,0,P|336:216|368:72,1,240,4|0,0:0|0:0,0:0:0:0:
208,328,8980,2,0,P|176:216|208:72,1,240,2|2,0:0|0:0,0:0:0:0:
376,288,10480,6,0,L|448:168,1,120,2|10,0:0|0:0,0:0:0:0:
360,176,11230,2,0,L|306:68,1,120,2|8,0:0|0:0,0:0:0:0:
384,64,11980,5,2,0:0:0:0:
280,64,12355,1,2,0:0:0:0:
168,64,12730,1,2,0:0:0:0:
288,64,13105,1,10,0:0:0:0:
144,64,13480,6,0,L|112:192,1,120,10|4,0:0|0:0,0:0:0:0:
216,200,14230,2,0,L|248:72,1,120,8|4,0:0|0:0,0:0:0:0:
360,64,14980,6,0,L|400:200,1,120,8|4,0:0|0:0,0:0:0:0:
304,200,15730,2,0,L|264:72,1,120,8|4,0:0|0:0,0:0:0:0:
152,80,16480,6,0,P|112:144|120:200,1,135.000005149841,8|0,0:0|0:0,0:0:0:0:
160,224,17230,2,0,L|296:280,1,135.000005149841,8|0,0:0|0:0,0:0:0:0:
328,288,17980,6,0,P|376:224|360:176,1,135.000005149841,8|0,0:0|0:0,0:0:0:0:
312,160,18730,2,0,P|272:216|288:280,1,135.000005149841,8|0,0:0|0:0,0:0:0:0:
360,272,19480,6,0,L|432:376,2,120,8|4|8,0:0|0:0|0:0,0:0:0:0:
240,256,20605,1,4,0:0:0:0:
352,248,20980,6,0,L|272:128,2,120,10|4|8,0:0|0:0|0:0,0:0:0:0:
464,256,22105,1,4,0:0:0:0:
352,256,22480,6,0,L|264:160,1,120,8|4,0:0|0:0,0:0:0:0:
152,176,23230,2,0,L|240:88,1,120,10|6,0:0|0:0,0:0:0:0:
352,128,23980,6,0,L|256:40,1,120,2|2,0:0|0:0,0:0:0:0:
128,192,24730,2,0,L|248:264,1,120,2|8,0:0|0:0,0:0:0:0:
304,280,25292,1,8,0:0:0:0:
208,288,25480,6,0,L|136:160,1,120,4|8,0:1|0:0,0:0:0:0:
280,176,26230,2,0,L|320:104,1,60,0|0,0:0|0:0,0:0:0:0:
280,104,26605,2,0,L|320:32,1,60,8|0,0:0|0:0,0:0:0:0:
392,40,26980,6,0,L|448:152,1,120,6|8,0:3|0:0,0:0:0:0:
336,160,27730,2,0,L|304:224,1,60,0|0,0:0|0:0,0:0:0:0:
256,232,28105,2,0,L|280:288,1,60,8|0,0:0|0:0,0:0:0:0:
184,328,28480,6,0,L|136:208,1,120,6|8,0:3|0:0,0:0:0:0:
272,208,29230,2,0,L|320:88,1,120,6|8,0:3|0:0,0:0:0:0:
184,80,29980,5,0,0:0:0:0:
40,80,30355,1,6,0:3:0:0:
200,80,30730,1,0,0:0:0:0:
40,80,31105,1,8,0:0:0:0:
256,96,31480,6,0,L|328:224,1,120,4|8,0:0|0:0,0:0:0:0:
200,208,32230,2,0,L|168:280,1,60,0|0,0:0|0:0,0:0:0:0:
200,280,32605,2,0,L|168:352,1,60,8|0,0:0|0:0,0:0:0:0:
272,344,32980,6,0,L|328:232,1,120,6|8,0:3|0:0,0:0:0:0:
208,224,33730,2,0,L|184:168,1,60,0|0,0:0|0:0,0:0:0:0:
128,152,34105,2,0,L|160:88,1,60,8|0,0:0|0:0,0:0:0:0:
248,80,34480,6,0,L|312:200,1,120,6|8,0:3|0:0,0:0:0:0:
160,200,35230,2,0,L|96:320,1,120,6|8,0:3|0:0,0:0:0:0:
232,328,35980,5,6,0:3:0:0:
384,328,36355,1,8,0:0:0:0:
216,328,36730,1,2,0:2:0:0:
384,328,37105,1,8,0:0:0:0:
272,304,37480,6,0,L|176:136,2,180,4|4|2,0:0|0:0|0:0,0:0:0:0:
384,304,38980,6,0,P|408:208|368:120,1,180,4|4,0:0|0:0,0:0:0:0:
264,112,39917,1,0,0:0:0:0:
104,104,40480,6,0,L|88:304,1,180,4|4,0:0|0:0,0:0:0:0:
216,312,41605,2,0,L|232:112,1,180,4|0,0:0|0:0,0:0:0:0:
104,104,42730,2,0,L|120:248,1,120,4|4,0:0|0:0,0:0:0:0:
224,304,43480,6,0,L|304:136,2,180,12|12|12,0:0|0:0|0:0,0:0:0:0:
344,304,44980,2,0,L|232:136,1,180,12|12,0:0|0:0,0:0:0:0:
128,144,46105,1,0,0:0:0:0:
256,144,46480,6,0,L|240:344,1,180,12|12,0:0|0:0,0:0:0:0:
376,352,47605,2,0,L|392:160,1,180,12|0,0:0|0:0,0:0:0:0:
240,144,48730,2,0,L|224:288,1,120,12|12,0:0|0:0,0:0:0:0:
112,344,49480,6,0,L|88:240,1,90.0000034332277,6|0,0:0|0:0,0:0:0:0:
144,248,50042,2,0,L|184:104,1,135.000005149841,8|4,0:0|0:0,0:0:0:0:
320,72,50980,6,0,L|344:176,1,90.0000034332277,2|0,0:0|0:0,0:0:0:0:
304,176,51542,2,0,L|280:280,1,90.0000034332277,10|6,0:0|0:0,0:0:0:0:
128,304,52480,6,0,L|248:224,1,135.000005149841,10|10,0:0|0:0,0:0:0:0:
112,208,53605,2,0,L|232:128,1,135.000005149841,10|4,0:0|0:0,0:0:0:0:
112,104,54730,2,0,L|200:48,1,90.0000034332277,4|4,0:0|0:0,0:0:0:0:
336,48,55480,6,0,L|360:152,1,90.0000034332277,6|0,0:0|0:0,0:0:0:0:
304,152,56042,2,0,L|264:296,1,135.000005149841,8|0,0:0|0:0,0:0:0:0:
144,288,56980,1,2,0:0:0:0:
256,224,57542,2,0,L|232:120,1,90.0000034332277,2|4,0:0|0:0,0:0:0:0:
384,304,58480,6,0,L|256:216,1,135.000005149841,10|10,0:0|0:0,0:0:0:0:
128,208,59605,2,0,L|256:128,1,135.000005149841,10|10,0:0|0:0,0:0:0:0:
384,104,60730,2,0,L|296:56,1,90.0000034332277,0|4,0:0|0:0,0:0:0:0:
176,80,61480,6,0,L|136:120,1,45.0000017166138,4|0,0:0|0:0,0:0:0:0:
96,144,61855,2,0,L|144:240,1,90.0000034332277,2|2,0:0|0:0,0:0:0:0:
232,216,62605,6,0,L|272:256,1,45.0000017166138,0|0,0:0|0:0,0:0:0:0:
304,280,62980,2,0,L|248:368,1,90.0000034332277,2|2,0:0|0:0,0:0:0:0:
128,272,63730,6,0,L|200:200,1,90.0000034332277,0|6,0:0|0:0,0:0:0:0:
320,208,64667,1,2,0:0:0:0:
456,208,65230,1,2,0:0:0:0:
352,208,65605,1,8,0:0:0:0:
248,208,65980,1,8,0:0:0:0:
168,208,66355,5,8,0:0:0:0:
112,208,66542,1,0,0:0:0:0:
72,208,66730,1,8,0:0:0:0:
112,208,66917,1,0,0:0:0:0:
168,208,67105,1,8,0:0:0:0:
296,208,67480,5,2,0:0:0:0:
128,208,68042,1,2,0:0:0:0:
296,208,68605,1,2,0:0:0:0:
144,208,69167,2,0,L|304:88,1,180,10|4,0:0|0:0,0:0:0:0:
216,208,70480,6,0,L|272:168,2,60,2|0|0,0:0|0:0|0:0,0:0:0:0:
136,208,71042,1,2,0:0:0:0:
320,208,71605,6,0,L|376:160,1,60,2|4,0:0|0:0,0:0:0:0:
216,208,72167,2,0,L|48:88,1,180,10|6,0:0|0:0,0:0:0:0:
264,208,73480,6,0,L|320:248,1,60,2|2,0:0|0:0,0:0:0:0:
432,208,74042,2,0,L|264:88,1,180,10|4,0:0|0:0,0:0:0:0:
104,80,75167,1,4,0:0:0:0:
248,80,75730,1,4,0:0:0:0:
360,80,76105,1,6,0:0:0:0:
248,80,76480,6,0,L|176:216,1,135.000005149841,2|2,0:0|0:0,0:0:0:0:
288,224,77605,2,0,L|352:352,1,135.000005149841,2|2,0:0|0:0,0:0:0:0:
176,360,79007,2,0,L|256:232,1,135.000005149841,2|2,0:0|0:0,0:0:0:0:
208,288,87350,6,0,L|144:160,1,120,4|8,0:0|0:0,0:0:0:0:
280,176,88100,2,0,L|320:104,1,60,0|0,0:0|0:0,0:0:0:0:
360,104,88475,2,0,L|320:32,1,60,8|0,0:0|0:0,0:0:0:0:
408,40,88850,6,0,L|472:152,1,120,6|8,0:3|0:0,0:0:0:0:
336,160,89600,2,0,L|304:224,1,60,2|0,0:2|0:0,0:0:0:0:
248,232,89975,2,0,L|272:288,1,60,8|0,0:0|0:0,0:0:0:0:
184,312,90350,6,0,L|128:272,2,60,6|0|8,0:3|0:0|0:0,0:0:0:0:
304,264,91100,2,0,L|360:224,2,60,6|0|8,0:3|0:0|0:0,0:0:0:0:
160,240,91850,2,0,L|80:136,2,120,6|10|6,0:3|0:2|0:3,0:0:0:0:
16,304,92975,1,10,0:2:0:0:
160,304,93350,6,0,L|264:200,1,120,4|8,0:0|0:0,0:0:0:0:
72,232,94287,1,0,0:0:0:0:
248,136,94850,6,0,L|352:240,1,120,4|8,0:0|0:0,0:0:0:0:
440,240,95600,2,0,L|336:344,1,120,4|8,0:0|0:0,0:0:0:0:
240,328,96350,6,0,L|136:224,1,120,4|8,0:0|0:0,0:0:0:0:
320,264,97287,1,0,0:0:0:0:
456,240,97850,6,0,L|360:128,1,120,12|10,0:0|0:0,0:0:0:0:
312,136,98412,2,0,L|384:16,1,120,12|10,0:0|0:0,0:0:0:0:
208,56,99350,6,0,P|144:112|112:224,1,180,4|8,0:0|0:0,0:0:0:0:
240,232,100475,1,10,0:0:0:0:
376,232,100850,6,0,P|451:160|416:80,1,180,8|8,0:0|0:0,0:0:0:0:
264,56,101975,1,8,0:0:0:0:
400,56,102350,6,0,P|400:160|336:232,2,180,8|8|8,0:0|0:0|0:0,0:0:0:0:
232,64,103850,5,2,0:0:0:0:
336,136,104225,2,0,L|344:200,1,60,2|0,0:0|0:0,0:0:0:0:
208,176,104787,2,0,L|200:240,1,60,0|2,0:0|0:0,0:0:0:0:
320,248,105350,6,0,P|374:207|400:80,2,180,12|8|8,0:0|0:0|0:0,0:0:0:0:
208,240,106850,6,0,P|153:199|96:80,2,180,8|8|8,0:0|0:0|0:0,0:0:0:0:
320,248,108350,6,0,P|374:207|456:104,2,180,8|8|8,0:0|0:0|0:0,0:0:0:0:
208,248,109850,6,0,L|224:184,1,60,8|0,0:0|0:0,0:0:0:0:
320,184,110412,2,0,L|296:120,1,60,8|0,0:0|0:0,0:0:0:0:
192,112,110975,1,8,0:0:0:0:
320,112,111350,5,8,0:0:0:0:
176,112,111725,1,8,0:0:0:0:
336,112,112100,1,8,0:0:0:0:
160,112,112475,1,8,0:0:0:0:
256,192,112850,12,0,114430,0:0:0:0:
184,192,119524,6,0,L|160:288,1,90.0000034332277,2|2,0:0|0:0,0:0:0:0:
264,328,120656,2,0,L|288:232,1,90.0000034332277,2|2,0:0|0:0,0:0:0:0:
400,224,121788,6,0,L|424:128,1,90.0000034332277,2|2,0:0|0:0,0:0:0:0:
320,88,122920,2,0,L|296:192,1,90.0000034332277,2|2,0:0|0:0,0:0:0:0:
184,192,124052,6,0,L|208:288,1,90.0000034332277,2|2,0:0|0:0,0:0:0:0:
336,272,125184,2,0,L|352:336,1,45.0000017166138,2|0,0:0|0:0,0:0:0:0:
264,360,125750,1,2,0:0:0:0:
448,192,126316,6,0,L|424:96,1,90.0000034332277,2|2,0:0|0:0,0:0:0:0:
280,112,127448,2,0,L|264:48,1,45.0000017166138,8|0,0:0|0:0,0:0:0:0:
360,24,128014,1,2,0:0:0:0:
208,40,128580,6,0,L|168:176,1,120,2|2,0:0|0:0,0:0:0:0:
56,176,129651,2,0,L|96:304,1,120,2|2,0:0|0:0,0:0:0:0:
224,320,130603,2,0,L|256:192,1,120,2|2,0:0|0:0,0:0:0:0:
128,192,131472,2,0,L|168:64,1,120,2|2,0:0|0:0,0:0:0:0:
288,48,132259,6,0,L|344:128,1,90,4|0,0:1|0:0,0:0:0:0:
392,168,132821,2,0,P|416:232|384:296,1,120,0|0,0:0|0:0,0:0:0:0:
352,312,133384,1,8,0:0:0:0:
224,288,133759,6,0,L|176:192,1,90,6|0,0:3|0:0,0:0:0:0:
272,192,134321,2,0,P|304:136|272:72,1,120,0|0,0:0|0:0,0:0:0:0:
240,56,134884,1,8,0:0:0:0:
88,64,135259,6,0,L|48:120,2,60,6|0|0,0:3|0:0|0:0,0:0:0:0:
144,48,135821,1,0,0:0:0:0:
240,104,136196,1,0,0:0:0:0:
264,160,136384,1,8,0:0:0:0:
144,192,136759,5,6,0:3:0:0:
264,224,137134,1,0,0:0:0:0:
328,240,137321,1,0,0:0:0:0:
392,256,137509,1,0,0:0:0:0:
288,336,137884,1,8,0:0:0:0:
136,320,138259,6,0,L|88:232,1,90,4|0,0:0|0:0,0:0:0:0:
200,224,138821,2,0,P|224:168|192:104,1,120,0|0,0:0|0:0,0:0:0:0:
168,88,139384,1,8,0:0:0:0:
272,88,139759,6,0,L|320:184,1,90,6|0,0:3|0:0,0:0:0:0:
208,184,140321,2,0,P|184:248|216:304,1,120,0|0,0:0|0:0,0:0:0:0:
256,328,140884,1,8,0:0:0:0:
400,336,141259,6,0,L|440:288,2,60,6|0|0,0:3|0:0|0:0,0:0:0:0:
288,328,142009,1,0,0:0:0:0:
176,296,142384,1,8,0:0:0:0:
64,184,142759,5,4,0:0:0:0:
200,184,143134,2,0,L|184:248,1,60,0|0,0:0|0:0,0:0:0:0:
168,296,143509,1,0,0:0:0:0:
304,304,143884,1,8,0:0:0:0:
152,40,147259,6,0,L|128:176,1,120,12|0,0:0|0:0,0:0:0:0:
176,192,147821,2,0,L|240:320,1,120,8|0,0:0|0:0,0:0:0:0:
416,40,148759,6,0,L|440:176,1,120,8|0,0:0|0:0,0:0:0:0:
392,192,149321,2,0,L|320:320,1,120,8|0,0:0|0:0,0:0:0:0:
136,312,150259,5,8,0:0:0:0:
280,248,150821,1,8,0:0:0:0:
128,176,151384,1,8,0:2:0:0:
296,136,151946,1,0,0:0:0:0:
112,56,152509,1,8,0:0:0:0:
256,48,152884,1,8,0:0:0:0:
392,56,153259,5,8,0:0:0:0:
272,120,153634,2,0,L|296:192,1,60,0|8,0:0|0:0,0:0:0:0:
408,224,154196,1,0,0:0:0:0:
256,248,154759,5,8,0:0:0:0:
376,184,155134,2,0,L|352:112,1,60,0|8,0:0|0:0,0:0:0:0:
240,80,155696,1,0,0:0:0:0:
136,312,156259,5,8,0:0:0:0:
288,248,156821,1,8,0:0:0:0:
128,176,157384,1,8,0:0:0:0:
312,136,157946,1,0,0:0:0:0:
112,56,158509,1,8,0:0:0:0:
256,48,158884,1,8,0:0:0:0:
120,48,159259,6,0,L|16:224,2,180,12|4|8,0:0|0:0|0:0,0:0:0:0:
264,48,160946,1,4,0:0:0:0:
416,48,161509,6,0,L|312:224,1,180,12|8,0:0|0:0,0:0:0:0:
144,272,162634,2,0,L|256:96,1,180,8|4,0:0|0:0,0:0:0:0:
384,80,163759,5,8,0:0:0:0:
256,80,164332,1,4,0:0:0:0:
128,80,164928,1,8,0:0:0:0:
256,80,165553,1,4,0:0:0:0:
136,80,166212,5,8,0:0:0:0:
256,80,166903,1,4,0:0:0:0:
368,80,167623,1,8,0:0:0:0:
256,80,168389,1,4,0:0:0:0:
152,80,169208,5,8,0:0:0:0:
368,80,170178,1,4,0:0:0:0:
256,192,171580,12,0,173932,0:0:0:0:
