osu file format v14

[General]
AudioFilename: EOL 1-08 Foresight Is for Losers (Ralph's Theme) [Hylian Lemon].mp3
AudioLeadIn: 0
PreviewTime: 85850
Countdown: 0
SampleSet: Normal
StackLeniency: 0.7
Mode: 2
LetterboxInBreaks: 0
WidescreenStoryboard: 0

[Editor]
DistanceSpacing: 1.6
BeatDivisor: 4
GridSize: 8
TimelineZoom: 1.7

[Metadata]
Title:Foresight Is for Losers
TitleUnicode:Foresight Is for Losers
Artist:Hylian Lemon
ArtistUnicode:Hylian Lemon
Creator:ZiRoX
Version:Collab Rain
Source:The Legend of Zelda: Oracle of Ages
Tags:MBC10 Deif Essence of Lime Ralph's Theme Koji Kondo 近藤浩治 Nintendo no Densetsu Fushigi Kinomi Jikuu Shou Game Boy Capcom ゼルダの伝説 ふしぎの木の実 時空の章 Ben Hoffman
BeatmapID:757539
BeatmapSetID:342751

[Difficulty]
HPDrainRate:6
CircleSize:4
OverallDifficulty:8.3
ApproachRate:8.3
SliderMultiplier:2
SliderTickRate:1

[Events]
//Background and Video events
0,0,"14775932493_01b36cfe57_o.jpg",0,0
//Break Periods
2,81550,86646
2,144459,146555
//Storyboard Layer 0 (Background)
//Storyboard Layer 1 (Fail)
//Storyboard Layer 2 (Pass)
//Storyboard Layer 3 (Foreground)
//Storyboard Sound Samples

[TimingPoints]
-20,375,4,2,0,60,1,0
1480,375,4,2,0,60,1,0
1761,-100,4,2,0,40,0,0
1855,-100,4,2,0,60,0,0
3261,-100,4,2,0,40,0,0
3355,-100,4,2,0,60,0,0
4761,-100,4,2,0,40,0,0
4855,-100,4,2,0,60,0,0
6261,-100,4,2,0,40,0,0
6355,-100,4,2,0,60,0,0
7761,-100,4,2,0,40,0,0
7855,-100,4,2,0,60,0,0
10480,-100,4,2,0,70,0,0
11980,-100,4,2,0,60,0,0
13105,-100,4,2,0,60,0,0
13480,-100,4,3,0,60,0,0
25480,-100,4,1,0,50,0,1
37480,-100,4,3,0,40,0,0
43480,-100,4,3,0,60,0,0
48730,-100,4,3,0,50,0,0
49480,-133.333333333333,4,2,0,40,0,0
52480,-80,4,3,0,50,0,0
55480,-133.333333333333,4,2,0,40,0,0
58480,-80,4,3,0,50,0,0
61480,-133.333333333333,4,2,0,50,0,0
63730,-133.333333333333,4,1,0,25,0,0
64105,-133.333333333333,4,2,0,50,0,0
67480,-100,4,3,0,50,0,0
76480,-133.333333333333,4,3,0,60,0,0
77042,-133.333333333333,4,3,0,55,0,0
77605,413.793103448276,4,3,0,50,1,0
77605,-133.333333333333,4,3,0,50,0,0
78018,-133.333333333333,4,3,0,30,0,0
78225,521.739130434783,4,3,0,50,1,0
78746,-133.333333333333,4,3,0,25,0,0
79007,666.666666666667,4,3,0,40,1,0
79007,-133.333333333333,4,3,0,40,0,0
79673,-133.333333333333,4,2,0,5,0,0
80007,685.714285714286,4,3,0,30,1,0
80692,-100,4,3,0,5,0,0
81035,315.789473684211,4,1,0,60,1,0
81350,375,4,3,0,40,1,0
87350,-80,4,1,0,50,0,1
93350,-100,4,3,0,40,0,0
97850,-100,4,3,0,70,0,0
98787,-66.6666666666667,4,3,0,70,0,0
99350,-100,4,2,0,50,0,0
99912,-100,4,2,0,30,0,0
100850,-100,4,2,0,50,0,0
101412,-100,4,2,0,30,0,0
102350,-100,4,2,0,40,0,0
102912,-100,4,2,0,50,0,0
103850,-100,4,2,0,70,0,0
105350,-100,4,1,0,60,0,1
112850,-100,4,3,0,50,0,0
113225,-100,4,3,0,40,0,0
113600,-100,4,3,0,30,0,0
113975,-100,4,3,0,20,0,0
114350,-100,4,3,0,10,0,0
114430,566.037735849057,4,2,0,10,1,0
114996,566.037735849057,4,2,0,50,1,0
114996,-80,4,2,0,50,0,0
115845,-80,4,2,0,25,0,0
116128,-80,4,2,0,50,0,0
116977,-80,4,2,0,25,0,0
117260,-80,4,2,0,50,0,0
118109,-80,4,2,0,25,0,0
118392,-80,4,2,0,50,0,0
120373,-80,4,2,0,50,0,0
120656,-80,4,2,0,50,0,0
122920,-80,4,2,0,50,0,0
123062,-80,4,2,0,50,0,0
123628,-80,4,2,0,50,0,0
123911,-80,4,2,0,50,0,0
125184,-80,4,2,0,25,0,0
125326,-80,4,2,0,50,0,0
125750,-80,4,3,0,60,0,0
125892,-80,4,2,0,35,0,0
126316,-80,4,2,0,50,0,0
127448,-80,4,2,0,25,0,0
127590,-80,4,2,0,50,0,0
128014,-80,4,3,0,60,0,0
128156,-80,4,2,0,50,0,0
128580,545.454545454546,4,2,0,50,1,0
129125,526.315789473684,4,2,0,55,1,0
129651,491.803278688525,4,2,0,60,1,0
130142,461.538461538462,4,2,0,65,1,0
130603,441.176470588235,4,2,0,70,1,0
131044,428.571428571429,4,2,0,75,1,0
131472,400,4,2,0,80,1,0
131872,387.096774193548,4,2,0,85,1,0
132259,375,4,1,0,60,1,1
144259,-100,4,2,0,60,0,0
147259,-100,4,1,0,50,0,1
152509,-100,4,1,0,35,0,1
153259,-100,4,1,0,50,0,1
158602,-100,4,1,0,40,0,1
159259,-100,4,3,0,50,0,0
163759,375,4,3,0,50,1,0
164134,397.350993377483,4,3,0,60,1,0
164928,416.666666666667,4,3,0,60,1,0
165761,451.127819548872,4,3,0,60,1,0
166663,480,4,3,0,60,1,0
167623,508.474576271186,4,3,0,60,1,0
168131,517.241379310345,4,3,0,60,1,0
168648,560.747663551402,4,3,0,60,1,0
169208,582.52427184466,4,3,0,60,1,0
169499,645.161290322581,4,3,0,60,1,0
169821,714.285714285714,4,3,0,60,1,0
170178,833.333333333333,4,3,0,60,1,0
170594,882.352941176471,4,3,0,60,1,0
171035,1090.90909090909,4,3,0,60,1,0
171580,1176.47058823529,4,3,0,30,1,0

[Colours]
Combo1 : 255,145,91
Combo2 : 255,255,128

[HitObjects]
112,192,1480,6,0,P|192:192|252:120,1,150,6|2,0:0|0:0,0:0:0:0:
316,140,1855,2,0,L|296:36,1,100,8|0,0:0|0:0,0:0:0:0:
164,48,2230,1,0,0:0:0:0:
304,48,2417,1,0,0:0:0:0:
360,71,2510,1,0,0:0:0:0:
383,127,2604,1,8,0:0:0:0:
256,172,2792,1,0,0:0:0:0:
449,326,2980,6,0,P|369:326|309:254,1,150,2|2,0:0|0:0,0:0:0:0:
245,274,3355,2,0,L|265:170,1,100,8|0,0:0|0:0,0:0:0:0:
412,184,3730,1,0,0:0:0:0:
263,175,3917,1,0,0:0:0:0:
208,160,4011,1,0,0:0:0:0:
176,120,4105,1,8,0:0:0:0:
280,72,4292,1,0,0:0:0:0:
444,76,4480,6,0,P|364:76|304:148,1,150,4|2,0:0|0:0,0:0:0:0:
263,175,4855,2,0,L|283:279,1,100,8|0,0:0|0:0,0:0:0:0:
400,272,5230,1,0,0:0:0:0:
248,268,5417,1,0,0:0:0:0:
192,245,5510,1,0,0:0:0:0:
169,189,5604,1,8,0:0:0:0:
320,144,5792,1,0,0:0:0:0:
156,104,5980,6,0,P|76:104|16:176,1,150,2|2,0:0|0:0,0:0:0:0:
80,192,6355,2,0,L|100:296,1,100,8|0,0:0|0:0,0:0:0:0:
248,304,6730,1,0,0:0:0:0:
108,304,6917,1,0,0:0:0:0:
52,281,7010,1,0,0:0:0:0:
29,225,7104,1,10,0:0:0:0:
180,180,7292,1,0,0:0:0:0:
460,232,7480,6,0,P|492:168|412:104,1,150,4|2,0:0|0:0,0:0:0:0:
388,108,7855,2,0,L|260:108,1,100,8|0,0:0|0:0,0:0:0:0:
428,108,8230,1,0,0:0:0:0:
288,108,8417,1,0,0:0:0:0:
240,96,8510,1,0,0:0:0:0:
204,64,8604,1,8,0:0:0:0:
364,12,8792,1,0,0:0:0:0:
112,44,8980,6,0,P|69:56|36:108,1,100,2|0,0:0|0:0,0:0:0:0:
28,132,9261,1,0,0:0:0:0:
36,180,9355,1,10,0:0:0:0:
64,224,9448,1,0,0:0:0:0:
104,256,9542,1,0,0:0:0:0:
156,268,9636,1,0,0:0:0:0:
204,268,9730,1,2,0:0:0:0:
392,304,9917,5,0,0:0:0:0:
352,300,10011,1,0,0:0:0:0:
312,276,10105,1,10,0:0:0:0:
280,244,10198,1,0,0:0:0:0:
268,204,10292,1,0,0:0:0:0:
452,176,10480,6,0,L|472:64,1,100,2|0,0:0|0:0,0:0:0:0:
288,124,10855,2,0,L|260:28,1,100,10|0,0:0|0:0,0:0:0:0:
96,120,11230,2,0,L|84:0,1,100,2|2,0:0|0:0,0:0:0:0:
140,8,11511,1,0,0:0:0:0:
188,16,11605,1,8,0:0:0:0:
228,40,11698,1,0,0:0:0:0:
260,80,11792,1,2,0:0:0:0:
272,132,11886,1,0,0:0:0:0:
168,176,11980,6,0,L|192:312,1,100,2|0,0:0|0:0,0:0:0:0:
440,180,12355,2,0,L|420:288,1,100,2|0,0:0|0:0,0:0:0:0:
160,352,12730,1,2,0:0:0:0:
112,344,12824,1,0,0:0:0:0:
72,320,12917,1,2,0:0:0:0:
40,280,13011,1,0,0:0:0:0:
28,228,13105,1,10,0:0:0:0:
84,132,13292,1,0,0:0:0:0:
392,220,13480,6,0,L|424:336,1,100,10|0,0:0|0:0,0:0:0:0:
296,320,13855,1,4,0:0:0:0:
416,320,14042,1,0,0:0:0:0:
268,320,14230,2,0,L|248:220,1,100,8|0,0:0|0:0,0:0:0:0:
432,320,14605,1,4,0:0:0:0:
208,224,14980,6,0,L|176:340,1,100,8|0,0:0|0:0,0:0:0:0:
304,324,15355,1,4,0:0:0:0:
184,324,15542,1,0,0:0:0:0:
332,324,15730,2,0,L|352:224,1,100,8|0,0:0|0:0,0:0:0:0:
168,320,16105,1,4,0:0:0:0:
416,192,16480,6,0,P|400:144|352:128,1,100,8|0,0:0|0:0,0:0:0:0:
224,96,16855,1,4,0:0:0:0:
348,96,17042,1,0,0:0:0:0:
212,192,17230,2,0,P|228:144|276:112,1,100,8|0,0:0|0:0,0:0:0:0:
384,96,17605,1,4,0:0:0:0:
256,96,17792,1,0,0:0:0:0:
96,192,17980,6,0,P|112:144|160:128,1,100,8|0,0:0|0:0,0:0:0:0:
288,96,18355,1,4,0:0:0:0:
164,96,18542,1,0,0:0:0:0:
312,192,18730,2,0,P|296:144|248:112,1,100,8|8,0:0|0:0,0:0:0:0:
128,96,19105,1,4,0:0:0:0:
256,96,19292,1,0,0:0:0:0:
436,96,19480,6,0,L|288:260,2,200,8|4|8,0:0|0:0|0:0,0:0:0:0:
348,348,20417,1,0,0:0:0:0:
236,348,20605,1,4,0:0:0:0:
12,48,20980,6,0,L|208:160,2,200,10|4|8,0:0|0:0|0:0,0:0:0:0:
160,48,21917,1,0,0:0:0:0:
308,48,22105,1,4,0:0:0:0:
164,128,22480,6,0,L|60:168,1,100,8|0,0:0|0:0,0:0:0:0:
180,256,22855,1,4,0:0:0:0:
348,128,23230,6,0,L|452:168,1,100,10|0,0:0|0:0,0:0:0:0:
280,256,23605,1,6,0:0:0:0:
120,248,23980,6,0,L|104:144,1,100,2|0,0:0|0:0,0:0:0:0:
100,120,24261,1,0,0:0:0:0:
92,72,24355,1,2,0:0:0:0:
244,64,24542,1,0,0:0:0:0:
92,72,24730,2,0,L|112:204,1,100,2|0,0:0|0:0,0:0:0:0:
268,64,25105,2,0,L|296:148,1,50.0000000000001,8|0,0:0|0:0,0:0:0:0:
192,120,25292,2,0,L|180:168,1,50.0000000000001,8|0,0:0|0:0,0:0:0:0:
336,140,25480,6,0,L|436:184,1,100,4|0,0:1|0:0,0:0:0:0:
468,196,25761,1,0,0:0:0:0:
512,212,25855,1,8,0:0:0:0:
388,288,26042,1,0,0:0:0:0:
140,296,26230,2,0,L|36:236,1,100,0|0,0:0|0:0,0:0:0:0:
16,220,26511,1,0,0:0:0:0:
56,176,26605,2,0,L|168:116,1,100,8|0,0:0|0:0,0:0:0:0:
476,196,26980,6,0,L|380:152,1,100,6|0,0:3|0:0,0:0:0:0:
352,140,27261,1,0,0:0:0:0:
308,124,27355,1,8,0:0:0:0:
212,80,27542,1,0,0:0:0:0:
360,80,27730,2,0,L|448:132,1,100,0|0,0:0|0:0,0:0:0:0:
484,176,28011,1,0,0:0:0:0:
428,216,28105,2,0,L|340:168,1,100,8|0,0:0|0:0,0:0:0:0:
80,104,28480,6,0,L|192:164,1,100,6|0,0:3|0:0,0:0:0:0:
212,172,28761,1,0,0:0:0:0:
256,192,28855,1,8,0:0:0:0:
352,236,29042,1,0,0:0:0:0:
20,152,29230,6,0,L|128:208,1,100,6|0,0:3|0:0,0:0:0:0:
152,216,29511,1,0,0:0:0:0:
196,240,29605,1,8,0:0:0:0:
292,284,29792,1,0,0:0:0:0:
100,280,29980,5,0,0:0:0:0:
32,196,30167,1,0,0:0:0:0:
312,280,30355,1,6,0:3:0:0:
380,196,30542,1,0,0:0:0:0:
104,232,30730,1,0,0:0:0:0:
64,232,30823,1,0,0:0:0:0:
28,216,30917,1,0,0:0:0:0:
8,184,31011,1,0,0:0:0:0:
0,136,31105,1,8,0:0:0:0:
96,60,31292,1,0,0:0:0:0:
368,176,31480,6,0,P|354:231|304:264,1,100,4|0,0:0|0:0,0:0:0:0:
288,280,31761,1,0,0:0:0:0:
256,304,31855,1,8,0:0:0:0:
412,304,32042,1,0,0:0:0:0:
256,360,32230,1,0,0:0:0:0:
424,352,32417,1,0,0:0:0:0:
464,320,32511,1,0,0:0:0:0:
504,280,32605,1,8,0:0:0:0:
472,240,32698,1,0,0:0:0:0:
424,208,32792,1,0,0:0:0:0:
100,228,32980,6,0,P|88:164|120:136,1,100,6|0,0:3|0:0,0:0:0:0:
144,120,33261,1,0,0:0:0:0:
188,108,33355,1,8,0:0:0:0:
300,76,33542,1,0,0:0:0:0:
492,72,33730,2,0,P|441:78|400:128,1,100,0|0,0:0|0:0,0:0:0:0:
392,144,34011,1,0,0:0:0:0:
404,192,34105,1,8,0:0:0:0:
432,240,34198,1,0,0:0:0:0:
472,264,34292,1,0,0:0:0:0:
100,200,34480,6,0,P|111:239|152:280,1,100,6|0,0:3|0:0,0:0:0:0:
188,296,34761,1,0,0:0:0:0:
232,312,34855,1,8,0:0:0:0:
388,320,35042,1,0,0:0:0:0:
100,224,35230,6,0,P|111:186|152:144,1,100,6|0,0:3|0:0,0:0:0:0:
184,124,35511,1,0,0:0:0:0:
232,108,35605,1,8,0:0:0:0:
360,96,35792,1,0,0:0:0:0:
112,96,35980,5,6,0:3:0:0:
332,236,36355,1,8,0:0:0:0:
376,236,36448,1,0,0:0:0:0:
332,236,36542,1,0,0:0:0:0:
288,236,36636,1,0,0:0:0:0:
240,236,36730,1,2,0:2:0:0:
364,236,36917,1,0,0:0:0:0:
216,236,37105,1,8,0:0:0:0:
400,236,37292,1,0,0:0:0:0:
136,80,37480,6,0,P|88:96|48:160,1,100,4|0,0:0|0:0,0:0:0:0:
44,164,37761,1,0,0:0:0:0:
32,212,37855,1,2,0:0:0:0:
220,140,38042,2,0,L|288:232,1,100,4|0,0:0|0:0,0:0:0:0:
304,252,38323,1,0,0:0:0:0:
336,292,38417,1,2,0:0:0:0:
240,340,38605,1,2,0:0:0:0:
388,352,38792,1,0,0:0:0:0:
84,88,38980,6,0,L|176:160,1,100,4|0,0:0|0:0,0:0:0:0:
192,168,39261,1,0,0:0:0:0:
224,188,39355,1,2,0:0:0:0:
376,180,39542,2,0,L|296:256,1,100,4|0,0:0|0:0,0:0:0:0:
272,272,39823,1,0,0:0:0:0:
240,296,39917,1,0,0:0:0:0:
208,328,40011,1,0,0:0:0:0:
240,368,40105,1,2,0:0:0:0:
368,368,40292,1,0,0:0:0:0:
96,308,40480,6,0,L|24:120,1,200,4|0,0:0|0:0,0:0:0:0:
348,308,41042,2,0,L|416:120,1,200,4|0,0:0|0:0,0:0:0:0:
104,40,41605,2,0,L|88:144,1,100,4|0,0:0|0:0,0:0:0:0:
224,44,41980,2,0,L|216:152,1,100,2|0,0:0|0:0,0:0:0:0:
336,108,42355,2,0,L|352:224,1,100,0|0,0:0|0:0,0:0:0:0:
86,141,42730,2,0,L|72:344,1,200,4|4,0:0|0:0,0:0:0:0:
416,76,43480,6,0,L|304:132,1,100,12|0,0:0|0:0,0:0:0:0:
296,136,43761,1,0,0:0:0:0:
256,152,43855,1,2,0:0:0:0:
96,76,44042,2,0,L|204:132,1,100,12|0,0:0|0:0,0:0:0:0:
216,136,44323,1,0,0:0:0:0:
256,152,44417,1,2,0:0:0:0:
424,196,44605,1,12,0:0:0:0:
360,228,44698,1,0,0:0:0:0:
300,260,44792,1,0,0:0:0:0:
40,308,44980,6,0,L|144:256,1,100,12|0,0:0|0:0,0:0:0:0:
160,248,45261,1,0,0:0:0:0:
200,232,45355,1,2,0:0:0:0:
344,224,45542,1,12,0:0:0:0:
388,196,45636,1,0,0:0:0:0:
400,148,45730,1,0,0:0:0:0:
376,100,45823,1,0,0:0:0:0:
328,76,45917,1,2,0:0:0:0:
48,96,46105,1,12,0:0:0:0:
0,112,46198,1,0,0:0:0:0:
48,96,46292,1,0,0:0:0:0:
320,56,46480,6,0,L|416:104,1,100,12|0,0:0|0:0,0:0:0:0:
456,120,46761,1,0,0:0:0:0:
504,144,46855,1,2,0:0:0:0:
200,56,47042,6,0,L|104:104,1,100,12|0,0:0|0:0,0:0:0:0:
64,128,47323,1,0,0:0:0:0:
24,144,47417,1,2,0:0:0:0:
392,272,47605,1,12,0:0:0:0:
428,244,47698,1,0,0:0:0:0:
464,208,47792,1,0,0:0:0:0:
480,160,47886,1,0,0:0:0:0:
460,112,47980,5,2,0:0:0:0:
428,72,48073,1,0,0:0:0:0:
264,40,48261,1,2,0:0:0:0:
100,44,48448,1,2,0:0:0:0:
56,72,48542,1,0,0:0:0:0:
24,112,48636,1,2,0:0:0:0:
8,164,48730,1,12,0:0:0:0:
24,216,48824,1,2,0:0:0:0:
56,248,48918,1,0,0:0:0:0:
104,264,49012,1,2,0:0:0:0:
160,272,49105,1,12,0:0:0:0:
28,360,49292,1,0,0:0:0:0:
408,40,49480,6,0,L|496:96,2,75.0000028610231,6|0|0,0:0|0:0|0:0,0:0:0:0:
288,40,50042,1,8,0:0:0:0:
72,40,50605,1,4,0:0:0:0:
300,128,50980,6,0,L|376:176,2,75.0000028610231,2|0|0,0:0|0:0|0:0,0:0:0:0:
400,72,51542,1,10,0:0:0:0:
128,128,51917,1,6,0:0:0:0:
432,192,52292,1,0,0:0:0:0:
336,192,52480,6,0,L|208:192,1,125,10|0,0:0|0:0,0:0:0:0:
164,192,52761,1,0,0:0:0:0:
108,192,52855,1,2,0:0:0:0:
248,192,53042,2,0,L|376:192,1,125,10|0,0:0|0:0,0:0:0:0:
420,192,53323,1,0,0:0:0:0:
476,192,53417,1,2,0:0:0:0:
160,192,53605,6,0,P|128:128|160:96,1,125,10|0,0:0|0:0,0:0:0:0:
232,96,53886,1,0,0:0:0:0:
296,96,53980,1,2,0:0:0:0:
480,192,54167,2,0,P|512:128|480:96,1,125,4|0,0:0|0:0,0:0:0:0:
416,96,54448,1,0,0:0:0:0:
360,96,54542,1,0,0:0:0:0:
416,64,54636,1,0,0:0:0:0:
480,64,54730,6,0,L|400:160,1,125,4|0,0:0|0:0,0:0:0:0:
224,160,55105,2,0,L|144:64,1,125,4|0,0:0|0:0,0:0:0:0:
408,40,55480,6,0,L|496:96,2,75.0000028610231,6|0|0,0:0|0:0|0:0,0:0:0:0:
288,40,56042,1,8,0:0:0:0:
88,248,56417,2,0,L|128:344,1,75.0000028610231,0|0,0:0|0:0,0:0:0:0:
328,128,56980,6,0,L|404:176,2,75.0000028610231,2|0|0,0:0|0:0|0:0,0:0:0:0:
400,72,57542,1,2,0:0:0:0:
168,136,57917,2,0,L|200:48,1,75.0000028610231,4|0,0:0|0:0,0:0:0:0:
304,64,58292,1,0,0:0:0:0:
384,144,58480,6,0,L|512:144,1,125,10|0,0:0|0:0,0:0:0:0:
448,96,58761,1,0,0:0:0:0:
384,96,58855,1,2,0:0:0:0:
200,144,59042,2,0,L|72:144,1,125,10|0,0:0|0:0,0:0:0:0:
136,96,59323,1,0,0:0:0:0:
200,96,59417,1,2,0:0:0:0:
368,144,59605,6,0,P|432:112|448:64,1,125,10|0,0:0|0:0,0:0:0:0:
384,64,59886,1,0,0:0:0:0:
320,64,59980,1,2,0:0:0:0:
160,144,60167,2,0,P|96:112|80:64,1,125,10|0,0:0|0:0,0:0:0:0:
144,64,60448,1,0,0:0:0:0:
200,64,60542,1,2,0:0:0:0:
160,64,60636,1,0,0:0:0:0:
88,64,60730,6,4,L|168:160,1,125,0|0,0:0|0:0,0:0:0:0:
440,320,61105,2,0,L|360:224,1,125,4|0,0:0|0:0,0:0:0:0:
208,264,61480,6,0,L|275:297,1,75.0000028610231,4|0,0:0|0:0,0:0:0:0:
460,272,61855,2,0,L|300:320,1,150.000005722046,2|2,0:0|0:0,0:0:0:0:
100,185,62605,6,0,L|168:152,1,75.0000028610231,0|0,0:0|0:0,0:0:0:0:
488,216,62980,2,0,L|344:304,1,150.000005722046,2|2,0:0|0:0,0:0:0:0:
64,304,63730,6,0,L|200:200,1,150.000005722046,0|6,0:0|0:0,0:0:0:0:
376,216,64667,1,2,0:0:0:0:
96,208,65230,1,2,0:0:0:0:
264,208,65605,1,8,0:0:0:0:
168,208,65792,1,0,0:0:0:0:
304,208,65980,1,8,0:0:0:0:
436,208,66167,1,0,0:0:0:0:
168,208,66355,5,8,0:0:0:0:
112,208,66448,1,0,0:0:0:0:
64,192,66542,1,0,0:0:0:0:
32,160,66636,1,0,0:0:0:0:
8,120,66730,1,8,0:0:0:0:
24,72,66823,1,0,0:0:0:0:
64,40,66917,1,0,0:0:0:0:
112,32,67011,1,0,0:0:0:0:
160,32,67105,1,8,0:0:0:0:
232,88,67292,1,0,0:0:0:0:
232,128,67386,1,0,0:0:0:0:
156,192,67480,6,0,L|92:296,1,100,2|2,0:0|0:0,0:0:0:0:
272,280,67855,2,0,L|224:168,1,100,0|2,0:0|0:0,0:0:0:0:
448,192,68417,1,0,0:0:0:0:
336,176,68605,2,0,L|432:128,1,100,2|4,0:0|0:0,0:0:0:0:
328,80,68980,1,0,0:0:0:0:
56,80,69167,2,0,L|264:320,1,300,10|4,0:0|0:0,0:0:0:0:
56,312,70105,1,6,0:0:0:0:
288,208,70480,6,0,L|404:200,2,100,2|0|0,0:0|0:0|0:0,0:0:0:0:
152,216,71042,1,2,0:0:0:0:
328,320,71417,1,0,0:0:0:0:
440,320,71605,6,0,L|528:224,1,100,2|4,0:0|0:0,0:0:0:0:
384,192,71980,1,0,0:0:0:0:
64,48,72167,2,0,L|235:307,1,300,10|6,0:0|0:0,0:0:0:0:
440,320,73105,1,4,0:0:0:0:
208,280,73480,6,0,L|96:280,1,100,2|2,0:0|0:0,0:0:0:0:
16,288,73855,1,0,0:0:0:0:
416,208,74042,2,0,L|160:32,1,300,10|4,0:0|0:0,0:0:0:0:
360,88,74980,1,0,0:0:0:0:
416,144,75167,1,4,0:0:0:0:
184,80,75542,1,0,0:0:0:0:
32,112,75730,6,0,L|128:176,1,100,4|0,0:0|0:0,0:0:0:0:
384,160,76105,2,0,L|480:96,1,100,6|0,0:0|0:0,0:0:0:0:
80,192,76480,6,0,P|64:256|144:272,1,150.000005722046,2|0,0:0|0:0,0:0:0:0:
432,192,77042,2,0,P|448:256|368:272,1,150.000005722046,2|0,0:0|0:0,0:0:0:0:
80,192,77605,6,0,P|40:124|112:80,1,150.000005722046,2|0,0:0|0:0,0:0:0:0:
432,191,78225,2,0,P|464:112|369:63,1,200,2|0,0:0|0:0,0:0:0:0:
188,192,79007,6,0,B|228:224|288:224|328:192,1,150.000005722046,2|0,0:0|0:0,0:0:0:0:
352,160,80007,6,0,B|352:112|304:112|256:144|256:144|208:112|160:112|160:160,1,250,2|0,0:0|0:0,0:0:0:0:
144,192,81035,6,0,L|184:232,1,50,0|0,0:0|0:0,0:0:0:0:
328,232,81192,2,0,L|368:192,1,50,0|0,0:0|0:0,0:0:0:0:
144,192,81350,5,4,0:0:0:0:
128,192,87350,5,4,0:0:0:0:
300,192,87537,2,0,L|364:192,1,62.5,0|0,0:0|0:0,0:0:0:0:
412,160,87725,2,0,P|357:130|296:126,1,125,8|0,0:0|0:0,0:0:0:0:
144,128,88100,1,0,0:0:0:0:
312,128,88287,2,0,L|248:128,1,62.5,0|0,0:0|0:0,0:0:0:0:
200,96,88475,2,0,L|141:78,2,62.5,8|0|0,0:0|0:0|0:0,0:0:0:0:
364,192,88850,5,6,0:3:0:0:
216,192,89037,2,0,L|152:192,1,62.5,0|0,0:0|0:0,0:0:0:0:
100,222,89225,2,0,P|155:252|216:256,1,125,8|0,0:0|0:0,0:0:0:0:
368,256,89600,1,2,0:2:0:0:
204,256,89787,2,0,L|268:256,1,62.5,0|0,0:0|0:0,0:0:0:0:
344,288,89975,2,0,L|403:306,2,62.5,8|0|0,0:0|0:0|0:0,0:0:0:0:
208,144,90350,6,0,L|84:196,1,125,6|0,0:3|0:0,0:0:0:0:
136,96,90631,1,0,0:0:0:0:
192,48,90725,2,0,L|76:96,1,125,8|0,0:0|0:0,0:0:0:0:
264,144,91100,2,0,L|140:196,1,125,6|0,0:3|0:0,0:0:0:0:
192,96,91381,1,0,0:0:0:0:
248,48,91475,2,0,L|132:96,1,125,8|0,0:0|0:0,0:0:0:0:
380,48,91850,5,6,0:3:0:0:
436,80,91943,1,0,0:0:0:0:
453,140,92037,1,0,0:0:0:0:
420,192,92131,1,0,0:0:0:0:
340,192,92225,2,0,L|356:128,1,62.5,10|0,0:2|0:0,0:0:0:0:
420,256,92412,2,0,L|412:192,1,62.5,0|0,0:0|0:0,0:0:0:0:
340,192,92600,1,6,0:3:0:0:
308,132,92693,5,0,0:0:0:0:
332,76,92787,1,0,0:0:0:0:
380,48,92881,1,0,0:0:0:0:
192,48,92975,1,10,0:2:0:0:
133,60,93068,1,0,0:0:0:0:
99,111,93162,1,0,0:0:0:0:
120,160,93256,1,0,0:0:0:0:
320,248,93350,6,0,L|424:224,2,100,4|2|8,0:0|0:0|0:0,0:0:0:0:
184,272,94100,2,0,L|80:296,1,100,4|0,0:0|0:0,0:0:0:0:
48,304,94381,1,0,0:0:0:0:
8,312,94475,1,8,0:0:0:0:
184,272,94662,1,2,0:0:0:0:
352,264,94850,6,0,L|260:224,2,100,4|2|8,0:0|0:0|0:0,0:0:0:0:
176,272,95600,2,0,L|288:300,1,100,4|0,0:0|0:0,0:0:0:0:
312,304,95881,1,0,0:0:0:0:
352,312,95975,1,8,0:0:0:0:
176,272,96162,1,2,0:0:0:0:
376,248,96350,6,0,L|480:224,2,100,4|2|8,0:0|0:0|0:0,0:0:0:0:
200,288,97100,2,0,L|240:184,1,100,4|0,0:0|0:0,0:0:0:0:
144,192,97381,1,0,0:0:0:0:
64,192,97475,2,0,L|20:96,1,100,8|2,0:0|0:0,0:0:0:0:
472,240,97850,6,0,L|304:112,1,200,12|10,0:0|0:0,0:0:0:0:
40,240,98412,2,0,L|208:112,1,200,12|10,0:0|0:0,0:0:0:0:
352,144,99350,6,0,L|240:192,2,100,4|0|2,0:0|0:0|0:0,0:0:0:0:
464,104,99912,1,8,0:0:0:0:
104,80,100475,1,10,0:0:0:0:
372,64,100850,6,0,L|484:112,2,100,8|2|0,0:0|0:0|0:0,0:0:0:0:
272,40,101412,1,8,0:0:0:0:
24,80,101975,1,8,0:0:0:0:
388,240,102350,5,8,0:0:0:0:
216,240,102537,1,0,0:0:0:0:
176,240,102631,1,0,0:0:0:0:
136,240,102725,1,2,0:0:0:0:
308,240,102912,5,8,0:0:0:0:
136,240,103099,1,0,0:0:0:0:
96,240,103193,1,0,0:0:0:0:
56,240,103287,1,2,0:0:0:0:
388,240,103475,1,8,0:0:0:0:
432,232,103568,1,2,0:0:0:0:
472,200,103662,1,2,0:0:0:0:
488,152,103756,1,0,0:0:0:0:
488,112,103850,6,0,L|480:2,1,100,2|0,0:0|0:0,0:0:0:0:
192,104,104225,2,0,L|200:224,1,100,2|0,0:0|0:0,0:0:0:0:
360,208,104600,2,0,L|352:98,1,100,2|0,0:0|0:0,0:0:0:0:
64,200,104975,2,0,L|72:320,1,100,2|0,0:0|0:0,0:0:0:0:
336,312,105350,5,12,0:0:0:0:
384,304,105443,1,0,0:0:0:0:
424,288,105537,1,0,0:0:0:0:
456,256,105631,1,0,0:0:0:0:
464,208,105725,1,0,0:0:0:0:
168,64,105912,5,8,0:0:0:0:
120,72,106006,1,0,0:0:0:0:
80,104,106100,1,0,0:0:0:0:
56,152,106193,1,0,0:0:0:0:
64,200,106287,1,0,0:0:0:0:
88,240,106381,1,0,0:0:0:0:
272,248,106475,5,8,0:0:0:0:
320,240,106568,1,0,0:0:0:0:
360,224,106662,1,0,0:0:0:0:
392,192,106756,1,0,0:0:0:0:
220,120,106850,5,8,0:0:0:0:
172,128,106943,1,0,0:0:0:0:
132,144,107037,1,0,0:0:0:0:
100,176,107131,1,0,0:0:0:0:
92,224,107225,1,0,0:0:0:0:
272,320,107412,5,8,0:0:0:0:
320,312,107505,1,0,0:0:0:0:
360,296,107599,1,0,0:0:0:0:
392,264,107693,1,0,0:0:0:0:
400,216,107787,1,0,0:0:0:0:
260,136,107975,5,8,0:0:0:0:
220,144,108068,1,0,0:0:0:0:
180,168,108162,1,0,0:0:0:0:
164,208,108256,1,0,0:0:0:0:
376,192,108350,5,8,0:0:0:0:
416,156,108444,1,0,0:0:0:0:
424,100,108538,1,0,0:0:0:0:
388,64,108632,1,0,0:0:0:0:
340,56,108725,1,0,0:0:0:0:
168,56,108912,5,8,0:0:0:0:
120,64,109005,1,0,0:0:0:0:
84,100,109099,1,0,0:0:0:0:
92,156,109193,1,0,0:0:0:0:
132,192,109287,1,0,0:0:0:0:
320,72,109475,1,8,0:0:0:0:
368,80,109568,1,0,0:0:0:0:
408,96,109662,1,0,0:0:0:0:
256,160,109850,5,8,0:0:0:0:
144,188,110037,2,0,L|72:216,2,50,0|0|0,0:0|0:0|0:0,0:0:0:0:
296,144,110412,5,8,0:0:0:0:
112,200,110600,2,0,L|40:228,2,50,0|0|0,0:0|0:0|0:0,0:0:0:0:
184,184,110975,5,8,0:0:0:0:
207,133,111068,1,0,0:0:0:0:
236,80,111162,1,0,0:0:0:0:
294,62,111256,1,0,0:0:0:0:
400,64,111350,1,8,0:0:0:0:
446,99,111443,1,0,0:0:0:0:
430,156,111537,1,0,0:0:0:0:
371,162,111631,1,0,0:0:0:0:
304,232,111725,6,0,L|360:216,1,50,8|0,0:0|0:0,0:0:0:0:
424,200,111912,2,0,L|368:216,1,50,8|0,0:0|0:0,0:0:0:0:
328,280,112100,2,0,L|384:264,1,50,8|0,0:0|0:0,0:0:0:0:
440,248,112287,2,0,L|384:264,1,50,8|0,0:0|0:0,0:0:0:0:
344,328,112475,2,0,L|400:312,1,50,8|0,0:0|0:0,0:0:0:0:
464,296,112662,2,0,L|408:312,1,50,8|0,0:0|0:0,0:0:0:0:
216,192,112850,5,10,0:0:0:0:
256,192,113037,12,0,114430,0:0:0:0:
160,208,114996,6,0,P|256:240|256:128,1,250,2|0,0:0|0:0,0:0:0:0:
144,96,115845,1,8,0:0:0:0:
352,208,116128,2,0,P|256:240|256:128,1,250,2|0,0:0|0:0,0:0:0:0:
368,96,116977,1,8,0:0:0:0:
160,208,117260,6,0,P|96:240|80:288,1,125,2|0,0:0|0:0,0:0:0:0:
216,336,117826,1,0,0:0:0:0:
352,336,118109,1,8,0:0:0:0:
256,192,118392,1,0,0:0:0:0:
440,48,118675,1,2,0:0:0:0:
88,48,118958,1,2,0:0:0:0:
368,192,119524,6,0,L|256:256,1,125,2|0,0:0|0:0,0:0:0:0:
88,240,120090,2,0,P|72:176|88:112,1,125,2|0,0:0|0:0,0:0:0:0:
256,67,120656,2,0,L|256:192,1,125,2|0,0:0|0:0,0:0:0:0:
424,120,121222,2,0,P|436:181|421:241,1,125,2|0,0:0|0:0,0:0:0:0:
224,256,121788,6,0,L|96:240,1,125,2|0,0:0|0:0,0:0:0:0:
176,192,122212,1,0,0:0:0:0:
392,192,122354,2,0,P|408:144|360:96,1,125,2|0,0:0|0:0,0:0:0:0:
120,192,122920,2,0,P|104:240|152:288,1,125,2|0,0:0|0:0,0:0:0:0:
336,192,123486,1,2,0:0:0:0:
256,192,123628,1,0,0:0:0:0:
176,192,123769,1,0,0:0:0:0:
256,192,123911,1,0,0:0:0:0:
368,192,124052,6,0,P|336:112|304:96,1,125,2|0,0:0|0:0,0:0:0:0:
208,96,124618,2,0,P|159:132|145:192,1,125,2|0,0:0|0:0,0:0:0:0:
304,192,125184,1,2,0:0:0:0:
112,192,125467,1,0,0:0:0:0:
464,48,125750,2,0,P|480:144|480:232,1,125,2|0,0:0|0:0,0:0:0:0:
240,240,126316,6,0,P|304:272|352:256,1,125,2|0,0:0|0:0,0:0:0:0:
304,192,126741,1,0,0:0:0:0:
232,160,126882,2,0,P|184:128|120:144,1,125,2|0,0:0|0:0,0:0:0:0:
304,192,127448,1,8,0:0:0:0:
112,192,127731,1,0,0:0:0:0:
464,336,128014,2,0,P|480:240|480:144,1,187.5,2|0,0:0|0:0,0:0:0:0:
304,112,128580,6,0,L|248:128,1,50,2|0,0:0|0:0,0:0:0:0:
352,192,128852,2,0,L|408:176,1,50,0|0,0:0|0:0,0:0:0:0:
280,128,129125,6,0,L|232:115,1,50,2|0,0:0|0:0,0:0:0:0:
135,181,129388,2,0,L|184:195,1,50,0|0,0:0|0:0,0:0:0:0:
296,288,129651,6,0,L|240:272,1,50,2|0,0:0|0:0,0:0:0:0:
160,288,129896,2,0,L|216:272,1,50,0|0,0:0|0:0,0:0:0:0:
348,96,130142,6,0,L|292:112,1,50,2|0,0:0|0:0,0:0:0:0:
208,96,130372,2,0,L|256:112,1,50,0|0,0:0|0:0,0:0:0:0:
404,240,130603,6,0,L|348:224,1,50,2|0,0:0|0:0,0:0:0:0:
280,192,130823,2,0,L|264:136,1,50,0|0,0:0|0:0,0:0:0:0:
376,144,131044,6,0,L|320:160,1,50,2|0,0:0|0:0,0:0:0:0:
240,192,131258,2,0,L|224:248,1,50,0|0,0:0|0:0,0:0:0:0:
332,240,131472,6,0,L|276:240,1,50,2|0,0:0|0:0,0:0:0:0:
192,192,131672,2,0,L|136:192,1,50,0|0,0:0|0:0,0:0:0:0:
56,192,131872,5,2,0:0:0:0:
16,160,131968,1,2,0:0:0:0:
34,103,132065,1,2,0:0:0:0:
90,80,132162,1,2,0:0:0:0:
288,48,132259,6,0,L|352:136,1,100,4|0,0:1|0:0,0:0:0:0:
376,164,132540,1,0,0:0:0:0:
152,168,132821,2,0,L|64:232,2,100,0|0|0,0:0|0:0|0:0,0:0:0:0:
192,144,133290,1,0,0:0:0:0:
232,120,133384,1,8,0:0:0:0:
102,88,133571,1,0,0:0:0:0:
376,96,133759,6,0,L|448:168,1,100,6|0,0:3|0:0,0:0:0:0:
488,200,134040,1,0,0:0:0:0:
284,300,134321,2,0,L|371:244,2,100,0|0|0,0:0|0:0|0:0,0:0:0:0:
240,324,134790,1,0,0:0:0:0:
416,352,134884,1,8,0:0:0:0:
364,352,135071,1,0,0:0:0:0:
92,348,135259,6,0,L|16:264,2,100,6|0|0,0:3|0:0|0:0,0:0:0:0:
292,352,135821,2,0,P|332:344|416:268,1,150,0|0,0:0|0:0,0:0:0:0:
464,168,136290,1,0,0:0:0:0:
464,120,136384,1,8,0:0:0:0:
352,120,136571,1,0,0:0:0:0:
212,120,136759,5,6,0:3:0:0:
352,120,136946,1,0,0:0:0:0:
392,160,137040,1,0,0:0:0:0:
212,120,137227,1,0,0:0:0:0:
64,120,137415,2,0,P|29:158|36:212,1,100,0|0,0:0|0:0,0:0:0:0:
52,248,137696,1,0,0:0:0:0:
84,280,137790,1,0,0:0:0:0:
132,300,137884,1,8,0:0:0:0:
240,308,138071,1,0,0:0:0:0:
496,312,138259,6,0,L|428:232,1,100,4|0,0:0|0:0,0:0:0:0:
400,204,138540,1,0,0:0:0:0:
224,204,138821,2,0,L|136:288,2,100,0|0|0,0:0|0:0|0:0,0:0:0:0:
380,204,139290,1,0,0:0:0:0:
428,196,139384,1,8,0:0:0:0:
468,176,139477,1,0,0:0:0:0:
496,144,139571,1,0,0:0:0:0:
236,200,139759,6,0,L|152:128,1,100,6|0,0:3|0:0,0:0:0:0:
128,112,140040,1,0,0:0:0:0:
344,104,140321,2,0,L|432:20,2,100,0|0|0,0:0|0:0|0:0,0:0:0:0:
160,104,140790,1,0,0:0:0:0:
112,112,140884,1,8,0:0:0:0:
72,132,140977,1,0,0:0:0:0:
44,164,141071,1,0,0:0:0:0:
300,172,141259,6,0,L|388:256,1,100,6|0,0:3|0:0,0:0:0:0:
404,272,141540,1,0,0:0:0:0:
512,332,141727,1,0,0:0:0:0:
352,336,141915,1,0,0:0:0:0:
188,332,142102,1,0,0:0:0:0:
144,316,142196,1,0,0:0:0:0:
104,288,142290,1,0,0:0:0:0:
76,240,142384,1,8,0:0:0:0:
164,192,142571,1,0,0:0:0:0:
428,156,142759,5,4,0:0:0:0:
276,156,143040,1,0,0:0:0:0:
428,248,143227,1,0,0:0:0:0:
384,248,143321,1,0,0:0:0:0:
340,248,143415,1,0,0:0:0:0:
300,248,143509,1,0,0:0:0:0:
200,248,143696,1,0,0:0:0:0:
340,248,143884,1,8,0:0:0:0:
200,248,144071,1,0,0:0:0:0:
484,248,144259,1,4,0:0:0:0:
208,96,147259,5,12,0:0:0:0:
80,96,147446,2,0,L|136:128,1,50,0|0,0:0|0:0,0:0:0:0:
176,144,147634,1,0,0:0:0:0:
352,112,147821,1,8,0:0:0:0:
480,112,148008,2,0,L|424:144,1,50,0|0,0:0|0:0,0:0:0:0:
384,160,148196,1,0,0:0:0:0:
248,184,148384,1,8,0:2:0:0:
88,184,148571,1,0,0:0:0:0:
248,184,148759,5,8,0:0:0:0:
376,184,148946,2,0,L|320:216,1,50,0|0,0:0|0:0,0:0:0:0:
280,232,149134,1,0,0:0:0:0:
136,272,149321,1,8,0:0:0:0:
280,288,149508,2,0,L|336:264,1,50,0|0,0:0|0:0,0:0:0:0:
376,240,149696,2,0,L|328:212,1,50,0|0,0:0|0:0,0:0:0:0:
280,208,149884,2,0,P|248:208|176:256,1,100,8|0,0:2|0:0,0:0:0:0:
304,288,150259,5,8,0:0:0:0:
432,288,150446,2,0,L|376:256,1,50,0|0,0:0|0:0,0:0:0:0:
336,240,150634,1,0,0:0:0:0:
160,272,150821,1,8,0:0:0:0:
32,272,151008,2,0,L|88:240,1,50,0|0,0:0|0:0,0:0:0:0:
128,224,151196,1,0,0:0:0:0:
264,200,151384,1,8,0:2:0:0:
424,200,151571,1,0,0:0:0:0:
288,200,151759,5,8,0:2:0:0:
152,128,151946,1,0,0:0:0:0:
304,104,152134,2,0,P|368:104|400:144,1,100,0|0,0:2|0:0,0:0:0:0:
240,208,152509,5,8,0:0:0:0:
192,232,152602,1,0,0:0:0:0:
152,264,152696,1,0,0:0:0:0:
144,304,152790,1,0,0:0:0:0:
160,344,152884,1,8,0:0:0:0:
208,352,152977,1,0,0:0:0:0:
256,336,153071,1,0,0:0:0:0:
272,288,153165,1,0,0:0:0:0:
208,192,153259,5,8,0:0:0:0:
64,192,153446,2,0,L|120:168,1,50,0|0,0:0|0:0,0:0:0:0:
176,144,153634,1,0,0:0:0:0:
376,192,153821,1,8,0:0:0:0:
232,192,154008,2,0,L|288:160,1,50,0|0,0:0|0:0,0:0:0:0:
344,144,154196,1,0,0:0:0:0:
256,192,154384,1,8,0:2:0:0:
216,192,154477,1,0,0:0:0:0:
176,192,154571,1,0,0:0:0:0:
464,192,154759,5,8,0:0:0:0:
363,216,154946,2,0,L|320:192,1,50,0|0,0:0|0:0,0:0:0:0:
275,167,155134,1,0,0:0:0:0:
152,184,155321,2,0,L|96:184,1,50,8|0,0:0|0:0,0:0:0:0:
56,128,155509,2,0,L|112:128,1,50,0|0,0:0|0:0,0:0:0:0:
160,128,155696,1,0,0:0:0:0:
336,192,155884,2,0,L|376:152,1,50,8|0,0:2|0:0,0:0:0:0:
304,144,156071,1,0,0:0:0:0:
112,144,156259,6,8,L|64:256,1,100,8|0,0:0|0:0,0:0:0:0:
56,272,156540,1,0,0:0:0:0:
32,320,156634,1,0,0:0:0:0:
208,336,156821,2,8,L|247:244,1,100,8|0,0:0|0:0,0:0:0:0:
264,208,157102,1,0,0:0:0:0:
288,160,157196,1,0,0:0:0:0:
384,152,157384,1,8,0:0:0:0:
432,136,157477,1,0,0:0:0:0:
472,120,157570,1,0,0:0:0:0:
492,80,157664,1,0,0:0:0:0:
460,40,157759,5,2,0:0:0:0:
412,40,157852,1,0,0:0:0:0:
208,72,158040,2,0,B|216:120|216:120|272:144,1,100,0|0,0:0|0:0,0:0:0:0:
300,152,158321,2,0,L|356:176,1,50,0|0,0:0|0:0,0:0:0:0:
384,184,158509,1,8,0:0:0:0:
421,231,158602,5,0,0:0:0:0:
409,289,158696,1,0,0:0:0:0:
357,319,158790,1,0,0:0:0:0:
256,320,158884,2,0,L|200:320,2,50,8|0|0,0:0|0:0|0:0,0:0:0:0:
424,184,159259,6,0,P|424:128|376:96,1,100,12|0,0:0|0:0,0:0:0:0:
328,96,159540,1,0,0:0:0:0:
264,96,159634,1,0,0:0:0:0:
104,184,159821,2,0,P|104:128|152:96,1,100,4|0,0:0|0:0,0:0:0:0:
200,96,160102,1,0,0:0:0:0:
264,96,160196,1,0,0:0:0:0:
320,120,160290,1,0,0:0:0:0:
164,192,160384,5,8,0:0:0:0:
103,183,160477,1,0,0:0:0:0:
54,219,160571,1,0,0:0:0:0:
45,279,160665,1,0,0:0:0:0:
81,328,160759,1,0,0:0:0:0:
141,337,160852,1,0,0:0:0:0:
336,336,160946,1,4,0:0:0:0:
396,327,161039,1,0,0:0:0:0:
432,278,161133,1,0,0:0:0:0:
423,218,161227,1,0,0:0:0:0:
374,182,161321,1,0,0:0:0:0:
314,190,161414,1,0,0:0:0:0:
144,128,161509,5,12,0:0:0:0:
80,128,161602,1,0,0:0:0:0:
24,128,161696,2,0,P|51:79|121:55,1,100,0|0,0:0|0:0,0:0:0:0:
344,128,162071,1,8,0:0:0:0:
400,128,162164,1,0,0:0:0:0:
456,128,162258,1,0,0:0:0:0:
424,64,162351,1,0,0:0:0:0:
384,16,162445,1,0,0:0:0:0:
224,96,162634,5,8,0:0:0:0:
181,140,162727,1,0,0:0:0:0:
180,201,162821,1,0,0:0:0:0:
220,247,162915,1,0,0:0:0:0:
280,254,163009,1,0,0:0:0:0:
330,218,163102,1,0,0:0:0:0:
144,288,163196,1,4,0:0:0:0:
101,243,163289,1,0,0:0:0:0:
100,182,163383,1,0,0:0:0:0:
140,136,163477,1,0,0:0:0:0:
200,129,163571,1,0,0:0:0:0:
250,165,163664,1,0,0:0:0:0:
408,184,163759,5,8,0:0:0:0:
456,168,163852,1,0,0:0:0:0:
480,128,163946,1,0,0:0:0:0:
472,80,164040,1,0,0:0:0:0:
448,48,164134,1,0,0:0:0:0:
408,32,164233,1,0,0:0:0:0:
288,40,164332,1,4,0:0:0:0:
240,56,164432,1,0,0:0:0:0:
208,88,164531,1,0,0:0:0:0:
200,136,164630,1,0,0:0:0:0:
224,184,164730,1,0,0:0:0:0:
272,216,164829,1,0,0:0:0:0:
360,248,164928,5,8,0:0:0:0:
408,264,165032,1,0,0:0:0:0:
440,296,165136,1,0,0:0:0:0:
448,336,165240,1,0,0:0:0:0:
448,376,165344,1,0,0:0:0:0:
240,192,165553,5,4,0:0:0:0:
263,135,165657,1,0,0:0:0:0:
319,112,165761,1,0,0:0:0:0:
424,112,165986,1,0,0:0:0:0:
240,192,166212,5,8,0:0:0:0:
263,248,166324,1,0,0:0:0:0:
319,271,166437,1,0,0:0:0:0:
448,272,166663,1,0,0:0:0:0:
96,192,166903,5,4,0:0:0:0:
200,112,167143,1,0,0:0:0:0:
80,48,167383,1,0,0:0:0:0:
408,192,167623,5,8,0:0:0:0:
312,112,167877,1,0,0:0:0:0:
424,48,168131,1,0,0:0:0:0:
216,112,168389,5,4,0:0:0:0:
168,208,168648,1,0,0:0:0:0:
280,272,168928,1,0,0:0:0:0:
416,112,169208,5,8,0:0:0:0:
464,208,169499,1,0,0:0:0:0:
352,272,169821,1,0,0:0:0:0:
128,192,170178,6,0,L|216:128,1,100,4|0,0:0|0:0,0:0:0:0:
416,192,171035,1,0,0:0:0:0:
256,192,171580,12,0,173932,0:0:0:0:
