osu file format v5

[General]
AudioFilename: OUENDAN 2 COUNTDOWN.mp3
AudioLeadIn: 0
PreviewTime: 56470
Countdown: 1
SampleSet: Normal
StackLeniency: 0.7
Mode: 0
LetterboxInBreaks: 1

[Metadata]
Title:COUNTDOWN
Artist:Hyde
Creator:mattyu007
Version:Normal
Source:
Tags:

[Difficulty]
HPDrainRate:4
CircleSize:3
OverallDifficulty:4
SliderMultiplier:1.5
SliderTickRate:2

[Events]
//Background and Video events
0,0,"Picture 2 copy.png"
//Break Periods
2,37955,55452
2,75676,83467
//Storyboard Layer 0 (Background)
//Storyboard Layer 1 (Failing)
//Storyboard Layer 2 (Passing)
//Storyboard Layer 3 (Foreground)
//Storyboard Sound Samples
//Background Colour Transformations
3,100,163,162,255

[TimingPoints]
19300,292.682926829268,4,1,0,100,1,0
56470,-100,4,1,0,100,0,1
73153,-100,4,1,0,100,0,0
75495,-100,4,1,0,100,0,1
75641,-100,4,1,0,100,0,0
84568,-100,4,1,0,100,0,1
103592,-100,4,1,0,100,0,0
105787,-100,4,1,0,100,0,1

[Colours]
Combo1 : 240,5,5
Combo2 : 255,150,0
Combo3 : 5,240,5
Combo4 : 5,5,240

[HitObjects]
176,176,19300,1,0
320,232,19592,1,0
176,296,19885,1,0
24,352,20178,1,2
24,192,20470,1,0
24,32,20763,1,0
24,32,20909,1,0
256,64,21348,1,2
336,208,21641,5,0
192,152,21934,1,0
336,88,22226,1,0
488,32,22519,1,2
488,192,22812,1,0
488,352,23104,1,0
488,352,23251,1,2
256,320,23690,1,2
336,208,23982,5,0
176,248,24275,1,0
336,288,24568,1,2
176,328,24860,1,0
176,328,25007,1,2
176,168,25300,1,2
336,128,25592,1,0
336,128,25739,1,2
176,80,26031,1,0
176,248,26324,5,0
336,288,26617,1,0
176,328,26909,1,2
336,368,27202,1,0
336,368,27348,1,2
336,208,27641,1,2
176,168,27934,1,0
176,168,28080,1,2
336,0,28665,6,0,B|432:24|464:112,2,150,0|2|2
176,0,29543,2,0,B|80:24|48:112,1,150,0|2
56,264,30129,1,0
56,264,30275,1,2
256,168,30714,1,2
336,280,31007,6,0,B|432:256|464:168,2,150,0|2|2
176,280,31885,2,0,B|80:256|48:168,1,150,0|2
56,16,32470,1,0
56,16,32617,1,2
256,112,33056,1,2
176,208,33348,5,0
336,248,33641,1,2
176,288,33934,1,2
336,328,34226,1,0
336,328,34373,1,2
336,168,34665,1,2
176,128,34958,1,0
176,128,35104,1,2
336,80,35397,1,2
376,224,35690,5,4
136,224,36129,1,4
256,56,36568,2,6,B|256:392,1,300
176,288,37446,1,4
336,288,37739,1,6
256,272,56617,6,2,B|72:208|184:-16|424:40|376:272,1,525,6|2
336,336,57787,2,2,B|192:408|64:296|72:152,1,375,6|2
200,0,58958,2,2,B|334:-8|414:0|454:88|478:152|486:208|451:365,1,525,6|2
384,288,60129,5,2
224,368,60421,1,6
384,368,60714,1,6
224,288,61007,1,2
256,128,61299,2,2,B|159:101|102:148|14:197|14:363,1,375,2|6
256,368,62617,5,0
256,16,63202,1,0
157,201,63641,2,2,B|216:264|296:264|368:184,1,225
336,16,64373,5,2
336,16,64665,1,2
176,16,64958,1,2
176,16,65251,1,2
256,168,65543,1,6
256,168,65690,1,6
256,272,65982,6,2,B|440:208|328:-16|88:40|136:272,1,525,6|2
176,336,67153,2,2,B|320:408|448:296|440:152,1,375,6|2
312,0,68324,2,2,B|178:-8|98:0|58:88|34:152|26:208|61:365,1,525,6|2
128,288,69495,5,6
288,368,69787,1,2
128,368,70080,1,6
288,288,70373,1,2
256,128,70665,2,2,B|353:101|410:148|498:197|498:363,1,375,2|6
256,368,71982,5,6
256,16,72568,1,6
256,192,73153,12,6,75495
256,24,84714,5,2
187,245,85153,2,2,B|256:304|341:232,2,150
256,192,85885,1,4
496,240,86617,2,2,B|503:153|457:88,1,150,2|6
414,37,87056,2,2,B|232:-53|22:15|30:239,1,525,2|6
120,208,88226,5,2
280,288,88519,1,6
120,288,88812,1,2
280,208,89104,1,6
280,368,89397,2,2,B|360:384|416:344|504:320|520:128,1,375,2|6
56,24,90714,5,6
456,24,91299,1,6
160,146,91739,2,2,B|208:216|304:216|360:136,1,225
336,272,92470,5,2
336,272,92763,1,2
176,272,93056,1,2
176,272,93348,1,2
256,120,93641,1,6
256,120,93787,1,6
288,336,94080,6,6,B|392:384|456:376|544:288|488:176|456:120|352:104|304:160|280:200,1,525
224,256,95251,2,6,B|120:304|56:296|-32:208|24:96|56:40|160:24|208:80|232:120,1,525
296,176,96421,2,6,B|400:224|464:216|552:128|496:16|464:-40|360:-56|312:0|288:40,1,525
352,96,97592,5,2
352,288,97885,1,6
160,288,98178,1,2
160,96,98470,1,6
256,0,98763,2,2,B|174:-16|118:8|26:45|13:241,1,375,2|6
416,216,100080,5,6
336,352,100373,1,2
176,352,100665,1,6
96,216,100958,1,4
160,64,101251,5,6
160,64,101397,1,6
160,64,101543,1,6
352,64,101836,5,6
352,64,101982,1,6
352,64,102129,1,6
352,256,102421,5,6
352,256,102568,1,6
352,256,102714,1,6
160,256,103007,5,6
160,256,103153,1,6
160,256,103299,1,6
256,192,103592,12,6,105787
