osu file format v5

[General]
AudioFilename: OUENDAN 2 COUNTDOWN.mp3
AudioLeadIn: 0
PreviewTime: 56470
Countdown: 1
SampleSet: Normal
StackLeniency: 0.7
Mode: 0
LetterboxInBreaks: 1
EditorBookmarks: 19007

[Metadata]
Title:COUNTDOWN
Artist:Hyde
Creator:mattyu007
Version:Insane
Source:
Tags:

[Difficulty]
HPDrainRate:7
CircleSize:4
OverallDifficulty:8
SliderMultiplier:1.7
SliderTickRate:2

[Events]
//Background and Video events
0,0,"Picture 2 copy.png"
//Break Periods
2,37955,55452
2,75676,83467
//Storyboard Layer 0 (Background)
//Storyboard Layer 1 (Failing)
//Storyboard Layer 2 (Passing)
//Storyboard Layer 3 (Foreground)
//Storyboard Sound Samples
//Background Colour Transformations
3,100,0,0,0

[TimingPoints]
19300,292.682926829268,4,1,0,100,1,0
56470,-100,4,1,0,100,0,1
73153,-100,4,1,0,100,0,0
75495,-100,4,1,0,100,0,1
75641,-100,4,1,0,100,0,0
84568,-100,4,1,0,100,0,1
103592,-100,4,1,0,100,0,0
105787,-100,4,1,0,100,0,1

[Colours]
Combo1 : 240,5,5
Combo2 : 255,150,0
Combo3 : 5,240,5
Combo4 : 5,5,240

[HitObjects]
360,128,19300,1,0
192,176,19592,1,2
192,176,19739,1,2
192,176,19885,1,2
216,0,20178,1,0
296,0,20324,2,2,B|464:0|520:128,1,255,2|2
440,152,20909,1,0
512,192,21056,1,0
496,344,21348,1,0
360,208,21641,5,0
192,160,21933,1,2
192,160,22080,1,2
192,160,22226,1,2
296,336,22519,1,0
216,336,22665,2,2,B|48:336|-8:208,1,255,2|2
0,144,23250,1,0
72,184,23397,1,0
88,48,23690,1,4
176,192,23982,5,2
256,216,24129,1,2
336,240,24275,1,2
176,272,24568,1,2
176,112,24860,1,4
176,112,25007,1,2
336,160,25300,1,2
176,192,25592,1,0
176,192,25739,1,2
336,240,26031,1,0
176,272,26324,5,4
256,296,26470,1,2
336,320,26617,1,2
176,352,26909,1,2
176,192,27202,1,0
176,192,27348,1,2
336,240,27641,1,2
176,272,27934,1,0
176,272,28080,1,2
16,240,28373,1,4
144,112,28665,5,0
304,112,28958,1,2
344,184,29104,1,2
384,112,29251,1,2
296,0,29543,1,0
216,0,29690,2,2,B|48:0|-8:128,1,255
72,152,30275,1,0
0,192,30421,1,0
16,344,30714,1,2
152,264,31007,5,0
304,264,31300,1,2
344,192,31446,1,2
384,264,31592,1,2
248,328,31885,1,0
312,384,32031,2,2,B|464:384|520:256,1,255
512,184,32617,1,0
440,232,32763,1,2
496,72,33056,1,4
336,112,33348,5,2
256,136,33495,1,2
176,160,33641,1,2
336,192,33934,1,2
336,32,34226,1,0
336,32,34373,1,2
176,80,34665,1,2
336,112,34958,1,0
336,112,35104,1,2
176,160,35397,1,4
208,352,35690,6,2,B|263:360|336:338|344:328|400:288,1,170,2|0
304,256,36129,2,2,B|249:264|176:242|168:232|112:192,1,170,2|0
208,160,36568,2,2,B|263:168|336:146|344:136|400:96,2,170,2|2|6
256,24,37446,1,2
256,24,37739,1,6
256,360,56617,5,2
120,152,57056,2,2,B|50:224|127:331,2,170,2|2|2
200,168,57787,1,0
392,312,58226,2,2,B|462:240|385:133,2,170
312,296,58958,1,0
176,88,59397,2,2,B|256:25|355:103,2,170
168,168,60129,5,4
168,0,60421,1,4
344,0,60714,1,6
344,168,61007,1,4
176,296,61299,2,2,B|256:359|355:281,1,170
392,232,61739,1,0
256,200,62031,1,4
120,232,62324,1,4
176,88,62617,6,2,B|256:25|355:103,2,170
174,242,63495,1,0
232,296,63641,2,2,B|399:293|416:111,1,255
256,104,64373,5,2
256,104,64519,1,6
256,104,64665,1,2
176,48,64958,5,4
336,48,65251,1,4
256,192,65543,1,2
256,192,65690,1,2
256,360,65982,5,2
392,152,66421,2,2,B|462:224|385:331,2,170,2|2|2
312,168,67152,1,0
120,312,67591,2,2,B|50:240|127:133,2,170
200,296,68323,1,0
336,88,68762,2,2,B|256:25|157:103,2,170
344,168,69494,5,4
344,0,69786,1,4
168,0,70079,1,6
168,168,70372,1,4
336,296,70664,2,2,B|256:359|157:281,1,170
120,232,71104,1,0
256,200,71396,1,4
392,232,71689,1,4
336,88,71982,6,2,B|256:25|157:103,3,170
256,192,73153,12,6,75495
256,352,84714,5,2
336,176,85007,1,4
336,176,85153,2,2,B|406:248|329:355,2,170
256,176,85885,1,0
167,332,86178,1,4
168,332,86324,2,2,B|106:248|176:176,2,170
256,336,87056,2,0,B|256:144,1,170
336,88,87495,2,2,B|256:25|157:103,2,170
344,168,88226,5,6
344,0,88519,1,4
168,0,88812,1,6
168,168,89104,1,4
336,296,89397,2,2,B|256:359|157:281,1,170
120,232,89837,1,0
256,200,90129,1,4
392,232,90422,1,4
336,88,90714,6,2,B|256:25|157:103,2,170
336,240,91592,1,0
278,294,91739,2,2,B|111:291|94:109,1,255
216,120,92470,5,2
256,48,92617,1,6
296,120,92763,1,2
336,48,93056,5,4
176,48,93348,1,4
256,192,93641,1,2
256,192,93787,1,2
256,352,94080,5,2
176,176,94373,1,4
176,176,94519,2,2,B|106:248|183:355,2,170
256,176,95251,1,0
345,332,95544,1,4
344,332,95690,2,2,B|406:248|336:176,2,170
256,336,96422,2,2,B|256:144,1,170,2|0
176,88,96861,2,2,B|256:25|355:103,2,170
168,168,97592,5,6
168,0,97885,1,4
344,0,98178,1,6
344,168,98470,1,4
176,296,98763,2,2,B|256:359|355:281,1,170
392,232,99203,1,0
256,200,99495,1,4
120,224,99788,1,4
176,88,100080,6,2,B|256:25|355:103,3,170
400,256,101251,5,6
360,328,101397,1,0
320,256,101543,1,2
256,304,101690,1,0
192,256,101836,1,6
152,328,101982,1,0
112,256,102129,1,2
112,128,102421,5,6
152,56,102568,1,0
192,128,102714,1,2
256,80,102860,1,0
320,128,103007,1,6
360,56,103153,1,0
400,128,103299,1,2
256,192,103592,12,6,105787
