osu file format v5

[General]
AudioFilename: OUENDAN 2 COUNTDOWN.mp3
AudioLeadIn: 0
PreviewTime: 56470
Countdown: 1
SampleSet: Normal
StackLeniency: 0.7
Mode: 0
LetterboxInBreaks: 1
EditorBookmarks: 19007

[Metadata]
Title:COUNTDOWN
Artist:Hyde
Creator:mattyu007
Version:Hard
Source:
Tags:

[Difficulty]
HPDrainRate:5
CircleSize:3
OverallDifficulty:6
SliderMultiplier:1.7
SliderTickRate:2

[Events]
//Background and Video events
0,0,"Picture 2 copy.png"
//Break Periods
2,37955,55452
2,75676,83467
//Storyboard Layer 0 (Background)
//Storyboard Layer 1 (Failing)
//Storyboard Layer 2 (Passing)
//Storyboard Layer 3 (Foreground)
//Storyboard Sound Samples
//Background Colour Transformations
3,100,163,162,255

[TimingPoints]
19300,292.682926829268,4,1,0,100,1,0
56470,-100,4,1,0,100,0,1
73153,-100,4,1,0,100,0,0
75495,-100,4,1,0,100,0,1
75641,-100,4,1,0,100,0,0
84568,-100,4,1,0,100,0,1
103592,-100,4,1,0,100,0,0
105787,-100,4,1,0,100,0,1

[Colours]
Combo1 : 240,5,5
Combo2 : 255,150,0
Combo3 : 5,240,5
Combo4 : 5,5,240

[HitObjects]
152,232,19300,1,0
320,184,19592,1,2
320,184,19739,1,2
320,184,19885,1,2
296,360,20178,1,0
216,360,20324,2,2,B|48:360|-8:232,1,255,2|2
72,208,20909,1,0
0,168,21056,1,0
16,16,21348,1,0
152,152,21641,5,0
320,200,21933,1,2
320,200,22080,1,2
320,200,22226,1,2
216,24,22519,1,0
296,24,22665,2,2,B|464:24|520:152,1,255,2|2
512,216,23250,1,0
440,176,23397,1,0
424,312,23690,1,4
336,168,23982,5,2
256,144,24129,1,2
176,120,24275,1,2
336,88,24568,1,2
336,248,24860,1,4
336,248,25007,1,2
176,200,25300,1,2
336,168,25592,1,0
336,168,25739,1,2
176,120,26031,1,0
336,88,26324,5,4
256,64,26470,1,2
176,40,26617,1,2
336,8,26909,1,2
336,168,27202,1,0
336,168,27348,1,2
176,120,27641,1,2
336,88,27934,1,0
336,88,28080,1,2
504,120,28373,1,4
368,248,28665,5,0
208,248,28958,1,2
168,176,29104,1,2
128,248,29251,1,2
216,360,29543,1,0
296,360,29690,2,2,B|464:360|520:232,1,255
440,208,30275,1,0
512,168,30421,1,0
496,16,30714,1,2
360,120,31007,5,0
208,120,31300,1,2
168,192,31446,1,2
128,120,31592,1,2
256,56,31885,1,0
200,0,32031,2,2,B|48:0|-8:128,1,255
0,200,32617,1,0
72,152,32763,1,2
16,312,33056,1,4
176,272,33348,5,2
256,248,33495,1,2
336,224,33641,1,2
176,192,33934,1,2
176,352,34226,1,0
176,352,34373,1,2
336,304,34665,1,2
176,272,34958,1,0
176,272,35104,1,2
336,224,35397,1,4
304,32,35690,6,2,B|249:24|176:46|168:56|112:96,1,170,2|0
208,128,36129,2,2,B|263:120|336:142|344:152|400:192,1,170,2|0
304,224,36568,2,2,B|249:216|176:238|168:248|112:288,2,170,2|2|6
256,360,37446,1,2
256,360,37739,1,6
256,0,56617,5,2
392,208,57056,2,2,B|462:136|385:29,2,170,2|2|2
312,192,57787,1,0
120,48,58226,2,2,B|50:120|127:227,2,170
200,64,58958,1,0
336,272,59397,2,2,B|256:335|157:257,2,170
344,192,60129,5,4
344,360,60421,1,4
168,360,60714,1,6
168,192,61007,1,4
336,64,61299,2,2,B|256:1|157:79,1,170
120,128,61739,1,0
256,160,62031,1,4
392,128,62324,1,4
336,272,62617,6,2,B|256:335|157:257,2,170
338,118,63495,1,0
280,64,63641,2,2,B|113:67|96:249,1,255
256,256,64373,5,2
256,256,64519,1,6
256,256,64665,1,2
336,312,64958,5,4
176,312,65251,1,4
256,168,65543,1,2
256,168,65690,1,2
256,0,65982,5,2
120,208,66421,2,2,B|50:136|127:29,2,170,2|2|2
200,192,67152,1,0
392,48,67591,2,2,B|462:120|385:227,2,170
312,64,68323,1,0
176,272,68762,2,2,B|256:335|355:257,2,170
168,192,69494,5,4
168,360,69786,1,4
344,360,70079,1,6
344,192,70372,1,4
176,64,70664,2,2,B|256:1|355:79,1,170
392,128,71104,1,0
256,160,71396,1,4
120,128,71689,1,4
176,272,71982,6,2,B|256:335|355:257,3,170
256,192,73153,12,6,75495
256,8,84714,5,2
176,184,85007,1,4
176,184,85153,2,2,B|106:112|183:5,2,170
256,184,85885,1,0
345,28,86178,1,4
344,28,86324,2,2,B|406:112|336:184,2,170
256,24,87056,2,0,B|256:216,1,170
176,272,87495,2,2,B|256:335|355:257,2,170
168,192,88226,5,6
168,360,88519,1,4
344,360,88812,1,6
344,192,89104,1,4
176,64,89397,2,2,B|256:1|355:79,1,170
392,128,89837,1,0
256,160,90129,1,4
120,128,90422,1,4
176,272,90714,6,2,B|256:335|355:257,2,170
176,120,91592,1,0
234,66,91739,2,2,B|401:69|418:251,1,255
296,240,92470,5,2
256,312,92617,1,6
216,240,92763,1,2
176,312,93056,5,4
336,312,93348,1,4
256,168,93641,1,2
256,168,93787,1,2
256,8,94080,5,2
336,184,94373,1,4
336,184,94519,2,2,B|406:112|329:5,2,170
256,184,95251,1,0
167,28,95544,1,4
168,28,95690,2,2,B|106:112|176:184,2,170
256,24,96422,2,2,B|256:216,1,170,2|0
336,272,96861,2,2,B|256:335|157:257,2,170
344,192,97592,5,6
344,360,97885,1,4
168,360,98178,1,6
168,192,98470,1,4
336,64,98763,2,2,B|256:1|157:79,1,170
120,128,99203,1,0
256,160,99495,1,4
392,128,99787,1,0
336,272,100080,6,2,B|256:335|157:257,3,170
112,104,101251,5,6
152,32,101397,1,0
192,104,101543,1,2
256,56,101690,1,0
320,104,101836,1,6
360,32,101982,1,0
400,104,102129,1,2
400,232,102421,5,6
360,304,102568,1,0
320,232,102714,1,2
256,280,102860,1,0
192,232,103007,1,6
152,304,103153,1,0
112,232,103299,1,2
256,192,103592,12,6,105787
